<?xml version="1.0" encoding="UTF-8"?><!DOCTYPE svg  PUBLIC '-//W3C//DTD SVG 1.1//EN'  'http://www.w3.org/Graphics/SVG/1.1/DTD/svg11.dtd'><svg version="1.1" xmlns="http://www.w3.org/2000/svg" xmlns:xlink="http://www.w3.org/1999/xlink"><defs><font horiz-adv-x="500.0" id="Custom-Script"><font-face ascent="800.0" cap-height="500.0" descent="-200.0" font-family="Custom-Script" units-per-em="1000" x-height="300.0"/><missing-glyph horiz-adv-x="500.0"/><glyph glyph-name="space" horiz-adv-x="500.0" unicode=" "/><glyph d="M502.2 487.6C496.2 495.8 466.1 473.1 493.8 464.7C505.2 461.3 530.0 483.1 525.0 514.3C521.9 533.8 473.6 574.1 411.2 553.1C385.4 544.5 283.0 509.4 331.3 367.4C400.7 199.5 237.4 90.3 142.5 163.2C129.6 173.1 115.7 219.8 151.3 232.1C174.4 240.1 173.5 230.5 174.3 228.1C175.6 224.6 177.0 204.2 148.2 210.3M558.0 665.2C558.0 665.2 75.9 16.1 75.9 16.1" glyph-name="$" horiz-adv-x="558.0" unicode="$"/><glyph d="M514.3 685.7C514.3 685.7 -41.1 450.0 153.6 -83.9" glyph-name="(" horiz-adv-x="514.3" unicode="("/><glyph d="M72.7 22.9C72.7 22.9 65.2 65.9 101.7 69.6C127.2 72.2 127.0 -31.4 -18.2 -98.3" glyph-name="," horiz-adv-x="114.5" unicode=","/><glyph d="M529.1 232.2C740.3 581.0 594.8 667.8 575.4 674.0C444.2 715.7 254.4 514.1 185.2 366.9C132.9 255.8 89.8 97.3 159.9 13.4C189.3 -21.7 397.7 15.2 529.1 232.2C529.1 232.2 529.1 232.2 529.1 232.2" glyph-name="0" horiz-adv-x="517.7" unicode="0"/><glyph d="M584.6 662.6C584.6 662.6 282.6 289.3 211.2 267.0C211.2 267.0 85.4 213.8 53.6 267.0C47.5 277.1 70.4 336.0 213.2 309.2C216.9 312.2 414.4 259.9 458.2 244.7C458.2 244.7 644.1 186.6 736.3 272.9M720.0 479.7C720.0 479.7 449.2 256.6 303.5 -27.6" glyph-name="4" horiz-adv-x="654.0" unicode="4"/><glyph d="M383.7 381.5C395.4 383.5 452.7 379.3 519.1 430.5C562.9 464.3 603.6 518.0 603.9 577.9C603.9 577.9 600.1 752.6 387.4 649.3C361.1 627.4 261.7 558.5 359.9 396.4C359.9 396.4 525.0 180.7 425.4 69.1C425.4 69.1 322.7 -44.3 190.3 18.5C184.0 21.6 66.9 101.8 165.0 255.1C165.1 255.1 227.9 369.2 383.7 381.5C383.7 381.5 383.7 381.5 383.7 381.5" glyph-name="8" horiz-adv-x="532.8" unicode="8"/><glyph d="M338.1 349.0C338.1 349.0 100.4 239.6 100.4 239.6C100.4 239.6 303.4 136.5 303.4 136.5" glyph-name="&lt;" horiz-adv-x="341.1" unicode="&lt;"/><glyph d="M399.9 165.8C399.9 165.8 422.2 225.3 414.8 242.4C407.3 259.5 285.0 269.6 188.7 125.6C180.7 113.7 144.3 33.1 179.7 8.9C189.5 2.2 224.0 -15.5 329.2 93.7C414.3 181.9 429.2 195.2 472.8 238.7C468.7 240.7 337.8 60.0 330.0 46.8C318.2 27.0 344.8 -18.6 408.8 9.6C731.9 152.0 630.2 510.0 277.2 352.5C-184.8 72.9 81.4 -293.0 437.8 -65.5C437.8 -65.5 617.8 67.5 496.6 148.7" glyph-name="@" horiz-adv-x="555.4" unicode="@"/><glyph d="M960.7 642.4C729.4 618.2 609.6 364.1 449.5 202.8C387.5 144.9 301.3 42.5 226.5 26.1C-44.8 -33.3 -4.9 39.7 -4.9 39.7C55.0 97.6 270.7 22.9 270.7 22.9C431.6 -23.4 593.8 35.2 648.3 90.2C903.4 347.7 757.7 554.1 757.7 554.1C602.2 787.4 188.6 621.4 141.3 443.6C89.8 250.5 260.4 284.8 268.6 286.9C532.9 355.1 554.7 568.8 554.7 568.8" glyph-name="D" horiz-adv-x="758.9" unicode="D"/><glyph d="M136.4 615.0C136.4 615.0 240.4 707.3 340.0 657.7C406.7 624.5 270.6 569.3 256.9 495.2C249.9 489.0 272.7 433.7 346.3 460.5C346.3 460.5 422.6 486.2 463.6 519.4C463.6 519.4 648.8 682.9 661.4 677.2C661.4 677.2 475.2 558.3 300.6 289.0C300.6 289.0 88.2 11.3 -47.6 5.0C-47.6 5.0 -166.6 -6.6 -147.6 75.4C-142.8 96.2 -115.9 97.0 -108.6 90.2C-100.9 83.1 -101.2 62.9 -124.4 67.1M0.8 122.8C0.8 122.8 47.1 211.2 244.8 259.6C244.8 259.6 564.6 343.7 564.6 343.7C564.6 343.7 832.3 422.4 960.6 562.2C960.6 562.2 1119.5 766.5 878.6 641.3C852.3 627.6 617.0 427.4 508.9 265.9C412.0 121.2 389.6 68.9 410.0 27.1C410.0 27.1 473.1 -57.0 593.0 83.9C593.0 83.9 657.2 151.2 670.8 231.2" glyph-name="H" horiz-adv-x="785.7" unicode="H"/><glyph d="M266.7 552.6C266.7 552.6 50.3 525.2 109.3 323.5C120.1 286.7 210.1 225.5 390.4 248.2C390.4 248.2 776.4 337.6 867.4 606.3C867.5 606.4 883.6 750.3 660.7 630.7C348.5 412.3 241.2 -100.5 -104.9 11.7C-109.5 13.2 -206.6 85.4 20.9 73.2C191.6 47.4 381.3 -70.0 535.3 49.6" glyph-name="L" horiz-adv-x="662.5" unicode="L"/><glyph d="M744.3 675.5C744.3 675.5 606.8 675.7 377.1 353.2C273.9 225.0 88.7 -90.6 -86.2 25.7C-98.9 34.1 -107.9 66.7 -91.4 89.6C-91.4 89.6 -64.4 108.6 -54.6 85.8C-54.6 85.8 -50.0 59.6 -83.1 67.1M337.9 594.9C280.8 227.6 -142.7 235.1 46.7 505.1C46.7 505.1 121.5 621.4 365.6 672.0C365.6 672.0 580.8 706.6 674.1 624.8C752.3 556.3 728.2 345.1 483.0 285.3C483.0 285.3 347.0 268.2 296.5 323.2C283.1 337.9 283.8 391.2 341.4 391.2" glyph-name="P" horiz-adv-x="632.1" unicode="P"/><glyph d="M654.8 570.7C627.6 561.5 496.4 455.6 392.0 284.3C358.7 229.6 302.1 153.3 229.6 89.7C126.9 -0.4 -91.2 -45.9 -111.9 79.8C-101.2 123.2 -68.2 109.7 -68.2 109.7C-54.9 97.1 -62.4 68.3 -92.9 82.7M479.8 593.8C479.8 593.8 426.8 407.3 288.7 386.6C288.7 386.6 145.5 366.2 215.0 507.4C235.7 549.3 346.2 647.3 475.2 657.1C653.9 670.6 876.5 573.5 1003.5 734.2" glyph-name="T" horiz-adv-x="666.1" unicode="T"/><glyph d="M434.0 640.9C434.0 640.9 376.4 433.7 208.4 377.3C208.4 377.3 78.3 329.0 126.6 467.1C126.6 467.1 247.5 703.1 439.7 690.4C439.7 690.4 629.7 707.7 429.4 325.5C429.4 325.5 290.1 56.2 401.7 14.7C401.7 14.7 495.0 -35.9 632.0 87.3C788.9 246.5 712.8 406.3 605.5 338.2C534.7 293.3 545.5 224.3 577.9 200.1M974.8 659.6C974.8 659.6 962.5 642.1 976.8 634.8C976.8 634.8 1008.1 631.9 999.6 665.7C1003.8 665.0 978.4 720.1 847.0 659.6C705.3 594.4 590.9 469.7 489.8 369.8C270.9 174.1 207.7 60.2 3.5 4.4C-31.5 -4.6 -140.5 23.3 -119.7 89.6C-120.1 90.0 -101.9 125.1 -73.4 106.3C-59.9 97.4 -70.2 67.7 -102.4 83.8" glyph-name="X" horiz-adv-x="776.8" unicode="X"/><glyph d="M-133.5 662.3C-133.5 662.3 327.2 -44.8 327.2 -44.8" glyph-name="\" horiz-adv-x="354.1" unicode="\"/><glyph d="M-276.0 -229.7C-156.5 -137.0 368.6 866.9 542.1 755.7C570.8 736.8 585.0 693.5 548.0 635.8C521.1 593.8 471.3 552.3 339.3 455.2C281.0 412.3 292.0 395.5 311.7 283.0C320.2 234.1 336.7 5.2 142.9 3.6C110.9 3.3 37.3 37.6 74.1 111.6C116.3 153.0 146.7 93.0 91.1 100.0M228.6 20.5C305.3 15.3 412.8 70.1 497.8 183.5" glyph-name="ß" horiz-adv-x="497.8" unicode="ß"/><glyph d="M39.1 507.3C39.1 507.3 55.7 554.9 23.5 550.7C1.3 547.8 3.7 465.6 135.1 390.3" glyph-name="`" horiz-adv-x="142.2" unicode="`"/><glyph d="M0.0 183.5C11.6 201.5 278.8 436.4 282.0 254.8C300.8 271.6 245.2 432.8 24.0 190.4C-30.8 127.6 -74.4 4.8 0.0 -0.0C55.2 -0.0 104.0 48.0 206.4 154.8C369.2 344.4 503.6 555.2 651.6 756.4C476.4 502.8 299.2 275.2 161.6 51.6C161.2 50.8 137.2 -3.6 182.4 -0.0C292.0 8.4 382.0 130.7 428.0 183.5" glyph-name="d" horiz-adv-x="428.0" unicode="d"/><glyph d="M0.0 183.5C0.0 183.5 426.8 754.4 426.8 754.4C426.8 754.4 -83.2 14.8 -83.2 14.8C-54.0 36.0 76.4 188.8 181.6 270.8C285.2 358.0 396.8 336.0 268.8 184.4C248.8 161.2 216.8 131.6 185.6 88.4C90.0 -44.8 253.6 -18.0 349.2 73.2C400.8 128.0 421.6 153.5 446.4 183.5" glyph-name="h" horiz-adv-x="446.4" unicode="h"/><glyph d="M427.2 756.0C427.2 756.0 196.0 416.8 13.6 170.8C-76.0 49.2 -102.8 -30.0 22.0 10.8C69.2 26.4 159.6 108.7 224.8 183.5" glyph-name="l" horiz-adv-x="224.8" unicode="l"/><glyph d="M0.0 183.5C0.0 183.5 229.6 465.2 229.6 465.2C229.6 465.2 -328.8 -308.4 -347.2 -334.0C-302.8 -307.2 1.2 201.6 290.8 317.6C341.6 335.6 407.2 306.0 324.0 219.6C300.4 195.2 153.2 105.2 139.6 52.4C139.6 52.4 116.8 -38.0 243.6 16.0C243.6 16.0 320.8 60.7 422.4 183.5" glyph-name="p" horiz-adv-x="422.4" unicode="p"/><glyph d="M0.0 183.5C0.0 183.5 275.2 541.6 275.2 541.6C275.2 541.6 140.0 356.0 -25.2 116.0C-56.0 70.8 -92.4 -0.0 -32.4 -0.0C-22.0 -0.0 -7.6 0.8 9.2 6.0C9.2 6.0 88.4 22.7 214.8 183.5M113.2 416.0C113.2 416.0 360.0 416.0 360.0 416.0" glyph-name="t" horiz-adv-x="214.8" unicode="t"/><glyph d="M0.0 183.5C52.0 241.6 132.1 316.5 165.7 325.7C264.8 353.1 232.3 210.1 83.4 81.3C29.2 34.4 -25.3 9.9 -52.0 5.9C-65.5 3.8 -88.7 2.4 -88.7 26.3C-88.7 26.4 -73.2 51.6 -56.4 31.1C-54.9 29.3 -76.0 16.0 -47.1 14.4C19.7 10.6 151.6 133.2 250.7 228.2M405.4 303.7C405.4 303.7 415.6 267.9 438.6 289.2C447.4 297.4 444.7 336.6 392.6 327.6C375.6 324.7 319.6 318.4 223.2 195.5C216.7 187.3 134.1 65.4 152.9 28.9C171.7 -7.7 220.7 -1.0 264.8 24.5C308.9 49.9 345.2 66.1 451.7 183.5" glyph-name="x" horiz-adv-x="451.7" unicode="x"/><glyph d="M499.4 659.3C499.4 659.3 42.3 14.0 42.3 14.0M640.8 659.3C640.8 659.3 183.7 14.0 183.7 14.0M215.3 414.3C215.3 414.3 567.6 414.3 567.6 414.3M124.4 271.6C124.4 271.6 476.6 271.6 476.6 271.6" glyph-name="#" horiz-adv-x="640.8" unicode="#"/><glyph d="M399.3 585.5C399.3 585.5 475.1 713.1 511.7 764.8C518.6 774.6 536.9 790.0 544.5 779.9C551.7 770.3 544.4 755.7 538.2 748.4C538.2 748.4 399.3 585.5 399.3 585.5" glyph-name="'" horiz-adv-x="547.5" unicode="'"/><glyph d="M102.2 240.1C102.2 240.1 383.8 240.1 383.8 240.1M324.5 379.0C324.5 379.0 149.6 91.7 149.6 91.7" glyph-name="+" horiz-adv-x="383.8" unicode="+"/><glyph d="M528.6 664.3C528.6 664.3 23.2 -50.0 23.2 -50.0" glyph-name="/" horiz-adv-x="528.6" unicode="/"/><glyph d="M468.2 551.1C458.9 473.0 356.3 329.8 261.5 338.4C258.7 338.6 149.8 384.4 292.7 552.6C534.5 810.2 723.2 633.5 542.6 423.2C542.6 423.2 457.0 337.0 367.1 296.7C323.1 277.0 267.4 243.2 258.5 213.4M371.5 299.7C371.5 299.7 503.3 334.5 508.4 223.8C510.0 188.6 466.3 22.3 271.9 -76.7C250.5 -87.6 152.9 -136.2 50.2 -96.0C50.2 -96.0 -49.4 -55.8 -36.0 -26.1C-36.0 -26.1 -13.7 0.7 -7.8 -36.5" glyph-name="3" horiz-adv-x="512.6" unicode="3"/><glyph d="M274.8 671.6C274.8 671.6 270.3 561.5 155.8 449.9C198.3 492.3 229.2 539.3 253.2 589.0C253.1 589.1 355.5 683.5 416.8 662.6C482.6 640.3 564.1 551.9 690.5 671.6C483.9 479.5 72.5 77.7 323.9 -259.6" glyph-name="7" horiz-adv-x="563.1" unicode="7"/><glyph d="M71.4 272.7C66.8 258.9 51.9 247.7 38.1 247.7C24.2 247.7 16.7 258.9 21.3 272.7C25.8 286.6 40.7 297.8 54.6 297.8C68.4 297.8 75.9 286.6 71.4 272.7C71.4 272.7 71.4 272.7 71.4 272.7M-59.3 34.2C-68.3 30.3 -77.2 69.4 -51.8 75.1C-40.0 77.7 -30.7 73.6 -31.8 49.0C-33.3 10.5 -108.4 -75.1 -164.1 -87.1" glyph-name=";" horiz-adv-x="66.1" unicode=";"/><glyph d="M270.1 500.5C260.3 493.9 278.2 614.2 411.4 619.5C465.6 621.7 576.8 557.5 436.7 429.1C389.5 385.8 201.7 204.5 192.8 159.9M146.0 35.5C141.5 21.6 126.6 10.4 112.7 10.4C98.9 10.4 91.4 21.6 95.9 35.5C100.5 49.3 115.4 60.5 129.2 60.5C143.1 60.5 150.6 49.3 146.0 35.5C146.0 35.5 146.0 35.5 146.0 35.5" glyph-name="?" horiz-adv-x="466.1" unicode="?"/><glyph d="M438.0 707.7C407.9 715.9 154.0 709.0 82.1 502.4C68.0 462.0 116.9 339.5 284.0 372.7C331.8 381.1 578.9 410.2 744.1 604.6C744.1 604.6 824.1 724.5 610.5 655.1C565.3 640.3 77.9 411.0 100.4 78.6C102.9 42.0 171.4 -59.9 381.2 65.0C461.8 112.9 522.7 211.4 532.7 281.7C532.7 281.7 548.5 410.0 358.1 315.3C358.1 315.3 112.4 170.3 219.5 -121.3" glyph-name="C" horiz-adv-x="587.5" unicode="C"/><glyph d="M-60.1 73.2C-5.1 73.4 -59.6 130.0 -87.4 80.0C-92.9 70.1 -102.2 -34.7 77.7 17.9C134.5 34.6 271.2 137.8 512.1 381.9C512.1 381.9 843.4 699.5 907.6 672.2C907.6 672.2 377.5 9.5 377.5 9.5C377.5 9.5 452.2 153.6 406.9 263.0C406.9 263.0 340.7 454.4 161.9 407.1C161.9 407.1 2.4 344.0 136.6 179.9C159.6 151.8 252.3 98.9 357.5 101.0C357.5 101.0 532.9 104.1 637.3 175.7C704.9 222.1 732.0 258.8 763.5 341.9M1031.8 755.2C1029.9 750.2 1026.1 745.4 1021.4 741.8C1016.6 738.3 1011.1 736.3 1006.3 736.3C1001.4 736.3 997.5 738.3 995.5 741.8C993.4 745.4 993.3 750.2 995.2 755.2C997.1 760.2 1000.9 765.0 1005.7 768.5C1010.5 772.0 1015.9 774.0 1020.8 774.0C1030.9 774.0 1035.8 765.6 1031.8 755.2C1031.8 755.2 1031.8 755.2 1031.8 755.2M885.4 755.2C883.5 750.2 879.7 745.4 874.9 741.8C870.1 738.3 864.7 736.3 859.9 736.3C855.0 736.3 851.1 738.3 849.0 741.8C847.0 745.4 846.9 750.2 848.8 755.2C852.8 765.6 864.2 774.0 874.3 774.0C884.4 774.0 889.4 765.6 885.4 755.2C885.4 755.2 885.4 755.2 885.4 755.2" glyph-name="Ä" horiz-adv-x="767.7" unicode="Ä"/><glyph d="M4.1 371.1C4.1 371.1 150.3 257.5 493.2 481.5C633.1 572.9 724.6 703.4 592.1 696.1C513.5 691.7 174.2 498.7 165.0 315.3C164.8 309.6 163.1 208.8 338.6 298.5C391.0 325.3 508.0 410.4 581.6 461.5C422.1 333.1 235.6 -6.7 46.2 1.9C46.2 1.9 -60.6 0.8 -59.3 71.6C-58.7 104.1 -31.5 100.7 -19.0 97.6C-11.3 95.6 -1.9 68.9 -34.5 74.4" glyph-name="G" horiz-adv-x="541.1" unicode="G"/><glyph d="M187.1 476.3C187.1 476.3 247.5 681.3 431.7 680.2C428.4 677.6 570.3 681.8 440.2 580.9C440.2 580.9 354.4 507.9 420.0 486.2C440.7 479.3 530.2 497.1 614.2 559.2C614.2 559.2 799.5 703.1 812.2 698.5C424.1 463.2 378.0 105.6 52.5 10.1C52.5 10.1 -73.9 -23.0 -75.2 71.5C-75.4 84.9 -50.3 103.0 -35.2 90.9C-35.2 90.9 -22.4 72.3 -50.0 67.7M1147.6 616.1C1147.6 616.1 1120.3 611.3 1130.8 592.7C1133.9 587.3 1168.8 579.7 1179.4 623.7C1179.4 623.7 1189.5 727.7 1027.4 662.8C882.5 604.8 619.7 253.5 523.3 355.5C517.1 370.7 579.3 394.9 623.6 354.4C682.0 209.0 415.8 98.9 457.6 17.0C466.0 0.7 510.7 -29.1 613.0 40.1C613.0 40.1 725.9 120.6 742.0 240.4" glyph-name="K" horiz-adv-x="808.9" unicode="K"/><glyph d="M701.9 494.8C701.9 494.8 800.9 657.1 624.8 675.5C624.8 675.5 377.3 697.4 131.0 373.9C14.1 220.4 14.7 63.1 103.4 13.6C103.4 13.6 292.1 -60.1 520.0 216.2C520.0 216.2 685.8 436.1 576.5 524.7C576.5 524.7 447.5 603.0 282.9 387.7C282.9 387.7 180.5 231.2 249.5 99.9" glyph-name="O" horiz-adv-x="603.6" unicode="O"/><glyph d="M523.9 664.9C186.8 743.5 -114.9 386.3 344.0 326.1C398.5 321.6 534.4 334.7 644.4 404.4C770.5 484.5 862.5 629.2 807.8 663.5C608.1 788.4 344.5 92.6 115.6 13.9C-12.5 -30.1 -101.9 80.3 -11.3 95.5C8.3 97.8 15.2 66.2 -23.1 68.3" glyph-name="S" horiz-adv-x="687.5" unicode="S"/><glyph d="M-276.0 436.1C-274.2 469.3 -201.3 618.6 -5.5 632.9C79.9 639.1 63.2 610.8 254.6 574.2C327.4 560.3 390.5 603.0 451.5 650.2M540.1 692.7C540.1 692.7 467.6 661.7 192.5 317.5C192.5 317.5 57.8 129.9 35.9 113.7C35.9 113.7 -37.7 6.7 -114.9 -14.0C-114.9 -14.0 15.2 32.0 79.7 93.0C79.7 93.0 396.2 368.1 425.0 415.3C425.0 415.3 664.4 637.5 762.3 696.2C764.7 677.6 716.6 709.8 542.4 434.9C542.4 434.9 376.7 194.3 362.8 170.1C362.8 170.1 259.2 -14.0 192.5 -12.9C192.5 -12.9 208.6 -30.1 304.1 51.6C304.1 51.6 526.3 284.1 532.0 286.4C532.0 286.4 809.5 555.8 863.6 589.1C863.6 589.1 1043.9 720.8 1130.6 672.0C1206.9 629.1 1149.0 553.5 1137.5 554.6C1137.5 554.6 1040.8 485.5 985.6 570.7" glyph-name="W" horiz-adv-x="733.9" unicode="W"/><glyph d="M805.1 677.3C805.1 677.3 649.5 677.3 649.5 677.3C649.5 677.3 118.7 -93.5 118.7 -93.5C118.7 -93.5 284.3 -93.5 284.3 -93.5" glyph-name="[" horiz-adv-x="816.3" unicode="["/><glyph d="M333.0 636.9C333.0 636.9 239.8 397.5 63.7 384.8C63.7 384.8 -59.5 389.4 39.5 533.3C39.5 533.3 177.7 693.3 349.2 673.7C349.2 673.7 513.8 668.0 368.7 484.9C279.7 355.5 73.0 194.5 14.2 61.3C11.9 55.8 -15.7 -52.6 159.2 37.2C202.3 59.2 328.2 153.3 372.2 202.9C709.1 582.8 716.4 596.6 716.4 596.6C716.4 596.6 351.5 185.7 349.2 162.6C349.2 162.6 270.9 36.0 334.2 6.1C334.2 6.1 409.0 -13.5 497.7 75.2M591.5 755.4C589.6 750.4 585.8 745.6 581.0 742.0C576.3 738.5 570.8 736.5 566.0 736.5C561.1 736.5 557.2 738.5 555.2 742.0C553.1 745.6 553.0 750.4 554.9 755.4C556.8 760.4 560.6 765.2 565.4 768.7C570.2 772.2 575.6 774.2 580.4 774.2C585.3 774.2 589.2 772.2 591.3 768.7C593.3 765.2 593.4 760.4 591.5 755.4C591.5 755.4 591.5 755.4 591.5 755.4M738.8 755.4C736.9 750.4 733.1 745.6 728.4 742.0C723.6 738.5 718.2 736.5 713.3 736.5C708.5 736.5 704.6 738.5 702.5 742.0C700.4 745.6 700.3 750.4 702.2 755.4C704.2 760.4 707.9 765.2 712.7 768.7C717.5 772.2 722.9 774.2 727.8 774.2C732.6 774.2 736.5 772.2 738.6 768.7C740.7 765.2 740.8 760.4 738.8 755.4C738.8 755.4 738.8 755.4 738.8 755.4" glyph-name="Ü" horiz-adv-x="1000.0" unicode="Ü"/><glyph d="M-144.6 -63.4C66.1 -63.4 276.9 -63.4 487.7 -63.4" glyph-name="_" horiz-adv-x="631.7" unicode="_"/><glyph d="M0.0 181.2C71.6 254.8 251.6 391.6 258.8 276.8C260.8 248.0 188.0 232.0 204.4 260.4C212.8 274.8 254.4 249.6 260.8 273.2C263.2 282.8 262.8 340.4 191.2 321.2C59.2 272.4 -140.0 78.8 8.8 8.0C21.6 2.8 35.6 0.8 49.6 -0.0C126.0 -4.4 217.2 62.4 241.2 83.6C282.0 120.0 308.4 158.7 327.6 183.5" glyph-name="c" horiz-adv-x="327.6" unicode="c"/><glyph d="M0.0 183.5C0.0 183.5 174.0 364.5 281.4 312.6C282.4 315.6 308.6 299.2 285.8 235.8C285.8 235.8 327.0 322.3 243.8 318.8C221.8 317.9 73.3 281.1 -24.9 90.9C-24.9 90.9 -57.2 -0.0 6.6 0.2C16.7 0.2 29.3 3.6 44.7 9.0C52.3 11.6 121.7 45.8 198.3 131.3C287.4 230.8 307.1 250.2 360.8 309.9C356.0 310.8 165.6 74.1 169.7 28.6C169.7 28.6 166.9 0.6 199.2 0.2C210.6 0.1 226.6 1.9 248.3 11.7C248.3 11.7 339.3 55.8 441.1 183.5M456.9 495.8C455.0 490.8 451.2 486.0 446.5 482.4C441.7 478.9 436.3 476.9 431.4 476.9C426.5 476.9 422.7 478.9 420.6 482.4C418.5 486.0 418.4 490.8 420.3 495.8C422.3 500.8 426.0 505.6 430.8 509.1C435.6 512.6 441.0 514.6 445.9 514.6C450.7 514.6 454.6 512.6 456.7 509.1C458.8 505.6 458.9 500.8 456.9 495.8C456.9 495.8 456.9 495.8 456.9 495.8M311.4 495.8C309.5 490.8 305.7 486.0 300.9 482.4C296.1 478.9 290.7 476.9 285.9 476.9C281.0 476.9 277.1 478.9 275.0 482.4C273.0 486.0 272.9 490.8 274.8 495.8C276.7 500.8 280.5 505.6 285.3 509.1C290.1 512.6 295.5 514.6 300.3 514.6C305.2 514.6 309.1 512.6 311.2 509.1C313.2 505.6 313.3 500.8 311.4 495.8C311.4 495.8 311.4 495.8 311.4 495.8" glyph-name="ä" horiz-adv-x="441.1" unicode="ä"/><glyph d="M0.0 183.5C0.0 183.5 179.2 319.2 251.2 320.4C279.6 320.8 320.8 296.4 289.2 223.2C303.2 233.2 334.8 406.8 125.2 266.4C108.0 254.8 -64.8 108.4 -24.4 23.6C-24.4 23.6 -1.6 -35.6 100.8 36.4C100.8 36.4 210.8 128.4 230.8 152.4C257.2 184.0 367.6 295.2 372.4 306.4C361.6 329.2 -0.4 -235.6 -158.8 -339.6C-326.4 -449.6 -371.2 -346.8 -264.4 -270.8C-234.4 -242.8 -12.8 -135.6 -1.6 -132.8C-1.6 -132.8 176.4 -51.2 227.2 -20.4C296.8 22.0 426.0 142.7 450.0 183.5" glyph-name="g" horiz-adv-x="450.0" unicode="g"/><glyph d="M428.8 754.8C428.8 754.8 -89.2 17.2 -89.2 17.2M359.6 319.6C359.6 319.6 360.0 289.6 385.2 297.2C398.8 301.2 403.2 328.8 389.2 339.6C350.0 369.6 292.0 335.2 255.6 289.2C240.0 270.8 218.8 247.6 192.0 222.8C192.0 222.8 134.4 188.0 106.0 204.0C94.4 210.4 122.0 234.4 172.4 218.4C257.2 196.0 229.2 160.4 171.2 99.2C101.6 15.2 143.6 -32.4 249.6 23.2C287.6 43.2 365.6 111.5 424.0 183.5" glyph-name="k" horiz-adv-x="424.0" unicode="k"/><glyph d="M244.8 181.2C267.6 248.8 282.4 316.8 211.6 317.6C66.8 319.2 -110.4 14.4 15.2 -0.0C36.4 -1.2 64.8 3.2 100.4 19.6C138.8 42.8 187.2 70.4 236.8 164.4C252.8 195.2 169.2 131.6 201.2 85.6C204.4 81.2 249.2 51.9 361.6 183.5" glyph-name="o" horiz-adv-x="361.6" unicode="o"/><glyph d="M0.0 183.5C0.0 183.5 80.6 284.7 128.7 334.9C141.1 347.7 158.5 352.1 168.1 371.2C174.1 383.3 148.2 394.9 141.7 348.6C141.7 348.6 127.6 317.9 129.1 164.1C130.3 50.3 36.9 -16.1 -45.1 0.6C-45.1 0.6 -168.5 12.2 -90.2 97.1C-71.2 117.7 -46.2 112.9 -42.0 111.1C-36.1 108.6 -38.5 85.9 -68.2 94.0M115.7 92.2C115.7 92.2 158.3 83.4 170.5 86.5C191.1 91.7 226.9 104.7 293.0 183.5" glyph-name="s" horiz-adv-x="293.0" unicode="s"/><glyph d="M0.0 183.5C0.0 183.5 146.4 313.2 146.4 313.2C146.4 313.2 -22.8 138.0 -69.2 47.6C-102.4 -16.8 -28.0 -0.4 -6.8 11.2C146.0 95.2 174.8 138.0 360.8 312.8C384.0 324.4 142.8 63.6 142.4 27.6C142.4 18.8 136.8 -18.0 206.4 11.2C206.4 11.2 347.2 64.0 470.8 205.2C472.0 206.4 546.0 297.2 535.6 323.2C522.0 358.0 480.8 234.4 406.8 130.0C382.4 91.2 415.2 71.6 454.4 86.8C454.4 86.8 520.0 122.3 570.4 183.5" glyph-name="w" horiz-adv-x="570.4" unicode="w"/><glyph d="M0.0 183.5C0.0 183.5 134.3 317.2 134.3 317.2C134.3 317.2 9.4 182.3 -53.8 83.4C-64.0 67.6 -84.0 0.4 -20.2 0.8C98.5 -5.4 284.6 258.2 357.2 318.0C369.8 328.4 169.2 110.4 159.3 52.8C158.8 49.9 148.9 1.9 191.7 0.8C203.8 0.5 219.9 2.9 242.1 12.5C268.1 23.8 340.3 69.7 436.2 183.5M281.7 495.5C277.7 485.1 266.3 476.7 256.2 476.7C251.3 476.7 247.4 478.7 245.3 482.2C243.3 485.7 243.2 490.5 245.1 495.5C249.1 505.9 260.5 514.4 270.6 514.4C275.5 514.4 279.4 512.4 281.5 508.9C283.5 505.3 283.6 500.5 281.7 495.5C281.7 495.5 281.7 495.5 281.7 495.5M429.9 495.5C425.9 485.1 414.5 476.7 404.4 476.7C399.5 476.7 395.6 478.7 393.6 482.2C391.5 485.7 391.4 490.5 393.3 495.5C397.3 505.9 408.7 514.4 418.8 514.4C423.7 514.4 427.6 512.4 429.7 508.9C431.7 505.3 431.8 500.5 429.9 495.5C429.9 495.5 429.9 495.5 429.9 495.5" glyph-name="ü" horiz-adv-x="436.2" unicode="ü"/><glyph d="M399.5 584.8C399.5 584.8 475.3 712.4 511.8 764.1C518.8 773.9 537.1 789.3 544.7 779.2C551.9 769.6 544.6 755.0 538.4 747.7C538.4 747.7 399.5 584.8 399.5 584.8M575.0 584.8C575.0 584.8 650.8 712.4 687.4 764.1C694.3 773.9 712.6 789.3 720.2 779.2C727.4 769.6 720.1 755.0 713.9 747.7C713.9 747.7 575.0 584.8 575.0 584.8" glyph-name="&quot;" horiz-adv-x="723.2" unicode="&quot;"/><glyph d="M184.2 20.4C188.2 36.0 480.7 429.6 544.0 482.5C483.3 420.1 400.5 358.0 210.0 77.2C212.6 79.5 313.4 293.4 246.0 349.9C211.6 378.8 119.4 389.6 125.4 227.4C132.5 39.1 354.4 -20.4 455.9 107.6C483.9 142.9 479.0 188.9 475.8 194.6C468.7 207.5 461.6 207.1 455.8 200.4C451.7 195.7 456.7 187.1 466.1 185.3" glyph-name="&amp;" horiz-adv-x="544.0" unicode="&amp;"/><glyph d="M305.7 564.3C305.7 564.3 292.1 646.7 287.1 651.7C287.1 651.7 314.2 665.6 314.2 665.6C314.2 665.6 309.1 566.5 311.0 564.6C311.0 564.6 406.4 630.9 414.6 645.4C414.6 645.4 427.8 623.9 427.8 623.9C427.8 623.9 317.7 561.1 313.9 558.6C313.9 558.6 391.2 515.3 398.2 514.1C398.2 514.1 375.4 490.7 374.2 487.6C374.2 487.6 309.5 553.5 309.5 553.5C309.5 553.5 285.2 514.7 263.7 449.0C263.7 449.0 229.6 451.6 229.6 451.6C229.6 451.6 302.2 547.5 302.2 553.2C302.2 553.2 231.5 546.3 189.2 528.0C189.2 528.0 197.4 559.1 196.1 562.9C196.1 562.9 292.0 558.6 305.7 564.3C305.7 564.3 305.7 564.3 305.7 564.3" glyph-name="*" horiz-adv-x="427.8" unicode="*"/><glyph d="M110.2 42.9C103.6 28.8 86.8 17.4 72.8 17.4C58.8 17.4 52.8 28.8 59.4 42.9C66.1 56.9 82.8 68.3 96.9 68.3C110.9 68.3 116.9 56.9 110.2 42.9C110.2 42.9 110.2 42.9 110.2 42.9" glyph-name="." horiz-adv-x="112.9" unicode="."/><glyph d="M447.1 441.0C447.1 441.0 366.0 313.5 261.1 325.0C252.0 326.0 167.4 369.6 277.5 518.4C574.9 856.5 731.3 600.6 557.1 397.9C557.1 397.9 433.7 240.2 194.2 140.5C194.2 140.5 51.4 79.5 18.6 -6.7C18.6 -6.7 104.9 100.4 234.3 94.4C313.7 90.8 275.7 81.1 421.8 24.5C452.9 12.4 543.7 29.0 586.9 145.0" glyph-name="2" horiz-adv-x="527.8" unicode="2"/><glyph d="M657.6 589.9C699.9 569.7 705.0 633.9 690.2 654.0C676.1 673.4 575.4 723.3 416.8 597.2C295.0 500.4 185.3 358.8 164.3 227.7C104.6 -144.4 391.7 13.9 516.4 197.0C654.9 400.4 523.5 514.4 381.8 386.1C354.9 361.7 309.4 308.8 295.2 239.5" glyph-name="6" horiz-adv-x="588.4" unicode="6"/><glyph d="M69.4 272.7C64.9 258.9 49.9 247.7 36.1 247.7C22.3 247.7 14.8 258.9 19.3 272.7C23.9 286.6 38.8 297.8 52.6 297.8C66.4 297.8 74.0 286.6 69.4 272.7C69.4 272.7 69.4 272.7 69.4 272.7M-35.8 54.5C-40.3 40.6 -55.2 29.4 -69.1 29.4C-82.9 29.4 -90.4 40.6 -85.9 54.5C-81.3 68.3 -66.4 79.5 -52.6 79.5C-38.7 79.5 -31.2 68.3 -35.8 54.5C-35.8 54.5 -35.8 54.5 -35.8 54.5" glyph-name=":" horiz-adv-x="68.1" unicode=":"/><glyph d="M299.1 304.4C299.1 304.4 502.1 201.3 502.1 201.3C502.1 201.3 264.4 91.9 264.4 91.9" glyph-name="&gt;" horiz-adv-x="496.4" unicode="&gt;"/><glyph d="M908.4 677.2C874.0 676.8 710.2 663.9 418.2 304.8C370.1 245.7 300.5 149.4 185.2 64.2C87.7 -7.8 -64.5 -28.5 -77.2 72.9C-80.3 97.7 -43.7 106.6 -29.9 93.9C-21.7 86.4 -34.1 70.8 -49.9 72.9M497.1 614.0C497.1 614.0 473.6 413.0 266.7 316.4C260.8 313.6 21.5 223.4 135.3 453.1C156.4 495.9 285.7 651.9 492.9 688.7C492.9 688.7 770.6 739.2 800.0 569.9C800.0 569.9 819.0 385.8 632.8 315.3C637.8 316.3 506.8 267.5 493.9 311.1C491.0 321.1 552.7 354.0 624.4 319.5C624.4 319.5 736.9 213.3 553.9 54.5C484.2 -6.0 347.7 -12.2 337.2 39.7C322.6 112.3 445.6 214.3 578.1 220.7" glyph-name="B" horiz-adv-x="748.2" unicode="B"/><glyph d="M741.6 589.9C741.6 589.9 560.7 574.1 420.8 311.1C354.3 186.0 217.4 48.6 130.5 17.6C119.0 13.6 -35.3 -28.2 -59.4 66.0C-67.1 96.2 -32.0 107.3 -19.7 99.2C-7.6 91.2 -11.5 67.1 -35.7 74.4M467.1 590.9C474.9 487.7 241.8 352.4 202.7 424.5C114.1 588.0 496.6 710.5 663.8 665.6C674.3 662.7 920.6 598.7 1015.1 758.1M108.4 163.9C108.4 163.9 152.6 272.2 396.6 316.4C396.6 316.4 636.4 378.4 640.6 384.7C640.6 384.7 602.8 388.9 602.8 388.9C602.8 388.9 530.2 262.7 535.4 251.2" glyph-name="F" horiz-adv-x="762.5" unicode="F"/><glyph d="M587.8 507.9C587.8 507.9 589.3 267.0 302.2 162.8C302.2 162.8 86.5 122.7 138.6 342.8C138.6 342.8 213.0 604.6 578.9 668.6C578.9 668.6 614.1 678.3 725.4 673.2C746.7 672.2 780.3 674.5 804.2 671.5C775.0 665.0 568.4 707.2 254.6 225.3C254.6 225.3 -75.7 -232.6 -181.2 -290.9C-199.4 -300.9 -421.4 -444.0 -364.2 -280.4C-341.2 -214.9 -215.1 -75.1 49.4 3.7C49.4 3.7 305.2 72.1 369.2 101.8" glyph-name="J" horiz-adv-x="587.5" unicode="J"/><glyph d="M237.9 564.0C237.9 564.0 214.9 563.5 221.4 580.5C223.4 585.8 239.5 594.9 256.6 567.2C256.6 567.2 312.8 488.3 200.4 419.9C200.4 419.9 49.9 346.6 -9.6 496.4C-9.6 496.4 -38.1 632.3 115.8 673.0C115.8 673.0 210.2 704.8 320.9 647.8C320.9 647.8 478.0 542.8 581.4 636.4M-93.3 72.3C-93.3 72.3 -74.8 58.5 -65.6 79.2C-66.0 79.7 -77.4 108.9 -107.1 79.2C-119.7 66.6 -108.0 -45.4 54.1 27.4C108.4 51.8 219.8 161.9 292.4 238.1C418.0 369.9 648.8 659.0 655.0 667.9C655.0 667.9 620.4 608.7 481.1 288.7C481.1 288.7 375.0 17.8 347.6 -1.4C347.6 -1.4 676.8 381.9 676.8 381.9C676.8 381.9 962.3 704.3 1109.6 718.1C1109.6 718.1 1304.2 760.7 1229.4 574.2C1229.4 574.2 1179.9 487.9 1064.7 438.4" glyph-name="N" horiz-adv-x="785.7" unicode="N"/><glyph d="M735.8 668.6C735.8 668.6 520.5 614.5 326.0 323.2C326.0 323.2 95.8 5.5 -15.9 4.4C-15.9 4.4 -149.4 -10.6 -135.6 72.3C-135.6 72.3 -125.9 103.7 -95.8 90.2C-95.8 90.2 -84.3 58.1 -117.7 69.1M365.1 592.6C365.0 571.2 307.0 302.9 103.8 301.4C96.1 301.3 -80.9 328.5 79.6 522.0C199.7 666.8 488.2 714.4 603.7 646.0C705.7 585.5 767.4 441.4 499.8 303.7C499.8 303.7 430.8 284.8 405.6 306.3C391.5 318.3 451.8 338.2 495.2 303.7C535.6 271.5 449.0 170.7 418.1 137.9C382.2 99.9 359.5 36.8 410.0 11.3C495.0 -31.6 653.5 99.1 677.1 233.5" glyph-name="R" horiz-adv-x="680.4" unicode="R"/><glyph d="M2.8 637.5C62.6 707.6 251.0 728.8 210.4 625.2C203.9 608.6 176.1 572.8 130.5 528.5C89.4 488.6 141.0 445.6 218.0 477.5C306.5 514.1 370.5 578.2 466.1 655.3C268.1 495.1 181.4 253.7 20.0 72.3C20.0 72.3 -60.5 -8.3 -67.5 -9.4C-67.5 -9.4 142.0 127.6 142.0 127.6C142.0 127.6 577.4 455.3 589.8 463.7C729.6 557.1 892.5 813.2 708.4 723.8C574.1 632.1 560.4 372.9 719.9 405.0" glyph-name="V" horiz-adv-x="566.1" unicode="V"/><glyph d="M417.0 585.2C417.0 585.2 397.5 450.4 287.1 414.7C287.1 414.7 173.7 369.6 190.3 507.0C194.2 539.2 257.8 645.8 399.2 666.3C526.7 684.8 624.3 587.9 720.6 625.8C720.6 625.8 801.8 655.0 818.0 674.5C818.0 674.5 584.2 494.5 483.3 332.5C471.3 318.5 218.2 -103.4 -8.3 27.4C-47.5 50.0 50.4 115.5 210.8 70.5C359.4 28.8 645.7 -73.5 694.6 115.3C709.9 174.1 675.3 203.1 632.9 219.9C632.9 219.9 588.9 228.0 581.0 207.5C577.7 198.8 594.0 176.0 614.3 202.3" glyph-name="Z" horiz-adv-x="701.8" unicode="Z"/><glyph d="M178.3 468.6C178.3 468.6 311.2 659.6 311.2 659.6C311.2 659.6 445.1 468.6 445.1 468.6" glyph-name="^" horiz-adv-x="468.3" unicode="^"/><glyph d="M135.2 362.0C178.0 310.4 611.6 578.8 581.2 749.6C582.0 749.6 529.6 855.6 159.2 386.0C159.2 386.0 -98.8 87.6 -15.6 9.2C-15.6 9.2 -3.2 0.4 19.2 -0.0C66.0 -0.4 160.0 24.8 242.8 150.8C307.2 282.4 274.8 304.8 263.2 304.8C229.6 304.8 240.0 153.6 238.8 127.2C243.2 38.0 353.6 130.7 392.4 183.5" glyph-name="b" horiz-adv-x="392.4" unicode="b"/><glyph d="M-37.6 85.6C-12.4 12.4 -76.8 -160.8 -76.8 -160.8C-123.2 -310.8 -216.0 -371.6 -216.0 -371.6C-318.0 -418.0 -285.6 -316.4 -285.6 -316.4C-294.4 -281.6 106.4 330.0 278.4 578.4C316.4 633.2 436.4 817.2 484.0 739.2C508.8 658.8 389.2 508.8 389.2 508.8C147.2 192.4 22.4 165.2 10.8 168.8C5.6 170.8 -15.6 164.0 -21.6 203.6C-21.6 203.6 -6.8 219.6 -23.2 235.6C-22.8 238.8 -57.6 246.8 -45.6 176.8C-38.8 141.6 2.0 95.2 25.2 86.8C49.2 78.0 162.8 48.7 273.2 183.5" glyph-name="f" horiz-adv-x="273.2" unicode="f"/><glyph d="M108.0 308.0C108.0 308.0 -175.6 -72.0 -332.0 -246.0C-390.8 -311.2 -546.0 -420.8 -601.2 -371.6C-654.0 -316.0 -430.4 -202.4 -339.2 -163.2C-123.6 -84.4 48.0 -3.3 190.8 183.5M227.6 460.4C224.0 449.2 212.4 440.4 201.6 440.4C190.4 440.4 184.4 449.2 188.0 460.4C192.0 471.2 203.6 480.0 214.4 480.0C225.6 480.0 231.2 471.2 227.6 460.4C227.6 460.4 227.6 460.4 227.6 460.4" glyph-name="j" horiz-adv-x="190.8" unicode="j"/><glyph d="M0.0 183.5C0.8 186.7 116.0 324.4 143.6 322.0C163.2 320.4 170.0 298.4 126.4 228.4C126.4 228.4 -9.2 11.6 -9.2 11.6C-16.0 -10.4 118.4 144.0 228.0 249.2C330.8 348.0 444.4 354.4 361.6 227.6C338.8 198.8 303.6 160.0 271.2 125.6C185.2 34.0 217.2 -32.0 316.4 8.4C346.0 21.2 416.4 57.5 512.4 183.5" glyph-name="n" horiz-adv-x="512.4" unicode="n"/><glyph d="M0.0 183.5C38.0 224.3 76.4 280.8 98.4 322.4C131.2 384.8 69.2 380.8 66.8 334.4C66.4 280.4 177.2 276.0 250.0 260.0C264.0 256.4 20.8 94.0 53.6 26.8C53.6 26.8 67.6 -23.6 156.4 19.6C187.2 34.8 259.6 95.1 336.0 183.5" glyph-name="r" horiz-adv-x="336.0" unicode="r"/><glyph d="M0.0 183.5C0.0 183.5 141.2 316.8 141.2 316.8C141.2 316.8 -38.0 119.6 -65.6 81.2C-70.4 74.8 -110.4 1.2 -34.4 -0.0C63.2 4.0 148.4 81.6 225.2 136.4C225.2 136.4 308.0 234.4 328.0 266.8C341.6 288.8 357.2 324.0 344.8 325.6C334.8 326.4 331.6 320.4 291.2 254.4C276.8 231.2 165.6 76.0 269.2 84.8C291.6 90.0 333.6 120.7 391.6 183.5" glyph-name="v" horiz-adv-x="391.6" unicode="v"/><glyph d="M0.0 183.5C1.2 180.7 38.0 214.0 74.0 287.2C77.2 293.2 102.0 344.8 102.0 344.8C114.8 366.0 108.8 377.2 94.8 372.8C66.4 364.0 64.4 318.0 74.8 290.8C86.0 260.8 121.6 237.2 154.4 231.2C186.4 225.2 274.0 223.6 332.0 273.6C367.2 304.4 364.0 338.8 316.0 333.6C303.2 332.4 231.2 328.0 164.8 208.4C90.0 73.2 43.2 8.8 -54.4 -43.6C31.2 6.4 106.8 30.8 48.4 -144.4C33.2 -190.0 -69.6 -342.4 -210.0 -379.6C-308.0 -405.6 -286.8 -333.6 -267.6 -308.0C-190.4 -204.8 -37.6 -129.6 96.8 -48.8C197.2 7.2 274.0 92.3 344.4 183.5" glyph-name="z" horiz-adv-x="344.4" unicode="z"/><glyph d="M438.5 599.9C438.5 599.9 163.2 173.1 163.2 173.1C163.2 173.1 470.0 602.5 470.0 602.5C470.0 602.5 438.5 599.9 438.5 599.9M81.7 44.2C75.3 38.3 71.8 30.6 75.1 21.1C76.4 17.4 96.4 14.3 107.0 22.3C115.4 28.7 127.2 44.4 117.6 54.2C105.9 66.1 90.3 52.2 81.7 44.2C81.7 44.2 81.7 44.2 81.7 44.2" glyph-name="!" horiz-adv-x="470.0" unicode="!"/><glyph d="M610.7 661.6C610.7 661.6 144.6 5.4 144.6 5.4M375.9 667.0C187.6 640.8 77.6 323.1 311.6 440.2C349.1 460.3 452.7 565.1 426.8 640.2C418.6 663.8 399.0 669.4 375.9 667.0C375.9 667.0 375.9 667.0 375.9 667.0M564.0 259.1C375.7 233.0 265.8 -84.7 499.7 32.3C537.3 52.4 640.9 157.2 614.9 232.3C606.8 256.0 587.2 261.6 564.0 259.1C564.0 259.1 564.0 259.1 564.0 259.1" glyph-name="%" horiz-adv-x="619.0" unicode="%"/><glyph d="M453.1 686.3C647.7 152.3 92.4 -83.4 92.4 -83.4" glyph-name=")" horiz-adv-x="494.4" unicode=")"/><glyph d="M176.8 239.3C176.8 239.3 342.9 239.3 342.9 239.3" glyph-name="-" horiz-adv-x="342.9" unicode="-"/><glyph d="M146.2 269.9C219.8 307.7 382.0 440.1 555.3 680.5C412.0 452.4 279.2 240.1 143.2 23.0" glyph-name="1" horiz-adv-x="459.6" unicode="1"/><glyph d="M704.1 721.3C683.0 671.9 611.5 646.7 595.7 644.5C514.5 635.9 501.9 707.3 347.5 605.6C347.5 605.6 382.2 671.9 382.2 671.9C382.2 671.9 217.1 363.7 217.1 363.7C176.5 333.2 154.2 302.7 125.5 272.2C276.2 480.5 477.0 407.5 448.5 228.0C431.4 120.7 360.1 -68.2 129.8 -134.9C60.3 -155.0 -114.3 -162.5 -131.1 -83.3" glyph-name="5" horiz-adv-x="616.1" unicode="5"/><glyph d="M613.0 482.6C613.0 481.3 450.0 254.3 332.2 283.8C332.2 283.8 173.4 298.5 284.9 507.8C284.9 507.8 394.2 708.7 544.7 675.1C544.7 675.1 675.1 647.7 596.2 431.0C596.2 431.0 479.4 124.9 344.8 47.1C344.8 47.1 209.8 -40.5 120.8 36.6C97.2 57.0 84.0 81.8 89.2 101.8C95.2 124.4 116.6 120.7 119.7 100.7" glyph-name="9" horiz-adv-x="550.5" unicode="9"/><glyph d="M162.3 307.1C162.3 307.1 431.6 307.1 431.6 307.1M104.3 208.9C104.3 208.9 373.6 208.9 373.6 208.9" glyph-name="=" horiz-adv-x="412.5" unicode="="/><glyph d="M-59.2 72.9C-4.2 73.1 -58.7 129.7 -86.5 79.7C-92.0 69.8 -101.3 -34.9 78.6 17.6C135.4 34.3 272.1 137.6 513.0 381.6C513.0 381.6 844.3 699.2 908.5 671.9C908.5 671.9 378.4 9.2 378.4 9.2C378.4 9.2 453.1 153.3 407.8 262.7C407.8 262.7 341.6 454.2 162.7 406.8C162.7 406.8 3.2 343.7 137.5 179.6C160.5 151.5 253.2 98.6 358.4 100.7C358.4 100.7 533.8 103.8 638.2 175.4C705.8 221.8 732.8 258.5 764.4 341.6" glyph-name="A" horiz-adv-x="767.9" unicode="A"/><glyph d="M62.3 549.9C62.3 549.9 100.1 412.1 343.1 402.6C761.8 387.7 819.0 754.9 488.2 663.5C421.2 644.9 245.4 553.1 284.2 376.3C286.2 367.3 338.9 283.8 399.9 310.1C399.9 310.1 418.7 365.0 250.5 356.3C229.7 355.3 -52.3 280.8 5.5 73.4C9.8 58.0 111.7 -53.9 278.9 36.6C509.1 164.7 377.4 310.7 232.6 200.7C203.5 175.0 66.4 42.2 159.0 -132.8" glyph-name="E" horiz-adv-x="558.9" unicode="E"/><glyph d="M610.7 505.7C610.7 505.7 634.9 282.7 333.1 174.4C333.1 174.4 100.6 114.4 171.1 358.4C171.1 358.4 284.1 634.6 639.7 670.3C640.3 668.2 686.4 676.3 766.4 667.7C766.4 667.7 808.5 665.6 808.5 665.6C782.8 661.5 594.3 690.5 303.6 255.4C303.6 255.4 120.6 39.7 24.9 15.5C24.9 15.5 -125.8 -38.7 -143.4 71.3C-148.5 103.0 -104.7 116.3 -99.8 93.2C-96.5 77.4 -108.8 70.2 -122.5 81.1" glyph-name="I" horiz-adv-x="616.1" unicode="I"/><glyph d="M-118.4 71.2C-118.4 71.2 -92.5 62.5 -91.9 83.8C-91.9 83.8 -104.5 109.7 -134.5 79.2C-134.5 79.2 -172.5 -33.6 10.6 18.2C10.6 18.2 194.7 99.9 396.2 342.8C396.2 342.8 754.2 720.4 773.7 710.0C743.5 698.1 309.9 144.2 331.7 13.6C337.8 4.3 852.1 610.9 1078.8 719.2C926.9 586.4 300.0 -93.2 635.6 12.4C635.6 12.4 709.3 49.3 712.7 53.9" glyph-name="M" horiz-adv-x="812.5" unicode="M"/><glyph d="M530.0 558.1C536.5 512.0 402.2 217.2 213.4 238.1C-45.3 266.6 347.7 749.9 593.3 669.7C605.8 665.6 818.4 606.7 577.2 268.0C516.2 182.4 388.8 78.4 230.7 27.4C160.8 4.9 -54.5 -23.1 -57.5 52.1C-58.6 79.0 2.6 117.4 221.5 34.3C378.2 -14.0 660.4 -184.1 785.5 -54.3" glyph-name="Q" horiz-adv-x="682.1" unicode="Q"/><glyph d="M335.7 637.5C335.7 637.5 242.4 398.1 66.3 385.4C66.3 385.4 -56.9 390.0 42.1 533.9C42.1 533.9 180.3 693.9 351.8 674.3C351.8 674.3 516.4 668.6 371.4 485.5C282.4 356.1 75.6 195.1 16.8 61.9C14.5 56.4 -13.1 -52.0 161.8 37.8C204.9 59.8 330.8 153.9 374.8 203.5C711.7 583.4 719.0 597.2 719.0 597.2C719.0 597.2 354.1 186.3 351.8 163.2C351.8 163.2 273.5 36.6 336.8 6.7C336.8 6.7 411.6 -12.9 500.3 75.8" glyph-name="U" horiz-adv-x="610.7" unicode="U"/><glyph d="M698.9 495.6C698.9 495.6 797.9 657.9 621.8 676.3C621.8 676.3 374.3 698.2 128.0 374.7C11.1 221.3 11.7 63.9 100.4 14.4C100.4 14.4 289.1 -59.2 517.1 217.0C517.1 217.0 682.8 436.9 573.5 525.5C573.5 525.5 444.5 603.8 279.9 388.5C279.9 388.5 177.5 232.0 246.5 100.8M516.2 754.6C514.3 749.6 510.5 744.8 505.7 741.3C500.9 737.7 495.5 735.8 490.6 735.8C485.8 735.8 481.9 737.7 479.8 741.3C477.8 744.8 477.7 749.6 479.6 754.6C481.5 759.6 485.3 764.4 490.1 767.9C494.8 771.5 500.3 773.5 505.1 773.5C510.0 773.5 513.9 771.5 515.9 767.9C518.0 764.4 518.1 759.6 516.2 754.6C516.2 754.6 516.2 754.6 516.2 754.6M661.4 754.6C659.5 749.6 655.7 744.8 650.9 741.3C646.1 737.7 640.7 735.8 635.9 735.8C631.0 735.8 627.1 737.7 625.0 741.3C623.0 744.8 622.9 749.6 624.8 754.6C626.7 759.6 630.5 764.4 635.3 767.9C640.1 771.5 645.5 773.5 650.3 773.5C655.2 773.5 659.1 771.5 661.1 767.9C663.2 764.4 663.3 759.6 661.4 754.6C661.4 754.6 661.4 754.6 661.4 754.6" glyph-name="Ö" horiz-adv-x="1000.0" unicode="Ö"/><glyph d="M312.1 613.9C312.1 613.9 271.9 479.6 102.0 382.0C102.0 382.0 -43.7 321.1 6.8 466.9C6.8 466.9 103.2 671.3 362.6 675.9C362.6 675.9 550.9 666.7 379.9 497.9C379.9 497.9 193.9 314.2 179.0 232.7C179.0 232.7 161.7 117.9 304.1 209.8C304.1 209.8 408.6 276.4 515.3 390.0C515.3 390.0 702.5 609.3 755.3 603.5C755.3 603.5 650.8 572.5 513.0 351.0C407.6 199.1 263.0 -78.3 59.7 -118.8C13.9 -124.0 -83.6 -143.6 -116.1 -60.0C-128.8 -27.1 -95.3 -5.2 -82.5 -9.8C-57.3 -18.8 -77.6 -50.0 -95.4 -35.0" glyph-name="Y" horiz-adv-x="605.4" unicode="Y"/><glyph d="M573.6 677.3C573.6 677.3 739.3 677.3 739.3 677.3C739.3 677.3 208.4 -93.5 208.4 -93.5C208.4 -93.5 52.9 -93.5 52.9 -93.5" glyph-name="]" horiz-adv-x="758.8" unicode="]"/><glyph d="M0.0 183.5C0.0 183.5 174.8 364.4 282.4 312.4C283.2 315.2 309.6 298.8 286.8 235.6C286.8 235.6 327.6 322.0 244.8 318.4C222.4 317.6 74.0 280.8 -24.0 90.8C-24.0 90.8 -56.4 -0.0 7.6 -0.0C17.6 -0.0 30.0 3.6 45.6 8.8C53.2 11.2 122.4 45.6 199.2 131.2C288.0 230.4 308.0 250.0 361.6 309.6C356.8 310.8 166.4 74.0 170.4 28.4C170.4 28.4 167.6 0.4 200.0 -0.0C211.2 -0.0 227.6 1.6 249.2 11.6C249.2 11.6 340.0 55.9 441.6 183.5" glyph-name="a" horiz-adv-x="441.6" unicode="a"/><glyph d="M-12.4 136.8C-12.4 136.8 94.8 162.4 147.6 190.4C196.8 216.4 258.8 250.8 255.6 295.6C255.6 295.6 248.8 352.0 151.6 306.4C120.0 291.6 -4.4 206.0 -27.2 100.8C-27.2 100.8 -49.6 0.4 57.6 -3.2C63.6 -3.2 135.2 -1.2 217.2 62.8C217.2 62.8 290.4 125.5 331.6 183.5" glyph-name="e" horiz-adv-x="331.6" unicode="e"/><glyph d="M0.0 183.5C0.0 183.5 126.4 314.0 126.4 314.0C50.0 206.4 -157.6 5.6 -30.0 -0.0C47.2 -10.0 171.2 118.3 225.2 183.5M254.8 460.4C251.2 449.2 239.2 440.4 228.4 440.4C217.6 440.4 211.6 449.2 215.2 460.4C218.8 471.2 230.4 480.0 241.6 480.0C252.4 480.0 258.4 471.2 254.8 460.4C254.8 460.4 254.8 460.4 254.8 460.4" glyph-name="i" horiz-adv-x="225.2" unicode="i"/><glyph d="M0.0 183.5C0.0 183.5 102.8 312.4 136.4 318.4C156.0 321.6 199.2 311.2 120.0 204.0C120.0 204.0 -6.0 17.2 -6.0 17.2C-3.6 6.4 144.8 165.6 226.4 249.2C300.8 324.8 404.4 358.8 382.0 272.0C355.6 181.6 260.8 101.2 200.4 16.0C199.2 19.2 364.4 191.6 454.0 265.2C610.0 392.8 654.4 287.2 517.2 167.6C500.0 150.4 481.6 131.2 465.2 112.4C371.2 2.4 456.4 -29.2 536.4 17.2C536.4 17.2 618.8 75.9 704.0 183.5" glyph-name="m" horiz-adv-x="704.0" unicode="m"/><glyph d="M213.6 144.0C213.6 144.0 261.2 225.6 264.0 258.0C264.0 258.0 283.2 365.6 124.4 295.6C72.8 272.8 -87.2 126.4 -57.2 23.6C-57.2 23.6 -39.6 -44.4 110.8 57.2C110.8 57.2 219.2 127.6 276.8 200.4C302.0 231.6 353.6 305.2 342.0 298.8C328.0 290.8 -124.8 -261.2 -133.6 -301.2C-133.6 -301.2 -222.8 -440.4 -72.4 -361.6C-72.4 -361.6 102.0 -241.2 163.6 0.8C163.6 0.8 171.2 24.8 163.6 44.8C163.6 44.8 178.4 -48.0 278.8 26.0C278.8 26.0 352.0 77.1 431.2 183.5" glyph-name="q" horiz-adv-x="431.2" unicode="q"/><glyph d="M0.0 183.5C0.0 183.5 134.4 316.4 134.4 316.4C134.4 316.4 9.6 181.6 -53.6 82.8C-64.0 66.8 -84.0 -0.4 -20.0 -0.0C98.4 -6.4 284.8 257.6 357.2 317.2C370.0 327.6 169.2 109.6 159.2 52.0C158.8 49.2 149.2 1.2 191.6 -0.0C204.0 -0.4 220.0 2.0 242.0 11.6C268.4 22.8 339.6 69.9 435.6 183.5" glyph-name="u" horiz-adv-x="435.6" unicode="u"/><glyph d="M244.8 181.4C267.6 248.7 282.7 316.6 211.9 317.5C66.9 319.3 -110.4 14.2 15.2 -0.0C36.5 -1.1 65.0 3.0 100.5 19.8C138.8 42.9 187.2 70.6 236.8 164.4C253.0 195.1 169.3 131.5 201.5 85.6C204.5 81.3 250.0 51.7 362.3 183.5M242.4 493.8C238.4 483.3 227.0 474.9 216.9 474.9C212.0 474.9 208.1 476.9 206.1 480.4C204.0 484.0 203.9 488.7 205.8 493.8C209.8 504.2 221.2 512.6 231.3 512.6C236.2 512.6 240.1 510.6 242.2 507.1C244.2 503.5 244.3 498.8 242.4 493.8C242.4 493.8 242.4 493.8 242.4 493.8M389.7 493.8C385.7 483.3 374.3 474.9 364.2 474.9C359.3 474.9 355.5 476.9 353.4 480.4C351.3 484.0 351.2 488.7 353.1 493.8C357.1 504.2 368.6 512.6 378.7 512.6C383.5 512.6 387.4 510.6 389.5 507.1C391.6 503.5 391.6 498.8 389.7 493.8C389.7 493.8 389.7 493.8 389.7 493.8" glyph-name="ö" horiz-adv-x="362.3" unicode="ö"/><glyph d="M0.0 183.5C0.0 183.5 148.0 313.6 148.0 313.6C148.0 313.6 -11.6 158.8 -56.8 55.2C-56.8 55.2 -90.4 -35.6 40.4 12.8C40.4 12.8 112.0 26.4 228.8 146.4C305.6 225.6 294.0 216.8 383.2 311.6C294.8 220.0 -59.6 -414.8 -290.4 -383.2C-384.0 -370.0 -228.8 -219.6 15.6 -142.8C103.2 -115.2 243.2 -44.8 324.8 42.8C406.8 130.8 446.8 179.1 446.0 183.5" glyph-name="y" horiz-adv-x="446.0" unicode="y"/></font>
</defs>
</svg>
