<?xml version="1.0" encoding="UTF-8" ?>
<!DOCTYPE svg PUBLIC "-//W3C//DTD SVG 1.1//EN" "http://www.w3.org/Graphics/SVG/1.1/DTD/svg11.dtd" >

<svg xmlns="http://www.w3.org/2000/svg" xmlns:xlink="http://www.w3.org/1999/xlink" version="1.1">

<metadata>
Font name: Hershey Serif medium

Originally prepared in 2011 and converted to SVG fonts
in 2019 by Windell H. Oskay, www.evilmadscientist.com

Contents adapted from emergent.unpythonic.net/software/hershey
 by way of "Hershey Fonts in SVG" by Marty McGuire
 http://www.thingiverse.com/thing:6168
 
-------------------------------------------------------------------
The Hershey Fonts are a set of vector fonts with a liberal license.

USE RESTRICTION:
    This distribution of the Hershey Fonts may be used by anyone for
    any purpose, commercial or otherwise, providing that:
        1. The following acknowledgements must be distributed with
            the font data:
            - The Hershey Fonts were originally created by Dr.
                A. V. Hershey while working at the U. S.
                National Bureau of Standards.
            - The format of the Font data in this distribution
                was originally created by
                    James Hurt
                    Cognition, Inc.
                    900 Technology Park Drive
                    Billerica, MA 01821
                    (mit-eddie!ci-dandelion!hurt)
        2. The font data in this distribution may be converted into
            any other format *EXCEPT* the format distributed by
            the U.S. NTIS where each point is described
            in eight bytes as "xxx yyy:", where xxx and yyy are
            the coordinate values as ASCII numbers.

</metadata>
<defs>
<font id="HersheySerifMed" horiz-adv-x="378" >
<font-face
font-family="Hershey Serif medium"
units-per-em="1000"
ascent="800"
descent="-200"
cap-height="500"
x-height="300"
/>
<missing-glyph horiz-adv-x="378" />
<glyph unicode=" " glyph-name="space" horiz-adv-x="378" />
<glyph unicode="!" glyph-name="exclam" horiz-adv-x="315" d="M 284 662 L 252 598 L 284 220 L 315 598 L 284 662 M 284 598 L 284 410 M 284 63 L 252 31.5 L 284 0 L 315 31.5 L 284 63" />
<glyph unicode="&#x22;" glyph-name="quotedbl" horiz-adv-x="567" d="M 220 662 L 189 630 L 189 441 M 220 630 L 189 441 M 220 662 L 252 630 L 189 441 M 504 662 L 472 630 L 472 441 M 504 630 L 472 441 M 504 662 L 536 630 L 472 441" />
<glyph unicode="#" glyph-name="numbersign" horiz-adv-x="662" d="M 410 788 L 189 -220 M 598 788 L 378 -220 M 189 378 L 630 378 M 158 189 L 598 189" />
<glyph unicode="$" glyph-name="dollar" horiz-adv-x="630" d="M 315 788 L 315 -126 M 441 788 L 441 -126 M 567 567 L 536 536 L 567 504 L 598 536 L 598 567 L 536 630 L 441 662 L 315 662 L 220 630 L 158 567 L 158 504 L 189 441 L 220 410 L 284 378 L 472 315 L 536 284 L 598 220 M 158 504 L 220 441 L 284 410 L 472 346 L 536 315 L 567 284 L 598 220 L 598 94.5 L 536 31.5 L 441 0 L 315 0 L 220 31.5 L 158 94.5 L 158 126 L 189 158 L 220 126 L 189 94.5" />
<glyph unicode="%" glyph-name="percent" horiz-adv-x="756" d="M 724 662 L 158 0 M 315 662 L 378 598 L 378 536 L 346 472 L 284 441 L 220 441 L 158 504 L 158 567 L 189 630 L 252 662 L 315 662 L 378 630 L 472 598 L 567 598 L 662 630 L 724 662 M 598 220 L 536 189 L 504 126 L 504 63 L 567 0 L 630 0 L 693 31.5 L 724 94.5 L 724 158 L 662 220 L 598 220" />
<glyph unicode="&amp;" glyph-name="ampersand" horiz-adv-x="788" d="M 724 410 L 693 378 L 724 346 L 756 378 L 756 410 L 724 441 L 693 441 L 662 410 L 630 346 L 567 189 L 504 94.5 L 441 31.5 L 378 0 L 284 0 L 189 31.5 L 158 94.5 L 158 189 L 189 252 L 378 378 L 441 441 L 472 504 L 472 567 L 441 630 L 378 662 L 315 630 L 284 567 L 284 504 L 315 410 L 378 315 L 536 94.5 L 598 31.5 L 693 0 L 724 0 L 756 31.5 L 756 63 M 284 0 L 220 31.5 L 189 94.5 L 189 189 L 220 252 L 284 315 M 284 504 L 315 441 L 567 94.5 L 630 31.5 L 693 0" />
<glyph unicode="&apos;" glyph-name="quotesingle" horiz-adv-x="252" d="M 189 662 L 158 441 M 220 662 L 158 441" />
<glyph unicode="(" glyph-name="parenleft" horiz-adv-x="441" d="M 410 788 L 346 724 L 284 630 L 220 504 L 189 346 L 189 220 L 220 63 L 284 -63 L 346 -158 L 410 -220 M 346 724 L 284 598 L 252 504 L 220 346 L 220 220 L 252 63 L 284 -31.5 L 346 -158" />
<glyph unicode=")" glyph-name="parenright" horiz-adv-x="441" d="M 158 788 L 220 724 L 284 630 L 346 504 L 378 346 L 378 220 L 346 63 L 284 -63 L 220 -158 L 158 -220 M 220 724 L 284 598 L 315 504 L 346 346 L 346 220 L 315 63 L 284 -31.5 L 220 -158" />
<glyph unicode="*" glyph-name="asterisk" horiz-adv-x="504" d="M 315 472 L 315 94.5 M 158 378 L 472 189 M 472 378 L 158 189" />
<glyph unicode="+" glyph-name="plus" horiz-adv-x="819" d="M 472 567 L 472 0 M 189 284 L 756 284" />
<glyph unicode="," glyph-name="comma" horiz-adv-x="252" d="M 220 126 L 189 94.5 L 158 126 L 189 158 L 220 126 L 220 63 L 158 0" />
<glyph unicode="-" glyph-name="hyphen" horiz-adv-x="819" d="M 189 284 L 756 284" />
<glyph unicode="." glyph-name="period" horiz-adv-x="252" d="M 189 158 L 158 126 L 189 94.5 L 220 126 L 189 158" />
<glyph unicode="/" glyph-name="slash" horiz-adv-x="693" d="M 693 788 L 126 -220" />
<glyph unicode="0" glyph-name="zero" horiz-adv-x="630" d="M 346 662 L 252 630 L 189 536 L 158 378 L 158 284 L 189 126 L 252 31.5 L 346 0 L 410 0 L 504 31.5 L 567 126 L 598 284 L 598 378 L 567 536 L 504 630 L 410 662 L 346 662 M 346 662 L 284 630 L 252 598 L 220 536 L 189 378 L 189 284 L 220 126 L 252 63 L 284 31.5 L 346 0 M 410 0 L 472 31.5 L 504 63 L 536 126 L 567 284 L 567 378 L 536 536 L 504 598 L 472 630 L 410 662" />
<glyph unicode="1" glyph-name="one" horiz-adv-x="630" d="M 252 536 L 315 567 L 410 662 L 410 0 M 378 630 L 378 0 M 252 0 L 536 0" />
<glyph unicode="2" glyph-name="two" horiz-adv-x="630" d="M 189 536 L 220 504 L 189 472 L 158 504 L 158 536 L 189 598 L 220 630 L 315 662 L 441 662 L 536 630 L 567 598 L 598 536 L 598 472 L 567 410 L 472 346 L 315 284 L 252 252 L 189 189 L 158 94.5 L 158 0 M 441 662 L 504 630 L 536 598 L 567 536 L 567 472 L 536 410 L 441 346 L 315 284 M 158 63 L 189 94.5 L 252 94.5 L 410 31.5 L 504 31.5 L 567 63 L 598 94.5 M 252 94.5 L 410 0 L 536 0 L 567 31.5 L 598 94.5 L 598 158" />
<glyph unicode="3" glyph-name="three" horiz-adv-x="630" d="M 189 536 L 220 504 L 189 472 L 158 504 L 158 536 L 189 598 L 220 630 L 315 662 L 441 662 L 536 630 L 567 567 L 567 472 L 536 410 L 441 378 L 346 378 M 441 662 L 504 630 L 536 567 L 536 472 L 504 410 L 441 378 M 441 378 L 504 346 L 567 284 L 598 220 L 598 126 L 567 63 L 536 31.5 L 441 0 L 315 0 L 220 31.5 L 189 63 L 158 126 L 158 158 L 189 189 L 220 158 L 189 126 M 536 315 L 567 220 L 567 126 L 536 63 L 504 31.5 L 441 0" />
<glyph unicode="4" glyph-name="four" horiz-adv-x="630" d="M 441 598 L 441 0 M 472 662 L 472 0 M 472 662 L 126 189 L 630 189 M 346 0 L 567 0" />
<glyph unicode="5" glyph-name="five" horiz-adv-x="630" d="M 220 662 L 158 346 M 158 346 L 220 410 L 315 441 L 410 441 L 504 410 L 567 346 L 598 252 L 598 189 L 567 94.5 L 504 31.5 L 410 0 L 315 0 L 220 31.5 L 189 63 L 158 126 L 158 158 L 189 189 L 220 158 L 189 126 M 410 441 L 472 410 L 536 346 L 567 252 L 567 189 L 536 94.5 L 472 31.5 L 410 0 M 220 662 L 536 662 M 220 630 L 378 630 L 536 662" />
<glyph unicode="6" glyph-name="six" horiz-adv-x="630" d="M 536 567 L 504 536 L 536 504 L 567 536 L 567 567 L 536 630 L 472 662 L 378 662 L 284 630 L 220 567 L 189 504 L 158 378 L 158 189 L 189 94.5 L 252 31.5 L 346 0 L 410 0 L 504 31.5 L 567 94.5 L 598 189 L 598 220 L 567 315 L 504 378 L 410 410 L 378 410 L 284 378 L 220 315 L 189 220 M 378 662 L 315 630 L 252 567 L 220 504 L 189 378 L 189 189 L 220 94.5 L 284 31.5 L 346 0 M 410 0 L 472 31.5 L 536 94.5 L 567 189 L 567 220 L 536 315 L 472 378 L 410 410" />
<glyph unicode="7" glyph-name="seven" horiz-adv-x="630" d="M 158 662 L 158 472 M 158 536 L 189 598 L 252 662 L 315 662 L 472 567 L 536 567 L 567 598 L 598 662 M 189 598 L 252 630 L 315 630 L 472 567 M 598 662 L 598 567 L 567 472 L 441 315 L 410 252 L 378 158 L 378 0 M 567 472 L 410 315 L 378 252 L 346 158 L 346 0" />
<glyph unicode="8" glyph-name="eight" horiz-adv-x="630" d="M 315 662 L 220 630 L 189 567 L 189 472 L 220 410 L 315 378 L 441 378 L 536 410 L 567 472 L 567 567 L 536 630 L 441 662 L 315 662 M 315 662 L 252 630 L 220 567 L 220 472 L 252 410 L 315 378 M 441 378 L 504 410 L 536 472 L 536 567 L 504 630 L 441 662 M 315 378 L 220 346 L 189 315 L 158 252 L 158 126 L 189 63 L 220 31.5 L 315 0 L 441 0 L 536 31.5 L 567 63 L 598 126 L 598 252 L 567 315 L 536 346 L 441 378 M 315 378 L 252 346 L 220 315 L 189 252 L 189 126 L 220 63 L 252 31.5 L 315 0 M 441 0 L 504 31.5 L 536 63 L 567 126 L 567 252 L 536 315 L 504 346 L 441 378" />
<glyph unicode="9" glyph-name="nine" horiz-adv-x="630" d="M 567 441 L 536 346 L 472 284 L 378 252 L 346 252 L 252 284 L 189 346 L 158 441 L 158 472 L 189 567 L 252 630 L 346 662 L 410 662 L 504 630 L 567 567 L 598 472 L 598 284 L 567 158 L 536 94.5 L 472 31.5 L 378 0 L 284 0 L 220 31.5 L 189 94.5 L 189 126 L 220 158 L 252 126 L 220 94.5 M 346 252 L 284 284 L 220 346 L 189 441 L 189 472 L 220 567 L 284 630 L 346 662 M 410 662 L 472 630 L 536 567 L 567 472 L 567 284 L 536 158 L 504 94.5 L 441 31.5 L 378 0" />
<glyph unicode=":" glyph-name="colon" horiz-adv-x="252" d="M 189 378 L 158 346 L 189 315 L 220 346 L 189 378 M 189 158 L 158 126 L 189 94.5 L 220 126 L 189 158" />
<glyph unicode=";" glyph-name="semicolon" horiz-adv-x="252" d="M 189 378 L 158 346 L 189 315 L 220 346 L 189 378 M 220 126 L 189 94.5 L 158 126 L 189 158 L 220 126 L 220 63 L 158 0" />
<glyph unicode="&#x3c;" glyph-name="less" horiz-adv-x="756" d="M 693 567 L 189 284 L 693 0" />
<glyph unicode="=" glyph-name="equal" horiz-adv-x="819" d="M 189 378 L 756 378 M 189 189 L 756 189" />
<glyph unicode="&#x3e;" glyph-name="greater" horiz-adv-x="756" d="M 189 567 L 693 284 L 189 0" />
<glyph unicode="?" glyph-name="question" horiz-adv-x="567" d="M 189 536 L 220 504 L 189 472 L 158 504 L 158 536 L 189 598 L 220 630 L 284 662 L 378 662 L 472 630 L 504 598 L 536 536 L 536 472 L 504 410 L 472 378 L 346 315 L 346 220 M 378 662 L 441 630 L 472 598 L 504 536 L 504 472 L 472 410 L 410 346 M 346 63 L 315 31.5 L 346 0 L 378 31.5 L 346 63" />
<glyph unicode="@" glyph-name="at" horiz-adv-x="850" d="M 630 410 L 598 472 L 536 504 L 441 504 L 378 472 L 346 441 L 315 346 L 315 252 L 346 189 L 410 158 L 504 158 L 567 189 L 598 252 M 441 504 L 378 441 L 346 346 L 346 252 L 378 189 L 410 158 M 630 504 L 598 252 L 598 189 L 662 158 L 724 158 L 788 220 L 819 315 L 819 378 L 788 472 L 756 536 L 693 598 L 630 630 L 536 662 L 441 662 L 346 630 L 284 598 L 220 536 L 189 472 L 158 378 L 158 284 L 189 189 L 220 126 L 284 63 L 346 31.5 L 441 0 L 536 0 L 630 31.5 L 693 63 L 724 94.5 M 662 504 L 630 252 L 630 189 L 662 158" />
<glyph unicode="A" glyph-name="A" horiz-adv-x="630" d="M 378 662 L 158 0 M 378 662 L 598 0 M 378 567 L 567 0 M 220 189 L 504 189 M 94.5 0 L 284 0 M 472 0 L 662 0" />
<glyph unicode="B" glyph-name="B" horiz-adv-x="693" d="M 220 662 L 220 0 M 252 662 L 252 0 M 126 662 L 504 662 L 598 630 L 630 598 L 662 536 L 662 472 L 630 410 L 598 378 L 504 346 M 504 662 L 567 630 L 598 598 L 630 536 L 630 472 L 598 410 L 567 378 L 504 346 M 252 346 L 504 346 L 598 315 L 630 284 L 662 220 L 662 126 L 630 63 L 598 31.5 L 504 0 L 126 0 M 504 346 L 567 315 L 598 284 L 630 220 L 630 126 L 598 63 L 567 31.5 L 504 0" />
<glyph unicode="C" glyph-name="C" horiz-adv-x="662" d="M 598 567 L 630 472 L 630 662 L 598 567 L 536 630 L 441 662 L 378 662 L 284 630 L 220 567 L 189 504 L 158 410 L 158 252 L 189 158 L 220 94.5 L 284 31.5 L 378 0 L 441 0 L 536 31.5 L 598 94.5 L 630 158 M 378 662 L 315 630 L 252 567 L 220 504 L 189 410 L 189 252 L 220 158 L 252 94.5 L 315 31.5 L 378 0" />
<glyph unicode="D" glyph-name="D" horiz-adv-x="693" d="M 220 662 L 220 0 M 252 662 L 252 0 M 126 662 L 441 662 L 536 630 L 598 567 L 630 504 L 662 410 L 662 252 L 630 158 L 598 94.5 L 536 31.5 L 441 0 L 126 0 M 441 662 L 504 630 L 567 567 L 598 504 L 630 410 L 630 252 L 598 158 L 567 94.5 L 504 31.5 L 441 0" />
<glyph unicode="E" glyph-name="E" horiz-adv-x="662" d="M 220 662 L 220 0 M 252 662 L 252 0 M 441 472 L 441 220 M 126 662 L 630 662 L 630 472 L 598 662 M 252 346 L 441 346 M 126 0 L 630 0 L 630 189 L 598 0" />
<glyph unicode="F" glyph-name="F" horiz-adv-x="630" d="M 220 662 L 220 0 M 252 662 L 252 0 M 441 472 L 441 220 M 126 662 L 630 662 L 630 472 L 598 662 M 252 346 L 441 346 M 126 0 L 346 0" />
<glyph unicode="G" glyph-name="G" horiz-adv-x="724" d="M 598 567 L 630 472 L 630 662 L 598 567 L 536 630 L 441 662 L 378 662 L 284 630 L 220 567 L 189 504 L 158 410 L 158 252 L 189 158 L 220 94.5 L 284 31.5 L 378 0 L 441 0 L 536 31.5 L 598 94.5 M 378 662 L 315 630 L 252 567 L 220 504 L 189 410 L 189 252 L 220 158 L 252 94.5 L 315 31.5 L 378 0 M 598 252 L 598 0 M 630 252 L 630 0 M 504 252 L 724 252" />
<glyph unicode="H" glyph-name="H" horiz-adv-x="756" d="M 220 662 L 220 0 M 252 662 L 252 0 M 630 662 L 630 0 M 662 662 L 662 0 M 126 662 L 346 662 M 536 662 L 756 662 M 252 346 L 630 346 M 126 0 L 346 0 M 536 0 L 756 0" />
<glyph unicode="I" glyph-name="I" horiz-adv-x="346" d="M 220 662 L 220 0 M 252 662 L 252 0 M 126 662 L 346 662 M 126 0 L 346 0" />
<glyph unicode="J" glyph-name="J" horiz-adv-x="472" d="M 378 662 L 378 126 L 346 31.5 L 284 0 L 220 0 L 158 31.5 L 126 94.5 L 126 158 L 158 189 L 189 158 L 158 126 M 346 662 L 346 126 L 315 31.5 L 284 0 M 252 662 L 472 662" />
<glyph unicode="K" glyph-name="K" horiz-adv-x="693" d="M 220 662 L 220 0 M 252 662 L 252 0 M 662 662 L 252 252 M 410 378 L 662 0 M 378 378 L 630 0 M 126 662 L 346 662 M 536 662 L 724 662 M 126 0 L 346 0 M 536 0 L 724 0" />
<glyph unicode="L" glyph-name="L" horiz-adv-x="567" d="M 220 662 L 220 0 M 252 662 L 252 0 M 126 662 L 346 662 M 126 0 L 598 0 L 598 189 L 567 0" />
<glyph unicode="M" glyph-name="M" horiz-adv-x="788" d="M 220 662 L 220 0 M 252 662 L 441 94.5 M 220 662 L 441 0 M 662 662 L 441 0 M 662 662 L 662 0 M 693 662 L 693 0 M 126 662 L 252 662 M 662 662 L 788 662 M 126 0 L 315 0 M 567 0 L 788 0" />
<glyph unicode="N" glyph-name="N" horiz-adv-x="724" d="M 220 662 L 220 0 M 252 662 L 630 63 M 252 598 L 630 0 M 630 662 L 630 0 M 126 662 L 252 662 M 536 662 L 724 662 M 126 0 L 315 0" />
<glyph unicode="O" glyph-name="O" horiz-adv-x="693" d="M 378 662 L 284 630 L 220 567 L 189 504 L 158 378 L 158 284 L 189 158 L 220 94.5 L 284 31.5 L 378 0 L 441 0 L 536 31.5 L 598 94.5 L 630 158 L 662 284 L 662 378 L 630 504 L 598 567 L 536 630 L 441 662 L 378 662 M 378 662 L 315 630 L 252 567 L 220 504 L 189 378 L 189 284 L 220 158 L 252 94.5 L 315 31.5 L 378 0 M 441 0 L 504 31.5 L 567 94.5 L 598 158 L 630 284 L 630 378 L 598 504 L 567 567 L 504 630 L 441 662" />
<glyph unicode="P" glyph-name="P" horiz-adv-x="693" d="M 220 662 L 220 0 M 252 662 L 252 0 M 126 662 L 504 662 L 598 630 L 630 598 L 662 536 L 662 441 L 630 378 L 598 346 L 504 315 L 252 315 M 504 662 L 567 630 L 598 598 L 630 536 L 630 441 L 598 378 L 567 346 L 504 315 M 126 0 L 346 0" />
<glyph unicode="Q" glyph-name="Q" horiz-adv-x="693" d="M 378 662 L 284 630 L 220 567 L 189 504 L 158 378 L 158 284 L 189 158 L 220 94.5 L 284 31.5 L 378 0 L 441 0 L 536 31.5 L 598 94.5 L 630 158 L 662 284 L 662 378 L 630 504 L 598 567 L 536 630 L 441 662 L 378 662 M 378 662 L 315 630 L 252 567 L 220 504 L 189 378 L 189 284 L 220 158 L 252 94.5 L 315 31.5 L 378 0 M 441 0 L 504 31.5 L 567 94.5 L 598 158 L 630 284 L 630 378 L 598 504 L 567 567 L 504 630 L 441 662 M 284 63 L 284 94.5 L 315 158 L 378 189 L 410 189 L 472 158 L 504 94.5 L 536 -126 L 567 -158 L 630 -158 L 662 -94.5 L 662 -63 M 504 94.5 L 536 -31.5 L 567 -94.5 L 598 -126 L 630 -126 L 662 -94.5" />
<glyph unicode="R" glyph-name="R" horiz-adv-x="693" d="M 220 662 L 220 0 M 252 662 L 252 0 M 126 662 L 504 662 L 598 630 L 630 598 L 662 536 L 662 472 L 630 410 L 598 378 L 504 346 L 252 346 M 504 662 L 567 630 L 598 598 L 630 536 L 630 472 L 598 410 L 567 378 L 504 346 M 126 0 L 346 0 M 410 346 L 472 315 L 504 284 L 598 63 L 630 31.5 L 662 31.5 L 693 63 M 472 315 L 504 252 L 567 31.5 L 598 0 L 662 0 L 693 63 L 693 94.5" />
<glyph unicode="S" glyph-name="S" horiz-adv-x="630" d="M 567 567 L 598 662 L 598 472 L 567 567 L 504 630 L 410 662 L 315 662 L 220 630 L 158 567 L 158 504 L 189 441 L 220 410 L 284 378 L 472 315 L 536 284 L 598 220 M 158 504 L 220 441 L 284 410 L 472 346 L 536 315 L 567 284 L 598 220 L 598 94.5 L 536 31.5 L 441 0 L 346 0 L 252 31.5 L 189 94.5 L 158 189 L 158 0 L 189 94.5" />
<glyph unicode="T" glyph-name="T" horiz-adv-x="598" d="M 346 662 L 346 0 M 378 662 L 378 0 M 158 662 L 126 472 L 126 662 L 598 662 L 598 472 L 567 662 M 252 0 L 472 0" />
<glyph unicode="U" glyph-name="U" horiz-adv-x="756" d="M 220 662 L 220 189 L 252 94.5 L 315 31.5 L 410 0 L 472 0 L 567 31.5 L 630 94.5 L 662 189 L 662 662 M 252 662 L 252 189 L 284 94.5 L 346 31.5 L 410 0 M 126 662 L 346 662 M 567 662 L 756 662" />
<glyph unicode="V" glyph-name="V" horiz-adv-x="630" d="M 158 662 L 378 0 M 189 662 L 378 94.5 M 598 662 L 378 0 M 94.5 662 L 284 662 M 472 662 L 662 662" />
<glyph unicode="W" glyph-name="W" horiz-adv-x="756" d="M 189 662 L 315 0 M 220 662 L 315 158 M 441 662 L 315 0 M 441 662 L 567 0 M 472 662 L 567 158 M 693 662 L 567 0 M 94.5 662 L 315 662 M 598 662 L 788 662" />
<glyph unicode="X" glyph-name="X" horiz-adv-x="630" d="M 158 662 L 567 0 M 189 662 L 598 0 M 598 662 L 158 0 M 94.5 662 L 284 662 M 472 662 L 662 662 M 94.5 0 L 284 0 M 472 0 L 662 0" />
<glyph unicode="Y" glyph-name="Y" horiz-adv-x="662" d="M 158 662 L 378 315 L 378 0 M 189 662 L 410 315 L 410 0 M 630 662 L 410 315 M 94.5 662 L 284 662 M 504 662 L 693 662 M 284 0 L 504 0" />
<glyph unicode="Z" glyph-name="Z" horiz-adv-x="630" d="M 567 662 L 158 0 M 598 662 L 189 0 M 189 662 L 158 472 L 158 662 L 598 662 M 158 0 L 598 0 L 598 189 L 567 0" />
<glyph unicode="[" glyph-name="bracketleft" horiz-adv-x="441" d="M 189 788 L 189 -220 M 220 788 L 220 -220 M 189 788 L 410 788 M 189 -220 L 410 -220" />
<glyph unicode="\" glyph-name="backslash" horiz-adv-x="441" d="M 63 662 L 504 -94.5" />
<glyph unicode="]" glyph-name="bracketright" horiz-adv-x="441" d="M 346 788 L 346 -220 M 378 788 L 378 -220 M 158 788 L 378 788 M 158 -220 L 378 -220" />
<glyph unicode="^" glyph-name="asciicircum" horiz-adv-x="693" d="M 158 220 L 410 378 L 662 220 M 158 220 L 410 346 L 662 220" />
<glyph unicode="_" glyph-name="underscore" horiz-adv-x="630" d="M 63 -220 L 693 -220" />
<glyph unicode="`" glyph-name="grave" horiz-adv-x="378" d="M 189 662 L 346 472 M 189 662 L 158 630 L 346 472" />
<glyph unicode="a" glyph-name="a" horiz-adv-x="630" d="M 220 378 L 220 346 L 189 346 L 189 378 L 220 410 L 284 441 L 410 441 L 472 410 L 504 378 L 536 315 L 536 94.5 L 567 31.5 L 598 0 M 504 378 L 504 94.5 L 536 31.5 L 598 0 L 630 0 M 504 315 L 472 284 L 284 252 L 189 220 L 158 158 L 158 94.5 L 189 31.5 L 284 0 L 378 0 L 441 31.5 L 504 94.5 M 284 252 L 220 220 L 189 158 L 189 94.5 L 220 31.5 L 284 0" />
<glyph unicode="b" glyph-name="b" horiz-adv-x="662" d="M 220 662 L 220 0 M 252 662 L 252 0 M 252 346 L 315 410 L 378 441 L 441 441 L 536 410 L 598 346 L 630 252 L 630 189 L 598 94.5 L 536 31.5 L 441 0 L 378 0 L 315 31.5 L 252 94.5 M 441 441 L 504 410 L 567 346 L 598 252 L 598 189 L 567 94.5 L 504 31.5 L 441 0 M 126 662 L 252 662" />
<glyph unicode="c" glyph-name="c" horiz-adv-x="598" d="M 536 346 L 504 315 L 536 284 L 567 315 L 567 346 L 504 410 L 441 441 L 346 441 L 252 410 L 189 346 L 158 252 L 158 189 L 189 94.5 L 252 31.5 L 346 0 L 410 0 L 504 31.5 L 567 94.5 M 346 441 L 284 410 L 220 346 L 189 252 L 189 189 L 220 94.5 L 284 31.5 L 346 0" />
<glyph unicode="d" glyph-name="d" horiz-adv-x="662" d="M 536 662 L 536 0 M 567 662 L 567 0 M 536 346 L 472 410 L 410 441 L 346 441 L 252 410 L 189 346 L 158 252 L 158 189 L 189 94.5 L 252 31.5 L 346 0 L 410 0 L 472 31.5 L 536 94.5 M 346 441 L 284 410 L 220 346 L 189 252 L 189 189 L 220 94.5 L 284 31.5 L 346 0 M 441 662 L 567 662 M 536 0 L 662 0" />
<glyph unicode="e" glyph-name="e" horiz-adv-x="598" d="M 189 252 L 567 252 L 567 315 L 536 378 L 504 410 L 441 441 L 346 441 L 252 410 L 189 346 L 158 252 L 158 189 L 189 94.5 L 252 31.5 L 346 0 L 410 0 L 504 31.5 L 567 94.5 M 536 252 L 536 346 L 504 410 M 346 441 L 284 410 L 220 346 L 189 252 L 189 189 L 220 94.5 L 284 31.5 L 346 0" />
<glyph unicode="f" glyph-name="f" horiz-adv-x="410" d="M 378 630 L 346 598 L 378 567 L 410 598 L 410 630 L 378 662 L 315 662 L 252 630 L 220 567 L 220 0 M 315 662 L 284 630 L 252 567 L 252 0 M 126 441 L 378 441 M 126 0 L 346 0" />
<glyph unicode="g" glyph-name="g" horiz-adv-x="598" d="M 315 441 L 252 410 L 220 378 L 189 315 L 189 252 L 220 189 L 252 158 L 315 126 L 378 126 L 441 158 L 472 189 L 504 252 L 504 315 L 472 378 L 441 410 L 378 441 L 315 441 M 252 410 L 220 346 L 220 220 L 252 158 M 441 158 L 472 220 L 472 346 L 441 410 M 472 378 L 504 410 L 567 441 L 567 410 L 504 410 M 220 189 L 189 158 L 158 94.5 L 158 63 L 189 0 L 284 -31.5 L 441 -31.5 L 536 -63 L 567 -94.5 M 158 63 L 189 31.5 L 284 0 L 441 0 L 536 -31.5 L 567 -94.5 L 567 -126 L 536 -189 L 441 -220 L 252 -220 L 158 -189 L 126 -126 L 126 -94.5 L 158 -31.5 L 252 0" />
<glyph unicode="h" glyph-name="h" horiz-adv-x="693" d="M 220 662 L 220 0 M 252 662 L 252 0 M 252 346 L 315 410 L 410 441 L 472 441 L 567 410 L 598 346 L 598 0 M 472 441 L 536 410 L 567 346 L 567 0 M 126 662 L 252 662 M 126 0 L 346 0 M 472 0 L 693 0" />
<glyph unicode="i" glyph-name="i" horiz-adv-x="346" d="M 220 662 L 189 630 L 220 598 L 252 630 L 220 662 M 220 441 L 220 0 M 252 441 L 252 0 M 126 441 L 252 441 M 126 0 L 346 0" />
<glyph unicode="j" glyph-name="j" horiz-adv-x="346" d="M 252 662 L 220 630 L 252 598 L 284 630 L 252 662 M 284 441 L 284 -126 L 252 -189 L 189 -220 L 126 -220 L 94.5 -189 L 94.5 -158 L 126 -126 L 158 -158 L 126 -189 M 252 441 L 252 -126 L 220 -189 L 189 -220 M 158 441 L 284 441" />
<glyph unicode="k" glyph-name="k" horiz-adv-x="662" d="M 220 662 L 220 0 M 252 662 L 252 0 M 567 441 L 252 126 M 410 252 L 598 0 M 378 252 L 567 0 M 126 662 L 252 662 M 472 441 L 662 441 M 126 0 L 346 0 M 472 0 L 662 0" />
<glyph unicode="l" glyph-name="l" horiz-adv-x="346" d="M 220 662 L 220 0 M 252 662 L 252 0 M 126 662 L 252 662 M 126 0 L 346 0" />
<glyph unicode="m" glyph-name="m" horiz-adv-x="1039.5" d="M 220 441 L 220 0 M 252 441 L 252 0 M 252 346 L 315 410 L 410 441 L 472 441 L 567 410 L 598 346 L 598 0 M 472 441 L 536 410 L 567 346 L 567 0 M 598 346 L 662 410 L 756 441 L 819 441 L 914 410 L 945 346 L 945 0 M 819 441 L 882 410 L 914 346 L 914 0 M 126 441 L 252 441 M 126 0 L 346 0 M 472 0 L 693 0 M 819 0 L 1039.5 0" />
<glyph unicode="n" glyph-name="n" horiz-adv-x="693" d="M 220 441 L 220 0 M 252 441 L 252 0 M 252 346 L 315 410 L 410 441 L 472 441 L 567 410 L 598 346 L 598 0 M 472 441 L 536 410 L 567 346 L 567 0 M 126 441 L 252 441 M 126 0 L 346 0 M 472 0 L 693 0" />
<glyph unicode="o" glyph-name="o" horiz-adv-x="630" d="M 346 441 L 252 410 L 189 346 L 158 252 L 158 189 L 189 94.5 L 252 31.5 L 346 0 L 410 0 L 504 31.5 L 567 94.5 L 598 189 L 598 252 L 567 346 L 504 410 L 410 441 L 346 441 M 346 441 L 284 410 L 220 346 L 189 252 L 189 189 L 220 94.5 L 284 31.5 L 346 0 M 410 0 L 472 31.5 L 536 94.5 L 567 189 L 567 252 L 536 346 L 472 410 L 410 441" />
<glyph unicode="p" glyph-name="p" horiz-adv-x="662" d="M 220 441 L 220 -220 M 252 441 L 252 -220 M 252 346 L 315 410 L 378 441 L 441 441 L 536 410 L 598 346 L 630 252 L 630 189 L 598 94.5 L 536 31.5 L 441 0 L 378 0 L 315 31.5 L 252 94.5 M 441 441 L 504 410 L 567 346 L 598 252 L 598 189 L 567 94.5 L 504 31.5 L 441 0 M 126 441 L 252 441 M 126 -220 L 346 -220" />
<glyph unicode="q" glyph-name="q" horiz-adv-x="630" d="M 536 441 L 536 -220 M 567 441 L 567 -220 M 536 346 L 472 410 L 410 441 L 346 441 L 252 410 L 189 346 L 158 252 L 158 189 L 189 94.5 L 252 31.5 L 346 0 L 410 0 L 472 31.5 L 536 94.5 M 346 441 L 284 410 L 220 346 L 189 252 L 189 189 L 220 94.5 L 284 31.5 L 346 0 M 441 -220 L 662 -220" />
<glyph unicode="r" glyph-name="r" horiz-adv-x="536" d="M 220 441 L 220 0 M 252 441 L 252 0 M 252 252 L 284 346 L 346 410 L 410 441 L 504 441 L 536 410 L 536 378 L 504 346 L 472 378 L 504 410 M 126 441 L 252 441 M 126 0 L 346 0" />
<glyph unicode="s" glyph-name="s" horiz-adv-x="536" d="M 472 378 L 504 441 L 504 315 L 472 378 L 441 410 L 378 441 L 252 441 L 189 410 L 158 378 L 158 315 L 189 284 L 252 252 L 410 189 L 472 158 L 504 126 M 158 346 L 189 315 L 252 284 L 410 220 L 472 189 L 504 158 L 504 63 L 472 31.5 L 410 0 L 284 0 L 220 31.5 L 189 63 L 158 126 L 158 0 L 189 63" />
<glyph unicode="t" glyph-name="t" horiz-adv-x="472" d="M 220 662 L 220 126 L 252 31.5 L 315 0 L 378 0 L 441 31.5 L 472 94.5 M 252 662 L 252 126 L 284 31.5 L 315 0 M 126 441 L 378 441" />
<glyph unicode="u" glyph-name="u" horiz-adv-x="693" d="M 220 441 L 220 94.5 L 252 31.5 L 346 0 L 410 0 L 504 31.5 L 567 94.5 M 252 441 L 252 94.5 L 284 31.5 L 346 0 M 567 441 L 567 0 M 598 441 L 598 0 M 126 441 L 252 441 M 472 441 L 598 441 M 567 0 L 693 0" />
<glyph unicode="v" glyph-name="v" horiz-adv-x="567" d="M 158 441 L 346 0 M 189 441 L 346 63 M 536 441 L 346 0 M 94.5 441 L 284 441 M 410 441 L 598 441" />
<glyph unicode="w" glyph-name="w" horiz-adv-x="756" d="M 189 441 L 315 0 M 220 441 L 315 94.5 M 441 441 L 315 0 M 441 441 L 567 0 M 472 441 L 567 94.5 M 693 441 L 567 0 M 94.5 441 L 315 441 M 598 441 L 788 441" />
<glyph unicode="x" glyph-name="x" horiz-adv-x="630" d="M 189 441 L 536 0 M 220 441 L 567 0 M 567 441 L 189 0 M 126 441 L 315 441 M 441 441 L 630 441 M 126 0 L 315 0 M 441 0 L 630 0" />
<glyph unicode="y" glyph-name="y" horiz-adv-x="598" d="M 189 441 L 378 0 M 220 441 L 378 63 M 567 441 L 378 0 L 315 -126 L 252 -189 L 189 -220 L 158 -220 L 126 -189 L 158 -158 L 189 -189 M 126 441 L 315 441 M 441 441 L 630 441" />
<glyph unicode="z" glyph-name="z" horiz-adv-x="567" d="M 504 441 L 158 0 M 536 441 L 189 0 M 189 441 L 158 315 L 158 441 L 536 441 M 158 0 L 536 0 L 536 126 L 504 0" />
<glyph unicode="{" glyph-name="braceleft" horiz-adv-x="441" d="M 346 788 L 284 756 L 252 724 L 220 662 L 220 598 L 252 536 L 284 504 L 315 441 L 315 378 L 252 315 M 284 756 L 252 693 L 252 630 L 284 567 L 315 536 L 346 472 L 346 410 L 315 346 L 189 284 L 315 220 L 346 158 L 346 94.5 L 315 31.5 L 284 0 L 252 -63 L 252 -126 L 284 -189 M 252 252 L 315 189 L 315 126 L 284 63 L 252 31.5 L 220 -31.5 L 220 -94.5 L 252 -158 L 284 -189 L 346 -220" />
<glyph unicode="|" glyph-name="bar" horiz-adv-x="252" d="M 189 788 L 189 -220" />
<glyph unicode="}" glyph-name="braceright" horiz-adv-x="441" d="M 220 788 L 284 756 L 315 724 L 346 662 L 346 598 L 315 536 L 284 504 L 252 441 L 252 378 L 315 315 M 284 756 L 315 693 L 315 630 L 284 567 L 252 536 L 220 472 L 220 410 L 252 346 L 378 284 L 252 220 L 220 158 L 220 94.5 L 252 31.5 L 284 0 L 315 -63 L 315 -126 L 284 -189 M 315 252 L 252 189 L 252 126 L 284 63 L 315 31.5 L 346 -31.5 L 346 -94.5 L 315 -158 L 284 -189 L 220 -220" />
<glyph unicode="~" glyph-name="asciitilde" horiz-adv-x="756" d="M 158 189 L 158 252 L 189 346 L 252 378 L 315 378 L 378 346 L 504 252 L 567 220 L 630 220 L 693 252 L 724 315 M 158 252 L 189 315 L 252 346 L 315 346 L 378 315 L 504 220 L 567 189 L 630 189 L 693 220 L 724 315 L 724 378" />
<glyph unicode="&#xa0;" glyph-name="nbspace" horiz-adv-x="378" />
<glyph unicode="&#xa1;" glyph-name="exclamdown" horiz-adv-x="315" d="M 220 0 L 252 63 L 220 441 L 189 63 L 220 0 M 220 63 L 220 252 M 220 598 L 252 630 L 220 662 L 189 630 L 220 598" />
<glyph unicode="&#xa2;" glyph-name="cent" horiz-adv-x="151" d="M 536 346 L 504 315 L 536 284 L 567 315 L 567 346 L 504 410 L 441 441 L 346 441 L 252 410 L 189 346 L 158 252 L 158 189 L 189 94.5 L 252 31.5 L 346 0 L 410 0 L 504 31.5 L 567 94.5 M 346 441 L 284 410 L 220 346 L 189 252 L 189 189 L 220 94.5 L 284 31.5 L 346 0 M 340 510 L 340 -94.5" />
<glyph unicode="&#xa5;" glyph-name="yen" horiz-adv-x="662" d="M 158 662 L 378 315 L 378 0 M 189 662 L 410 315 L 410 0 M 630 662 L 410 315 M 94.5 662 L 284 662 M 504 662 L 693 662 M 284 0 L 504 0 M 227 170 L 567 170 M 227 246 L 567 246" />
<glyph unicode="&#xa6;" glyph-name="brokenbar" horiz-adv-x="75.6" d="M 227 236 L 227 -66.1 M 227 709 L 227 406" />
<glyph unicode="&#xa8;" glyph-name="dieresis" horiz-adv-x="567" d=" M 256 724 L 224 693 L 256 662 L 287 693 L 256 724 M 500 724 L 469 693 L 500 662 L 532 693 L 500 724" />
<glyph unicode="&#xa9;" glyph-name="copyright" horiz-adv-x="693" d="M 378 662 L 315 630 L 252 567 L 220 504 L 189 410 L 189 252 L 220 158 L 252 94.5 L 315 31.5 L 378 0 L 504 0 L 567 31.5 L 630 94.5 L 662 158 L 693 252 L 693 410 L 662 504 L 630 567 L 567 630 L 504 662 L 378 662 M 410 630 L 315 598 L 252 504 L 220 410 L 220 252 L 252 158 L 315 63 L 410 31.5 L 472 31.5 L 567 63 L 630 158 L 662 252 L 662 410 L 630 504 L 567 598 L 472 630 L 410 630 M 551 410 L 536 441 L 504 472 L 472 488 L 410 488 L 378 472 L 346 441 L 331 410 L 315 362 L 315 284 L 331 236 L 346 205 L 378 173 L 410 158 L 472 158 L 504 173 L 536 205 L 551 236 M 551 410 L 536 410 L 520 441 L 504 457 L 472 472 L 410 472 L 378 457 L 346 410 L 331 362 L 331 284 L 346 236 L 378 189 L 410 173 L 472 173 L 504 189 L 520 205 L 536 236 L 551 236" />
<glyph unicode="&#xaa;" glyph-name="ordfeminine" horiz-adv-x="315" d="M 236 819 L 236 803 L 220 803 L 220 819 L 236 835 L 268 850 L 331 850 L 362 835 L 378 819 L 394 788 L 394 677 L 410 646 L 425 630 M 378 819 L 378 677 L 394 646 L 425 630 L 441 630 M 378 788 L 362 772 L 268 756 L 220 740 L 205 709 L 205 677 L 220 646 L 268 630 L 315 630 L 346 646 L 378 677 M 268 756 L 236 740 L 220 709 L 220 677 L 236 646 L 268 630" />
<glyph unicode="&#xab;" glyph-name="guillemotleft" horiz-adv-x="454" d="M 277 454 L 75.6 227 L 277 0 M 403 454 L 202 227 L 403 0" />
<glyph unicode="&#xae;" glyph-name="registered" horiz-adv-x="693" d="M 378 662 L 315 630 L 252 567 L 220 504 L 189 410 L 189 252 L 220 158 L 252 94.5 L 315 31.5 L 378 0 L 504 0 L 567 31.5 L 630 94.5 L 662 158 L 693 252 L 693 410 L 662 504 L 630 567 L 567 630 L 504 662 L 378 662 M 410 630 L 315 598 L 252 504 L 220 410 L 220 252 L 252 158 L 315 63 L 410 31.5 L 472 31.5 L 567 63 L 630 158 L 662 252 L 662 410 L 630 504 L 567 598 L 472 630 L 410 630 M 331 488 L 331 158 M 346 472 L 346 158 L 331 158 M 331 488 L 457 488 L 504 472 L 520 457 L 536 425 L 536 378 L 520 346 L 504 331 L 457 315 L 346 315 M 346 472 L 457 472 L 504 457 L 520 425 L 520 378 L 504 346 L 457 331 L 346 331 M 425 315 L 520 158 L 536 158 M 441 315 L 536 158" />
<glyph unicode="&#xb0;" glyph-name="degree" horiz-adv-x="249" d="M 236 765 L 208 756 L 189 737 L 180 718 L 170 680 L 170 652 L 180 614 L 189 595 L 208 576 L 236 567 L 255 567 L 284 576 L 302 595 L 312 614 L 321 652 L 321 680 L 312 718 L 302 737 L 284 756 L 255 765 L 236 765 M 236 765 L 217 756 L 198 737 L 189 718 L 180 680 L 180 652 L 189 614 L 198 595 L 217 576 L 236 567 M 255 567 L 274 576 L 293 595 L 302 614 L 312 652 L 312 680 L 302 718 L 293 737 L 274 756 L 255 765" />
<glyph unicode="&#xb1;" glyph-name="plusminus" horiz-adv-x="655" d="M 605 37.8 L 1058.4 37.8 M 832 643 L 832 189 M 605 416 L 1058.4 416" />
<glyph unicode="&#xb2;" glyph-name="twosuperior" horiz-adv-x="315" d="M 220 898 L 236 882 L 220 866 L 205 882 L 205 898 L 220 929 L 236 945 L 284 961 L 346 961 L 394 945 L 410 929 L 425 898 L 425 866 L 410 835 L 362 803 L 284 772 L 252 756 L 220 724 L 205 677 L 205 630 M 346 961 L 378 945 L 394 929 L 410 898 L 410 866 L 394 835 L 346 803 L 284 772 M 205 662 L 220 677 L 252 677 L 331 646 L 378 646 L 410 662 L 425 677 M 252 677 L 331 630 L 394 630 L 410 646 L 425 677 L 425 709" />
<glyph unicode="&#xb3;" glyph-name="threesuperior" horiz-adv-x="315" d="M 220 898 L 236 882 L 220 866 L 205 882 L 205 898 L 220 929 L 236 945 L 284 961 L 346 961 L 394 945 L 410 914 L 410 866 L 394 835 L 346 819 L 299 819 M 346 961 L 378 945 L 394 914 L 394 866 L 378 835 L 346 819 M 346 819 L 378 803 L 410 772 L 425 740 L 425 693 L 410 662 L 394 646 L 346 630 L 284 630 L 236 646 L 220 662 L 205 693 L 205 709 L 220 724 L 236 709 L 220 693 M 394 788 L 410 740 L 410 693 L 394 662 L 378 646 L 346 630" />
<glyph unicode="&#xb4;" glyph-name="acute" horiz-adv-x="378" d=" M 410 788 L 252 598 M 410 788 L 441 756 L 252 598" />
<glyph unicode="&#xb7;" glyph-name="middot" horiz-adv-x="302" d="M 302 378 L 265 340 L 302 302 L 340 340 L 302 378" />
<glyph unicode="&#xb9;" glyph-name="onesuperior" horiz-adv-x="315" d="M 252 898 L 284 914 L 331 961 L 331 630 M 315 945 L 315 630 M 252 630 L 394 630" />
<glyph unicode="&#xba;" glyph-name="ordmasculine" horiz-adv-x="249" d="M 236 765 L 208 756 L 189 737 L 180 718 L 170 680 L 170 652 L 180 614 L 189 595 L 208 576 L 236 567 L 255 567 L 284 576 L 302 595 L 312 614 L 321 652 L 321 680 L 312 718 L 302 737 L 284 756 L 255 765 L 236 765 M 236 765 L 217 756 L 198 737 L 189 718 L 180 680 L 180 652 L 189 614 L 198 595 L 217 576 L 236 567 M 255 567 L 274 576 L 293 595 L 302 614 L 312 652 L 312 680 L 302 718 L 293 737 L 274 756 L 255 765" />
<glyph unicode="&#xbb;" glyph-name="guillemotright" horiz-adv-x="454" d="M 75.6 454 L 277 227 L 75.6 0 M 202 454 L 403 227 L 202 0" />
<glyph unicode="&#xbc;" glyph-name="onequarter" horiz-adv-x="680" d="M 151 699 L 189 718 L 246 775 L 246 378 M 227 756 L 227 378 M 151 378 L 321 378 M 724 788 L 158 -220 M 737 340 L 737 -18.9 M 756 378 L 756 -18.9 M 756 378 L 548 94.5 L 850 94.5 M 680 -18.9 L 813 -18.9" />
<glyph unicode="&#xbd;" glyph-name="onehalf" horiz-adv-x="680" d="M 151 699 L 189 718 L 246 775 L 246 378 M 227 756 L 227 378 M 151 378 L 321 378 M 724 788 L 158 -220 M 586 302 L 605 284 L 586 265 L 567 284 L 567 302 L 586 340 L 605 359 L 662 378 L 737 378 L 794 359 L 813 340 L 832 302 L 832 265 L 813 227 L 756 189 L 662 151 L 624 132 L 586 94.5 L 567 37.8 L 567 -18.9 M 737 378 L 775 359 L 794 340 L 813 302 L 813 265 L 794 227 L 737 189 L 662 151 M 567 18.9 L 586 37.8 L 624 37.8 L 718 0 L 775 0 L 813 18.9 L 832 37.8 M 624 37.8 L 718 -18.9 L 794 -18.9 L 813 0 L 832 37.8 L 832 75.6" />
<glyph unicode="&#xbe;" glyph-name="threequarters" horiz-adv-x="680" d="M 113 699 L 132 680 L 113 662 L 94.5 680 L 94.5 699 L 113 737 L 132 756 L 189 775 L 265 775 L 321 756 L 340 718 L 340 662 L 321 624 L 265 605 L 208 605 M 265 775 L 302 756 L 321 718 L 321 662 L 302 624 L 265 605 M 265 605 L 302 586 L 340 548 L 359 510 L 359 454 L 340 416 L 321 397 L 265 378 L 189 378 L 132 397 L 113 416 L 94.5 454 L 94.5 472 L 113 491 L 132 472 L 113 454 M 321 567 L 340 510 L 340 454 L 321 416 L 302 397 L 265 378 M 724 788 L 158 -220 M 737 340 L 737 -18.9 M 756 378 L 756 -18.9 M 756 378 L 548 94.5 L 850 94.5 M 680 -18.9 L 813 -18.9" />
<glyph unicode="&#xbf;" glyph-name="questiondown" horiz-adv-x="567" d="M 504 126 L 472 158 L 504 189 L 536 158 L 536 126 L 504 63 L 472 31.5 L 410 0 L 315 0 L 220 31.5 L 189 63 L 158 126 L 158 189 L 189 252 L 220 284 L 346 346 L 346 441 M 315 0 L 252 31.5 L 220 63 L 189 126 L 189 189 L 220 252 L 284 315 M 346 598 L 378 630 L 346 662 L 315 630 L 346 598" />
<glyph unicode="&#xc0;" glyph-name="Agrave" horiz-adv-x="630" d="M 378 662 L 158 0 M 378 662 L 598 0 M 378 567 L 567 0 M 220 189 L 504 189 M 94.5 0 L 284 0 M 472 0 L 662 0 M 252 1039.5 L 410 850 M 252 1039.5 L 220 1008.0 L 410 850" />
<glyph unicode="&#xc1;" glyph-name="Aacute" horiz-adv-x="630" d="M 378 662 L 158 0 M 378 662 L 598 0 M 378 567 L 567 0 M 220 189 L 504 189 M 94.5 0 L 284 0 M 472 0 L 662 0 M 693 1071.0 L 536 882 M 693 1071.0 L 724 1039.5 L 536 882" />
<glyph unicode="&#xc2;" glyph-name="Acircumflex" horiz-adv-x="630" d="M 378 662 L 158 0 M 378 662 L 598 0 M 378 567 L 567 0 M 220 189 L 504 189 M 94.5 0 L 284 0 M 472 0 L 662 0 M 268 788 L 394 866 L 520 788 M 268 788 L 394 850 L 520 788" />
<glyph unicode="&#xc3;" glyph-name="Atilde" horiz-adv-x="630" d="M 378 662 L 158 0 M 378 662 L 598 0 M 378 567 L 567 0 M 220 189 L 504 189 M 94.5 0 L 284 0 M 472 0 L 662 0 M 220 813 L 220 850 L 239 907 L 277 926 L 315 926 L 353 907 L 428 850 L 466 832 L 504 832 L 542 850 L 561 888 M 220 850 L 239 888 L 277 907 L 315 907 L 353 888 L 428 832 L 466 813 L 504 813 L 542 832 L 561 888 L 561 926" />
<glyph unicode="&#xc4;" glyph-name="Adieresis" horiz-adv-x="630" d="M 378 662 L 158 0 M 378 662 L 598 0 M 378 567 L 567 0 M 220 189 L 504 189 M 94.5 0 L 284 0 M 472 0 L 662 0 M 279 945 L 247 914 L 279 882 L 310 914 L 279 945 M 540 945 L 509 914 L 540 882 L 572 914 L 540 945" />
<glyph unicode="&#xc5;" glyph-name="Aring" horiz-adv-x="630" d="M 378 662 L 158 0 M 378 662 L 598 0 M 378 567 L 567 0 M 220 189 L 504 189 M 94.5 0 L 284 0 M 472 0 L 662 0 M 350 1048.9 L 321 1039.5 L 302 1020.6 L 293 1001.7 L 284 964 L 284 936 L 293 898 L 302 879 L 321 860 L 350 850 L 369 850 L 397 860 L 416 879 L 425 898 L 435 936 L 435 964 L 425 1001.7 L 416 1020.6 L 397 1039.5 L 369 1048.9 L 350 1048.9 M 350 1048.9 L 331 1039.5 L 312 1020.6 L 302 1001.7 L 293 964 L 293 936 L 302 898 L 312 879 L 331 860 L 350 850 M 369 850 L 387 860 L 406 879 L 416 898 L 425 936 L 425 964 L 416 1001.7 L 406 1020.6 L 387 1039.5 L 369 1048.9" />
<glyph unicode="&#xc8;" glyph-name="Egrave" horiz-adv-x="662" d="M 220 662 L 220 0 M 252 662 L 252 0 M 441 472 L 441 220 M 126 662 L 630 662 L 630 472 L 598 662 M 252 346 L 441 346 M 126 0 L 630 0 L 630 189 L 598 0 M 268 1039.5 L 425 850 M 268 1039.5 L 236 1008.0 L 425 850" />
<glyph unicode="&#xc9;" glyph-name="Eacute" horiz-adv-x="662" d="M 220 662 L 220 0 M 252 662 L 252 0 M 441 472 L 441 220 M 126 662 L 630 662 L 630 472 L 598 662 M 252 346 L 441 346 M 126 0 L 630 0 L 630 189 L 598 0 M 646 1071.0 L 488 882 M 646 1071.0 L 677 1039.5 L 488 882" />
<glyph unicode="&#xca;" glyph-name="Ecircumflex" horiz-adv-x="662" d="M 220 662 L 220 0 M 252 662 L 252 0 M 441 472 L 441 220 M 126 662 L 630 662 L 630 472 L 598 662 M 252 346 L 441 346 M 126 0 L 630 0 L 630 189 L 598 0 M 276 788 L 402 866 L 528 788 M 276 788 L 402 850 L 528 788" />
<glyph unicode="&#xcb;" glyph-name="Edieresis" horiz-adv-x="662" d="M 220 662 L 220 0 M 252 662 L 252 0 M 441 472 L 441 220 M 126 662 L 630 662 L 630 472 L 598 662 M 252 346 L 441 346 M 126 0 L 630 0 L 630 189 L 598 0 M 292 945 L 260 914 L 292 882 L 323 914 L 292 945 M 559 945 L 527 914 L 559 882 L 590 914 L 559 945" />
<glyph unicode="&#xcc;" glyph-name="Igrave" horiz-adv-x="346" d="M 220 662 L 220 0 M 252 662 L 252 0 M 126 662 L 346 662 M 126 0 L 346 0 M 110 1039.5 L 268 850 M 110 1039.5 L 78.8 1008.0 L 268 850" />
<glyph unicode="&#xcd;" glyph-name="Iacute" horiz-adv-x="346" d="M 220 662 L 220 0 M 252 662 L 252 0 M 126 662 L 346 662 M 126 0 L 346 0 M 488 1071.0 L 331 882 M 488 1071.0 L 520 1039.5 L 331 882" />
<glyph unicode="&#xce;" glyph-name="Icircumflex" horiz-adv-x="346" d="M 220 662 L 220 0 M 252 662 L 252 0 M 126 662 L 346 662 M 126 0 L 346 0 M 118 788 L 244 866 L 370 788 M 118 788 L 244 850 L 370 788" />
<glyph unicode="&#xcf;" glyph-name="Idieresis" horiz-adv-x="346" d="M 220 662 L 220 0 M 252 662 L 252 0 M 126 662 L 346 662 M 126 0 L 346 0 M 142 945 L 110 914 L 142 882 L 173 914 L 142 945 M 394 945 L 362 914 L 394 882 L 425 914 L 394 945" />
<glyph unicode="&#xd0;" glyph-name="Eth" horiz-adv-x="693" d="M 94.5 252 L 378 252 M 220 662 L 220 0 M 252 662 L 252 0 M 126 662 L 441 662 L 536 630 L 598 567 L 630 504 L 662 410 L 662 252 L 630 158 L 598 94.5 L 536 31.5 L 441 0 L 126 0 M 441 662 L 504 630 L 567 567 L 598 504 L 630 410 L 630 252 L 598 158 L 567 94.5 L 504 31.5 L 441 0" />
<glyph unicode="&#xd1;" glyph-name="Ntilde" horiz-adv-x="724" d="M 220 662 L 220 0 M 252 662 L 630 63 M 252 598 L 630 0 M 630 662 L 630 0 M 126 662 L 252 662 M 536 662 L 724 662 M 126 0 L 315 0 M 239 813 L 239 850 L 258 907 L 296 926 L 334 926 L 372 907 L 447 850 L 485 832 L 523 832 L 561 850 L 580 888 M 239 850 L 258 888 L 296 907 L 334 907 L 372 888 L 447 832 L 485 813 L 523 813 L 561 832 L 580 888 L 580 926" />
<glyph unicode="&#xd2;" glyph-name="Ograve" horiz-adv-x="693" d="M 378 662 L 284 630 L 220 567 L 189 504 L 158 378 L 158 284 L 189 158 L 220 94.5 L 284 31.5 L 378 0 L 441 0 L 536 31.5 L 598 94.5 L 630 158 L 662 284 L 662 378 L 630 504 L 598 567 L 536 630 L 441 662 L 378 662 M 378 662 L 315 630 L 252 567 L 220 504 L 189 378 L 189 284 L 220 158 L 252 94.5 L 315 31.5 L 378 0 M 441 0 L 504 31.5 L 567 94.5 L 598 158 L 630 284 L 630 378 L 598 504 L 567 567 L 504 630 L 441 662 M 284 1039.5 L 441 850 M 284 1039.5 L 252 1008.0 L 441 850" />
<glyph unicode="&#xd3;" glyph-name="Oacute" horiz-adv-x="693" d="M 378 662 L 284 630 L 220 567 L 189 504 L 158 378 L 158 284 L 189 158 L 220 94.5 L 284 31.5 L 378 0 L 441 0 L 536 31.5 L 598 94.5 L 630 158 L 662 284 L 662 378 L 630 504 L 598 567 L 536 630 L 441 662 L 378 662 M 378 662 L 315 630 L 252 567 L 220 504 L 189 378 L 189 284 L 220 158 L 252 94.5 L 315 31.5 L 378 0 M 441 0 L 504 31.5 L 567 94.5 L 598 158 L 630 284 L 630 378 L 598 504 L 567 567 L 504 630 L 441 662 M 662 1071.0 L 504 882 M 662 1071.0 L 693 1039.5 L 504 882" />
<glyph unicode="&#xd4;" glyph-name="Ocircumflex" horiz-adv-x="693" d="M 378 662 L 284 630 L 220 567 L 189 504 L 158 378 L 158 284 L 189 158 L 220 94.5 L 284 31.5 L 378 0 L 441 0 L 536 31.5 L 598 94.5 L 630 158 L 662 284 L 662 378 L 630 504 L 598 567 L 536 630 L 441 662 L 378 662 M 378 662 L 315 630 L 252 567 L 220 504 L 189 378 L 189 284 L 220 158 L 252 94.5 L 315 31.5 L 378 0 M 441 0 L 504 31.5 L 567 94.5 L 598 158 L 630 284 L 630 378 L 598 504 L 567 567 L 504 630 L 441 662 M 284 788 L 410 866 L 536 788 M 284 788 L 410 850 L 536 788" />
<glyph unicode="&#xd5;" glyph-name="Otilde" horiz-adv-x="693" d="M 378 662 L 284 630 L 220 567 L 189 504 L 158 378 L 158 284 L 189 158 L 220 94.5 L 284 31.5 L 378 0 L 441 0 L 536 31.5 L 598 94.5 L 630 158 L 662 284 L 662 378 L 630 504 L 598 567 L 536 630 L 441 662 L 378 662 M 378 662 L 315 630 L 252 567 L 220 504 L 189 378 L 189 284 L 220 158 L 252 94.5 L 315 31.5 L 378 0 M 441 0 L 504 31.5 L 567 94.5 L 598 158 L 630 284 L 630 378 L 598 504 L 567 567 L 504 630 L 441 662 M 233 813 L 233 850 L 252 907 L 290 926 L 328 926 L 365 907 L 441 850 L 479 832 L 517 832 L 554 850 L 573 888 M 233 850 L 252 888 L 290 907 L 328 907 L 365 888 L 441 832 L 479 813 L 517 813 L 554 832 L 573 888 L 573 926" />
<glyph unicode="&#xd6;" glyph-name="Odieresis" horiz-adv-x="693" d="M 378 662 L 284 630 L 220 567 L 189 504 L 158 378 L 158 284 L 189 158 L 220 94.5 L 284 31.5 L 378 0 L 441 0 L 536 31.5 L 598 94.5 L 630 158 L 662 284 L 662 378 L 630 504 L 598 567 L 536 630 L 441 662 L 378 662 M 378 662 L 315 630 L 252 567 L 220 504 L 189 378 L 189 284 L 220 158 L 252 94.5 L 315 31.5 L 378 0 M 441 0 L 504 31.5 L 567 94.5 L 598 158 L 630 284 L 630 378 L 598 504 L 567 567 L 504 630 L 441 662 M 321 945 L 290 914 L 321 882 L 353 914 L 321 945 M 561 945 L 529 914 L 561 882 L 592 914 L 561 945" />
<glyph unicode="&#xd7;" glyph-name="multiply" horiz-adv-x="567" d="M 189 441 L 536 0 L 567 0 M 189 441 L 220 441 L 567 0 M 567 441 L 536 441 L 189 0 M 567 441 L 220 0 L 189 0" />
<glyph unicode="&#xd8;" glyph-name="Oslash" horiz-adv-x="693" d="M 378 662 L 284 630 L 220 567 L 189 504 L 158 378 L 158 284 L 189 158 L 220 94.5 L 284 31.5 L 378 0 L 441 0 L 536 31.5 L 598 94.5 L 630 158 L 662 284 L 662 378 L 630 504 L 598 567 L 536 630 L 441 662 L 378 662 M 378 662 L 315 630 L 252 567 L 220 504 L 189 378 L 189 284 L 220 158 L 252 94.5 L 315 31.5 L 378 0 M 441 0 L 504 31.5 L 567 94.5 L 598 158 L 630 284 L 630 378 L 598 504 L 567 567 L 504 630 L 441 662 M 652 737 L 142 -170" />
<glyph unicode="&#xd9;" glyph-name="Ugrave" horiz-adv-x="756" d="M 220 662 L 220 189 L 252 94.5 L 315 31.5 L 410 0 L 472 0 L 567 31.5 L 630 94.5 L 662 189 L 662 662 M 252 662 L 252 189 L 284 94.5 L 346 31.5 L 410 0 M 126 662 L 346 662 M 567 662 L 756 662 M 315 1039.5 L 472 850 M 315 1039.5 L 284 1008.0 L 472 850" />
<glyph unicode="&#xda;" glyph-name="Uacute" horiz-adv-x="756" d="M 220 662 L 220 189 L 252 94.5 L 315 31.5 L 410 0 L 472 0 L 567 31.5 L 630 94.5 L 662 189 L 662 662 M 252 662 L 252 189 L 284 94.5 L 346 31.5 L 410 0 M 126 662 L 346 662 M 567 662 L 756 662 M 693 1071.0 L 536 882 M 693 1071.0 L 724 1039.5 L 536 882" />
<glyph unicode="&#xdb;" glyph-name="Ucircumflex" horiz-adv-x="756" d="M 220 662 L 220 189 L 252 94.5 L 315 31.5 L 410 0 L 472 0 L 567 31.5 L 630 94.5 L 662 189 L 662 662 M 252 662 L 252 189 L 284 94.5 L 346 31.5 L 410 0 M 126 662 L 346 662 M 567 662 L 756 662 M 299 788 L 425 866 L 551 788 M 299 788 L 425 850 L 551 788" />
<glyph unicode="&#xdc;" glyph-name="Udieresis" horiz-adv-x="756" d="M 220 662 L 220 189 L 252 94.5 L 315 31.5 L 410 0 L 472 0 L 567 31.5 L 630 94.5 L 662 189 L 662 662 M 252 662 L 252 189 L 284 94.5 L 346 31.5 L 410 0 M 126 662 L 346 662 M 567 662 L 756 662 M 346 945 L 315 914 L 346 882 L 378 914 L 346 945 M 599 945 L 567 914 L 599 882 L 630 914 L 599 945" />
<glyph unicode="&#xdd;" glyph-name="Yacute" horiz-adv-x="662" d="M 158 662 L 378 315 L 378 0 M 189 662 L 410 315 L 410 0 M 630 662 L 410 315 M 94.5 662 L 284 662 M 504 662 L 693 662 M 284 0 L 504 0 M 646 1071.0 L 488 882 M 646 1071.0 L 677 1039.5 L 488 882" />
<glyph unicode="&#xe0;" glyph-name="agrave" horiz-adv-x="630" d="M 220 378 L 220 346 L 189 346 L 189 378 L 220 410 L 284 441 L 410 441 L 472 410 L 504 378 L 536 315 L 536 94.5 L 567 31.5 L 598 0 M 504 378 L 504 94.5 L 536 31.5 L 598 0 L 630 0 M 504 315 L 472 284 L 284 252 L 189 220 L 158 158 L 158 94.5 L 189 31.5 L 284 0 L 378 0 L 441 31.5 L 504 94.5 M 284 252 L 220 220 L 189 158 L 189 94.5 L 220 31.5 L 284 0 M 220 819 L 378 630 M 220 819 L 189 788 L 378 630" />
<glyph unicode="&#xe1;" glyph-name="aacute" horiz-adv-x="630" d="M 220 378 L 220 346 L 189 346 L 189 378 L 220 410 L 284 441 L 410 441 L 472 410 L 504 378 L 536 315 L 536 94.5 L 567 31.5 L 598 0 M 504 378 L 504 94.5 L 536 31.5 L 598 0 L 630 0 M 504 315 L 472 284 L 284 252 L 189 220 L 158 158 L 158 94.5 L 189 31.5 L 284 0 L 378 0 L 441 31.5 L 504 94.5 M 284 252 L 220 220 L 189 158 L 189 94.5 L 220 31.5 L 284 0 M 536 788 L 378 598 M 536 788 L 567 756 L 378 598" />
<glyph unicode="&#xe2;" glyph-name="acircumflex" horiz-adv-x="630" d="M 220 378 L 220 346 L 189 346 L 189 378 L 220 410 L 284 441 L 410 441 L 472 410 L 504 378 L 536 315 L 536 94.5 L 567 31.5 L 598 0 M 504 378 L 504 94.5 L 536 31.5 L 598 0 L 630 0 M 504 315 L 472 284 L 284 252 L 189 220 L 158 158 L 158 94.5 L 189 31.5 L 284 0 L 378 0 L 441 31.5 L 504 94.5 M 284 252 L 220 220 L 189 158 L 189 94.5 L 220 31.5 L 284 0 M 268 536 L 394 614 L 520 536 M 268 536 L 394 598 L 520 536" />
<glyph unicode="&#xe3;" glyph-name="atilde" horiz-adv-x="630" d="M 220 378 L 220 346 L 189 346 L 189 378 L 220 410 L 284 441 L 410 441 L 472 410 L 504 378 L 536 315 L 536 94.5 L 567 31.5 L 598 0 M 504 378 L 504 94.5 L 536 31.5 L 598 0 L 630 0 M 504 315 L 472 284 L 284 252 L 189 220 L 158 158 L 158 94.5 L 189 31.5 L 284 0 L 378 0 L 441 31.5 L 504 94.5 M 284 252 L 220 220 L 189 158 L 189 94.5 L 220 31.5 L 284 0 M 202 605 L 202 643 L 220 699 L 258 718 L 296 718 L 334 699 L 410 643 L 447 624 L 485 624 L 523 643 L 542 680 M 202 643 L 220 680 L 258 699 L 296 699 L 334 680 L 410 624 L 447 605 L 485 605 L 523 624 L 542 680 L 542 718" />
<glyph unicode="&#xe4;" glyph-name="adieresis" horiz-adv-x="630" d="M 220 378 L 220 346 L 189 346 L 189 378 L 220 410 L 284 441 L 410 441 L 472 410 L 504 378 L 536 315 L 536 94.5 L 567 31.5 L 598 0 M 504 378 L 504 94.5 L 536 31.5 L 598 0 L 630 0 M 504 315 L 472 284 L 284 252 L 189 220 L 158 158 L 158 94.5 L 189 31.5 L 284 0 L 378 0 L 441 31.5 L 504 94.5 M 284 252 L 220 220 L 189 158 L 189 94.5 L 220 31.5 L 284 0 M 287 724 L 256 693 L 287 662 L 319 693 L 287 724 M 532 724 L 500 693 L 532 662 L 563 693 L 532 724" />
<glyph unicode="&#xe5;" glyph-name="aring" horiz-adv-x="630" d="M 220 378 L 220 346 L 189 346 L 189 378 L 220 410 L 284 441 L 410 441 L 472 410 L 504 378 L 536 315 L 536 94.5 L 567 31.5 L 598 0 M 504 378 L 504 94.5 L 536 31.5 L 598 0 L 630 0 M 504 315 L 472 284 L 284 252 L 189 220 L 158 158 L 158 94.5 L 189 31.5 L 284 0 L 378 0 L 441 31.5 L 504 94.5 M 284 252 L 220 220 L 189 158 L 189 94.5 L 220 31.5 L 284 0 M 331 860 L 302 850 L 284 832 L 274 813 L 265 775 L 265 747 L 274 709 L 284 690 L 302 671 L 331 662 L 350 662 L 378 671 L 397 690 L 406 709 L 416 747 L 416 775 L 406 813 L 397 832 L 378 850 L 350 860 L 331 860 M 331 860 L 312 850 L 293 832 L 284 813 L 274 775 L 274 747 L 284 709 L 293 690 L 312 671 L 331 662 M 350 662 L 369 671 L 387 690 L 397 709 L 406 747 L 406 775 L 397 813 L 387 832 L 369 850 L 350 860" />
<glyph unicode="&#xe8;" glyph-name="egrave" horiz-adv-x="598" d="M 189 252 L 567 252 L 567 315 L 536 378 L 504 410 L 441 441 L 346 441 L 252 410 L 189 346 L 158 252 L 158 189 L 189 94.5 L 252 31.5 L 346 0 L 410 0 L 504 31.5 L 567 94.5 M 536 252 L 536 346 L 504 410 M 346 441 L 284 410 L 220 346 L 189 252 L 189 189 L 220 94.5 L 284 31.5 L 346 0 M 205 819 L 362 630 M 205 819 L 173 788 L 362 630" />
<glyph unicode="&#xe9;" glyph-name="eacute" horiz-adv-x="598" d="M 189 252 L 567 252 L 567 315 L 536 378 L 504 410 L 441 441 L 346 441 L 252 410 L 189 346 L 158 252 L 158 189 L 189 94.5 L 252 31.5 L 346 0 L 410 0 L 504 31.5 L 567 94.5 M 536 252 L 536 346 L 504 410 M 346 441 L 284 410 L 220 346 L 189 252 L 189 189 L 220 94.5 L 284 31.5 L 346 0 M 520 788 L 362 598 M 520 788 L 551 756 L 362 598" />
<glyph unicode="&#xea;" glyph-name="ecircumflex" horiz-adv-x="598" d="M 189 252 L 567 252 L 567 315 L 536 378 L 504 410 L 441 441 L 346 441 L 252 410 L 189 346 L 158 252 L 158 189 L 189 94.5 L 252 31.5 L 346 0 L 410 0 L 504 31.5 L 567 94.5 M 536 252 L 536 346 L 504 410 M 346 441 L 284 410 L 220 346 L 189 252 L 189 189 L 220 94.5 L 284 31.5 L 346 0 M 260 536 L 386 614 L 512 536 M 260 536 L 386 598 L 512 536" />
<glyph unicode="&#xeb;" glyph-name="edieresis" horiz-adv-x="598" d="M 189 252 L 567 252 L 567 315 L 536 378 L 504 410 L 441 441 L 346 441 L 252 410 L 189 346 L 158 252 L 158 189 L 189 94.5 L 252 31.5 L 346 0 L 410 0 L 504 31.5 L 567 94.5 M 536 252 L 536 346 L 504 410 M 346 441 L 284 410 L 220 346 L 189 252 L 189 189 L 220 94.5 L 284 31.5 L 346 0 M 266 724 L 234 693 L 266 662 L 297 693 L 266 724 M 522 724 L 490 693 L 522 662 L 553 693 L 522 724" />
<glyph unicode="&#xec;" glyph-name="igrave" horiz-adv-x="346" d="M 220 441 L 220 0 M 252 441 L 252 0 M 126 441 L 252 441 M 126 0 L 346 0 M 78.8 819 L 236 630 M 78.8 819 L 47.2 788 L 236 630" />
<glyph unicode="&#xed;" glyph-name="iacute" horiz-adv-x="346" d="M 220 441 L 220 0 M 252 441 L 252 0 M 126 441 L 252 441 M 126 0 L 346 0 M 394 788 L 236 598 M 394 788 L 425 756 L 236 598" />
<glyph unicode="&#xee;" glyph-name="icircumflex" horiz-adv-x="346" d="M 220 441 L 220 0 M 252 441 L 252 0 M 126 441 L 252 441 M 126 0 L 346 0 M 118 536 L 244 614 L 370 536 M 118 536 L 244 598 L 370 536" />
<glyph unicode="&#xef;" glyph-name="idieresis" horiz-adv-x="346" d="M 220 441 L 220 0 M 252 441 L 252 0 M 126 441 L 252 441 M 126 0 L 346 0 M 142 724 L 110 693 L 142 662 L 173 693 L 142 724 M 394 724 L 362 693 L 394 662 L 425 693 L 394 724" />
<glyph unicode="&#xf1;" glyph-name="ntilde" horiz-adv-x="693" d="M 220 441 L 220 0 M 252 441 L 252 0 M 252 346 L 315 410 L 410 441 L 472 441 L 567 410 L 598 346 L 598 0 M 472 441 L 536 410 L 567 346 L 567 0 M 126 441 L 252 441 M 126 0 L 346 0 M 472 0 L 693 0 M 214 605 L 214 643 L 233 699 L 271 718 L 309 718 L 346 699 L 422 643 L 460 624 L 498 624 L 535 643 L 554 680 M 214 643 L 233 680 L 271 699 L 309 699 L 346 680 L 422 624 L 460 605 L 498 605 L 535 624 L 554 680 L 554 718" />
<glyph unicode="&#xf2;" glyph-name="ograve" horiz-adv-x="630" d="M 346 441 L 252 410 L 189 346 L 158 252 L 158 189 L 189 94.5 L 252 31.5 L 346 0 L 410 0 L 504 31.5 L 567 94.5 L 598 189 L 598 252 L 567 346 L 504 410 L 410 441 L 346 441 M 346 441 L 284 410 L 220 346 L 189 252 L 189 189 L 220 94.5 L 284 31.5 L 346 0 M 410 0 L 472 31.5 L 536 94.5 L 567 189 L 567 252 L 536 346 L 472 410 L 410 441 M 220 819 L 378 630 M 220 819 L 189 788 L 378 630" />
<glyph unicode="&#xf3;" glyph-name="oacute" horiz-adv-x="630" d="M 346 441 L 252 410 L 189 346 L 158 252 L 158 189 L 189 94.5 L 252 31.5 L 346 0 L 410 0 L 504 31.5 L 567 94.5 L 598 189 L 598 252 L 567 346 L 504 410 L 410 441 L 346 441 M 346 441 L 284 410 L 220 346 L 189 252 L 189 189 L 220 94.5 L 284 31.5 L 346 0 M 410 0 L 472 31.5 L 536 94.5 L 567 189 L 567 252 L 536 346 L 472 410 L 410 441 M 536 788 L 378 598 M 536 788 L 567 756 L 378 598" />
<glyph unicode="&#xf4;" glyph-name="ocircumflex" horiz-adv-x="630" d="M 346 441 L 252 410 L 189 346 L 158 252 L 158 189 L 189 94.5 L 252 31.5 L 346 0 L 410 0 L 504 31.5 L 567 94.5 L 598 189 L 598 252 L 567 346 L 504 410 L 410 441 L 346 441 M 346 441 L 284 410 L 220 346 L 189 252 L 189 189 L 220 94.5 L 284 31.5 L 346 0 M 410 0 L 472 31.5 L 536 94.5 L 567 189 L 567 252 L 536 346 L 472 410 L 410 441 M 268 536 L 394 614 L 520 536 M 268 536 L 394 598 L 520 536" />
<glyph unicode="&#xf5;" glyph-name="otilde" horiz-adv-x="630" d="M 346 441 L 252 410 L 189 346 L 158 252 L 158 189 L 189 94.5 L 252 31.5 L 346 0 L 410 0 L 504 31.5 L 567 94.5 L 598 189 L 598 252 L 567 346 L 504 410 L 410 441 L 346 441 M 346 441 L 284 410 L 220 346 L 189 252 L 189 189 L 220 94.5 L 284 31.5 L 346 0 M 410 0 L 472 31.5 L 536 94.5 L 567 189 L 567 252 L 536 346 L 472 410 L 410 441 M 202 605 L 202 643 L 220 699 L 258 718 L 296 718 L 334 699 L 410 643 L 447 624 L 485 624 L 523 643 L 542 680 M 202 643 L 220 680 L 258 699 L 296 699 L 334 680 L 410 624 L 447 605 L 485 605 L 523 624 L 542 680 L 542 718" />
<glyph unicode="&#xf6;" glyph-name="odieresis" horiz-adv-x="630" d="M 346 441 L 252 410 L 189 346 L 158 252 L 158 189 L 189 94.5 L 252 31.5 L 346 0 L 410 0 L 504 31.5 L 567 94.5 L 598 189 L 598 252 L 567 346 L 504 410 L 410 441 L 346 441 M 346 441 L 284 410 L 220 346 L 189 252 L 189 189 L 220 94.5 L 284 31.5 L 346 0 M 410 0 L 472 31.5 L 536 94.5 L 567 189 L 567 252 L 536 346 L 472 410 L 410 441 M 277 724 L 246 693 L 277 662 L 309 693 L 277 724 M 542 724 L 510 693 L 542 662 L 573 693 L 542 724" />
<glyph unicode="&#xf7;" glyph-name="divide" horiz-adv-x="614" d="M 346 567 L 315 536 L 346 504 L 378 536 L 346 567 M 346 252 L 315 220 L 346 189 L 378 220 L 346 252 M 142 378 L 567 378" />
<glyph unicode="&#xf8;" glyph-name="oslash" horiz-adv-x="630" d="M 346 441 L 252 410 L 189 346 L 158 252 L 158 189 L 189 94.5 L 252 31.5 L 346 0 L 410 0 L 504 31.5 L 567 94.5 L 598 189 L 598 252 L 567 346 L 504 410 L 410 441 L 346 441 M 346 441 L 284 410 L 220 346 L 189 252 L 189 189 L 220 94.5 L 284 31.5 L 346 0 M 410 0 L 472 31.5 L 536 94.5 L 567 189 L 567 252 L 536 346 L 472 410 L 410 441 M 551 551 L 154 -154" />
<glyph unicode="&#xf9;" glyph-name="ugrave" horiz-adv-x="693" d="M 220 441 L 220 94.5 L 252 31.5 L 346 0 L 410 0 L 504 31.5 L 567 94.5 M 252 441 L 252 94.5 L 284 31.5 L 346 0 M 567 441 L 567 0 M 598 441 L 598 0 M 126 441 L 252 441 M 472 441 L 598 441 M 567 0 L 693 0 M 252 819 L 410 630 M 252 819 L 220 788 L 410 630" />
<glyph unicode="&#xfa;" glyph-name="uacute" horiz-adv-x="693" d="M 220 441 L 220 94.5 L 252 31.5 L 346 0 L 410 0 L 504 31.5 L 567 94.5 M 252 441 L 252 94.5 L 284 31.5 L 346 0 M 567 441 L 567 0 M 598 441 L 598 0 M 126 441 L 252 441 M 472 441 L 598 441 M 567 0 L 693 0 M 567 788 L 410 598 M 567 788 L 598 756 L 410 598" />
<glyph unicode="&#xfb;" glyph-name="ucircumflex" horiz-adv-x="693" d="M 220 441 L 220 94.5 L 252 31.5 L 346 0 L 410 0 L 504 31.5 L 567 94.5 M 252 441 L 252 94.5 L 284 31.5 L 346 0 M 567 441 L 567 0 M 598 441 L 598 0 M 126 441 L 252 441 M 472 441 L 598 441 M 567 0 L 693 0 M 284 536 L 410 614 L 536 536 M 284 536 L 410 598 L 536 536" />
<glyph unicode="&#xfc;" glyph-name="udieresis" horiz-adv-x="693" d="M 220 441 L 220 94.5 L 252 31.5 L 346 0 L 410 0 L 504 31.5 L 567 94.5 M 252 441 L 252 94.5 L 284 31.5 L 346 0 M 567 441 L 567 0 M 598 441 L 598 0 M 126 441 L 252 441 M 472 441 L 598 441 M 567 0 L 693 0 M 321 724 L 290 693 L 321 662 L 353 693 L 321 724 M 561 724 L 529 693 L 561 662 L 592 693 L 561 724" />
<glyph unicode="&#xfd;" glyph-name="yacute" horiz-adv-x="598" d="M 189 441 L 378 0 M 220 441 L 378 63 M 567 441 L 378 0 L 315 -126 L 252 -189 L 189 -220 L 158 -220 L 126 -189 L 158 -158 L 189 -189 M 126 441 L 315 441 M 441 441 L 630 441 M 520 788 L 362 598 M 520 788 L 551 756 L 362 598" />
<glyph unicode="&#xff;" glyph-name="ydieresis" horiz-adv-x="598" d="M 189 441 L 378 0 M 220 441 L 378 63 M 567 441 L 378 0 L 315 -126 L 252 -189 L 189 -220 L 158 -220 L 126 -189 L 158 -158 L 189 -189 M 126 441 L 315 441 M 441 441 L 630 441 M 269 724 L 238 693 L 269 662 L 301 693 L 269 724 M 518 724 L 487 693 L 518 662 L 550 693 L 518 724" />
<glyph unicode="&#x2013;" glyph-name="endash" horiz-adv-x="614" d="M 142 284 L 567 284" />
<glyph unicode="&#x2014;" glyph-name="emdash" horiz-adv-x="819" d="M 189 284 L 756 284" />
<glyph unicode="&#x201c;" glyph-name="quotedblleft" horiz-adv-x="472" d="M 198 709 L 269 539 M 198 709 L 184 680 L 269 539 M 340 709 L 411 539 M 340 709 L 326 680 L 411 539" />
<glyph unicode="&#x201d;" glyph-name="quotedblright" horiz-adv-x="472" d="M 170 652 L 99.2 482 M 170 652 L 184 624 L 99.2 482 M 312 652 L 241 482 M 312 652 L 326 624 L 241 482" />
<glyph unicode="&#x2039;" glyph-name="guilsinglleft" horiz-adv-x="302" d="M 277 454 L 75.6 227 L 277 0" />
<glyph unicode="&#x203a;" glyph-name="guilsinglright" horiz-adv-x="302" d="M 75.6 454 L 277 227 L 75.6 0" />
<glyph unicode="&#x20ac;" glyph-name="Euro" horiz-adv-x="662" d="M 598 567 L 630 472 L 630 662 L 598 567 L 536 630 L 441 662 L 378 662 L 284 630 L 220 567 L 189 504 L 158 410 L 158 252 L 189 158 L 220 94.5 L 284 31.5 L 378 0 L 441 0 L 536 31.5 L 598 94.5 L 630 158 M 378 662 L 315 630 L 252 567 L 220 504 L 189 410 L 189 252 L 220 158 L 252 94.5 L 315 31.5 L 378 0 M 94.5 227 L 435 227 M 94.5 302 L 435 302" />
<glyph unicode="&#x0178;" glyph-name="Ydieresis" horiz-adv-x="662" d="M 158 662 L 378 315 L 378 0 M 189 662 L 410 315 L 410 0 M 630 662 L 410 315 M 94.5 662 L 284 662 M 504 662 L 693 662 M 284 0 L 504 0 M 295 945 L 263 914 L 295 882 L 326 914 L 295 945 M 556 945 L 524 914 L 556 882 L 587 914 L 556 945" />
<glyph unicode="&#x102;" glyph-name="Abreve" horiz-adv-x="630" d="M 378 662 L 158 0 M 378 662 L 598 0 M 378 567 L 567 0 M 220 189 L 504 189 M 94.5 0 L 284 0 M 472 0 L 662 0 M213.892 986.229C213.892 986.229 321.49 880 391.281 880C461.071 880 568.669 986.229 568.669 986.229M213.892 986.229C213.892 986.229 325.172 901.515 391.281 901.515C457.39 901.515 568.669 986.229 568.669 986.229" />
<glyph unicode="&#x114;" glyph-name="Ebreve" horiz-adv-x="662" d="M 220 662 L 220 0 M 252 662 L 252 0 M 441 472 L 441 220 M 126 662 L 630 662 L 630 472 L 598 662 M 252 346 L 441 346 M 126 0 L 630 0 L 630 189 L 598 0 M223.892 986.229C223.892 986.229 331.49 880 401.281 880C471.071 880 578.669 986.229 578.669 986.229M223.892 986.229C223.892 986.229 335.172 901.515 401.281 901.515C467.39 901.515 578.669 986.229 578.669 986.229" />
<glyph unicode="&#x11E;" glyph-name="Gbreve" horiz-adv-x="724" d="M 598 567 L 630 472 L 630 662 L 598 567 L 536 630 L 441 662 L 378 662 L 284 630 L 220 567 L 189 504 L 158 410 L 158 252 L 189 158 L 220 94.5 L 284 31.5 L 378 0 L 441 0 L 536 31.5 L 598 94.5 M 378 662 L 315 630 L 252 567 L 220 504 L 189 410 L 189 252 L 220 158 L 252 94.5 L 315 31.5 L 378 0 M 598 252 L 598 0 M 630 252 L 630 0 M 504 252 L 724 252 M243.892 986.229C243.892 986.229 351.49 880 421.281 880C491.071 880 598.669 986.229 598.669 986.229M243.892 986.229C243.892 986.229 355.172 901.515 421.281 901.515C487.39 901.515 598.669 986.229 598.669 986.229" />
<glyph unicode="&#x12C;" glyph-name="Ibreve" horiz-adv-x="346" d="M 220 662 L 220 0 M 252 662 L 252 0 M 126 662 L 346 662 M 126 0 L 346 0 M123.892 986.229C123.892 986.229 231.49 880 301.281 880C371.071 880 478.669 986.229 478.669 986.229M123.892 986.229C123.892 986.229 235.172 901.515 301.281 901.515C367.39 901.515 478.669 986.229 478.669 986.229" />
<glyph unicode="&#x14E;" glyph-name="Obreve" horiz-adv-x="693" d="M 378 662 L 284 630 L 220 567 L 189 504 L 158 378 L 158 284 L 189 158 L 220 94.5 L 284 31.5 L 378 0 L 441 0 L 536 31.5 L 598 94.5 L 630 158 L 662 284 L 662 378 L 630 504 L 598 567 L 536 630 L 441 662 L 378 662 M 378 662 L 315 630 L 252 567 L 220 504 L 189 378 L 189 284 L 220 158 L 252 94.5 L 315 31.5 L 378 0 M 441 0 L 504 31.5 L 567 94.5 L 598 158 L 630 284 L 630 378 L 598 504 L 567 567 L 504 630 L 441 662 M233.892 986.229C233.892 986.229 341.49 880 411.281 880C481.071 880 588.669 986.229 588.669 986.229M233.892 986.229C233.892 986.229 345.172 901.515 411.281 901.515C477.39 901.515 588.669 986.229 588.669 986.229" />
<glyph unicode="&#x16C;" glyph-name="Ubreve" horiz-adv-x="756" d="M 220 662 L 220 189 L 252 94.5 L 315 31.5 L 410 0 L 472 0 L 567 31.5 L 630 94.5 L 662 189 L 662 662 M 252 662 L 252 189 L 284 94.5 L 346 31.5 L 410 0 M 126 662 L 346 662 M 567 662 L 756 662 M253.892 986.229C253.892 986.229 361.49 880 431.281 880C501.071 880 608.669 986.229 608.669 986.229M253.892 986.229C253.892 986.229 365.172 901.515 431.281 901.515C497.39 901.515 608.669 986.229 608.669 986.229" />
<glyph unicode="&#x103;" glyph-name="abreve" horiz-adv-x="630" d="M 220 378 L 220 346 L 189 346 L 189 378 L 220 410 L 284 441 L 410 441 L 472 410 L 504 378 L 536 315 L 536 94.5 L 567 31.5 L 598 0 M 504 378 L 504 94.5 L 536 31.5 L 598 0 L 630 0 M 504 315 L 472 284 L 284 252 L 189 220 L 158 158 L 158 94.5 L 189 31.5 L 284 0 L 378 0 L 441 31.5 L 504 94.5 M 284 252 L 220 220 L 189 158 L 189 94.5 L 220 31.5 L 284 0 M193.892 766.229C193.892 766.229 301.49 660 371.281 660C441.071 660 548.669 766.229 548.669 766.229M193.892 766.229C193.892 766.229 305.172 681.515 371.281 681.515C437.39 681.515 548.669 766.229 548.669 766.229" />
<glyph unicode="&#x115;" glyph-name="ebreve" horiz-adv-x="598" d="M 189 252 L 567 252 L 567 315 L 536 378 L 504 410 L 441 441 L 346 441 L 252 410 L 189 346 L 158 252 L 158 189 L 189 94.5 L 252 31.5 L 346 0 L 410 0 L 504 31.5 L 567 94.5 M 536 252 L 536 346 L 504 410 M 346 441 L 284 410 L 220 346 L 189 252 L 189 189 L 220 94.5 L 284 31.5 L 346 0 M183.892 766.229C183.892 766.229 291.49 660 361.281 660C431.071 660 538.669 766.229 538.669 766.229M183.892 766.229C183.892 766.229 295.172 681.515 361.281 681.515C427.39 681.515 538.669 766.229 538.669 766.229" />
<glyph unicode="&#x11F;" glyph-name="gbreve" horiz-adv-x="598" d="M 315 441 L 252 410 L 220 378 L 189 315 L 189 252 L 220 189 L 252 158 L 315 126 L 378 126 L 441 158 L 472 189 L 504 252 L 504 315 L 472 378 L 441 410 L 378 441 L 315 441 M 252 410 L 220 346 L 220 220 L 252 158 M 441 158 L 472 220 L 472 346 L 441 410 M 472 378 L 504 410 L 567 441 L 567 410 L 504 410 M 220 189 L 189 158 L 158 94.5 L 158 63 L 189 0 L 284 -31.5 L 441 -31.5 L 536 -63 L 567 -94.5 M 158 63 L 189 31.5 L 284 0 L 441 0 L 536 -31.5 L 567 -94.5 L 567 -126 L 536 -189 L 441 -220 L 252 -220 L 158 -189 L 126 -126 L 126 -94.5 L 158 -31.5 L 252 0 M183.892 766.229C183.892 766.229 291.49 660 361.281 660C431.071 660 538.669 766.229 538.669 766.229M183.892 766.229C183.892 766.229 295.172 681.515 361.281 681.515C427.39 681.515 538.669 766.229 538.669 766.229" />
<glyph unicode="&#x12D;" glyph-name="ibreve" horiz-adv-x="346" d="M 220 441 L 220 0 M 252 441 L 252 0 M 126 441 L 252 441 M 126 0 L 346 0 M103.892 766.229C103.892 766.229 211.49 660 281.281 660C351.071 660 458.669 766.229 458.669 766.229M103.892 766.229C103.892 766.229 215.172 681.515 281.281 681.515C347.39 681.515 458.669 766.229 458.669 766.229" />
<glyph unicode="&#x14F;" glyph-name="obreve" horiz-adv-x="630" d="M 346 441 L 252 410 L 189 346 L 158 252 L 158 189 L 189 94.5 L 252 31.5 L 346 0 L 410 0 L 504 31.5 L 567 94.5 L 598 189 L 598 252 L 567 346 L 504 410 L 410 441 L 346 441 M 346 441 L 284 410 L 220 346 L 189 252 L 189 189 L 220 94.5 L 284 31.5 L 346 0 M 410 0 L 472 31.5 L 536 94.5 L 567 189 L 567 252 L 536 346 L 472 410 L 410 441 M193.892 766.229C193.892 766.229 301.49 660 371.281 660C441.071 660 548.669 766.229 548.669 766.229M193.892 766.229C193.892 766.229 305.172 681.515 371.281 681.515C437.39 681.515 548.669 766.229 548.669 766.229" />
<glyph unicode="&#x16D;" glyph-name="ubreve" horiz-adv-x="693" d="M 220 441 L 220 94.5 L 252 31.5 L 346 0 L 410 0 L 504 31.5 L 567 94.5 M 252 441 L 252 94.5 L 284 31.5 L 346 0 M 567 441 L 567 0 M 598 441 L 598 0 M 126 441 L 252 441 M 472 441 L 598 441 M 567 0 L 693 0 M213.892 766.229C213.892 766.229 321.49 660 391.281 660C461.071 660 568.669 766.229 568.669 766.229M213.892 766.229C213.892 766.229 325.172 681.515 391.281 681.515C457.39 681.515 568.669 766.229 568.669 766.229" />
<glyph unicode="&#xb8;" glyph-name="cedilla" horiz-adv-x="662" d="M412 2.17261e-05C409.515 -16.8482 411.377 -33.4328 411.377 -33.4328C464.112 -63.4277 441.425 -171.551 304.04 -110.124C346.201 -109.974 394.004 -124.198 404.286 -97.1345C416.339 -60.4813 376.504 -51.2156 378 -0Z" />
<glyph unicode="&#x130;" glyph-name="Idotaccent" horiz-adv-x="346" d="M230.89 846.508L199.89 814.508L230.89 782.508L262.89 814.508L230.89 846.508M220 662L220 -0M252 662L252 -0M126 662L346 662M126 -0L346 -0" />
<glyph unicode="&#xe7;" glyph-name="ccedilla" horiz-adv-x="598" d="M401.121 -45.887C453.855 -75.8818 441.425 -171.551 304.04 -110.124C346.201 -109.974 394.004 -124.198 404.286 -97.1345C416.339 -60.4813 376.504 -51.2156 378 -2.21002e-05C385.583 -25.2365 390.955 -30.2641 401.121 -45.887ZM536 346L504 315L536 284L567 315L567 346L504 410L441 441L346 441L252 410L189 346L158 252L158 189L189 94.5L252 31.5L346 -0L410 -0L504 31.5L567 94.5M346 441L284 410L220 346L189 252L189 189L220 94.5L284 31.5L346 -0" />
<glyph unicode="&#x2D8;" glyph-name="breve" horiz-adv-x="693" d="M153.892 326.229C153.892 326.229 261.49 220 331.281 220C401.071 220 508.669 326.229 508.669 326.229M153.892 326.229C153.892 326.229 265.172 241.515 331.281 241.515C397.39 241.515 508.669 326.229 508.669 326.229" />
<glyph unicode="&#xC6;" glyph-name="AE" horiz-adv-x="1030.0" d="M578 662L578 -0M610 662L610 -0M799 472L799 220M484 662L988 662L988 472L956 662M610 346L799 346M484 -0L988 -0L988 189L956 -0M558 662L198 -0M300 189L578 189M134.5 -0L324 -0" />
<glyph unicode="&#xa3;" glyph-name="sterling" horiz-adv-x="567" d="M174.5 252L458 252M126 -0L598 -0L598 189L567 -0M220 -0L220 464.823C220 620.48 259.554 662 398.332 662L437.686 500.381L437.686 662.287L402.98 662.287M252 -0C252 -0 252 368.736 252 464.536C252 560.336 273.077 642.646 392.534 656.303" />
<glyph unicode="&#x15E;" glyph-name="Scedilla" horiz-adv-x="630" d="M412 -14C409.515 -30.8482 411.377 -47.4328 411.377 -47.4328C464.112 -77.4277 441.425 -185.551 304.04 -124.124C346.201 -123.974 394.004 -138.198 404.286 -111.135C416.339 -74.4813 376.504 -65.2156 378 -14M567 567L598 662L598 472L567 567L504 630L410 662L315 662L220 630L158 567L158 504L189 441L220 410L284 378L472 315L536 284L598 220M158 504L220 441L284 410L472 346L536 315L567 284L598 220L598 94.5L536 31.5L441 -0L346 -0L252 31.5L189 94.5L158 189L158 -0L189 94.5" />
<glyph unicode="&#xE6;" glyph-name="ae" horiz-adv-x="980" d="M535.401 252L913.401 252L913.401 315L882.401 378L850.401 410L787.401 441L692.401 441L598.401 410L527.175 336.86M882.401 252L882.401 346L850.401 410M692.401 441L630.401 410L566.401 346L535.401 252L535.401 189L566.401 94.5L630.401 31.5L692.401 4.00163e-05M913.401 94.5L850.401 31.5L756.401 4.00163e-05L692.401 4.00163e-05L598.401 31.5L538.143 89.9299L455.182 39.2403M220 378L220 346L189 346L189 378L220 410L284 441L410 441L472 410L504 378L536 315L536 94.5M504 378L504 94.5M504 315L472 284L284 252L189 220L158 158L158 94.5L189 31.5L284 -0L378 -0L441 31.5L504 94.5M284 252L220 220L189 158L189 94.5L220 31.5L284 -0" />
<glyph unicode="&#x131;" glyph-name="dotlessi" horiz-adv-x="346" d="M220 441L220 -0M252 441L252 -0M126 441L252 441M126 -0L346 -0" />
<glyph unicode="&#x15F;" glyph-name="scedilla" horiz-adv-x="536" d="M357.147 -10.2081C354.662 -27.0563 356.524 -43.6409 356.524 -43.6409C409.259 -73.6357 386.572 -181.759 249.187 -120.332C291.348 -120.182 339.151 -134.406 349.433 -107.343C361.486 -70.6894 321.651 -61.4237 323.147 -10.2081M472 378L504 441L504 315L472 378L441 410L378 441L252 441L189 410L158 378L158 315L189 284L252 252L410 189L472 158L504 126M158 346L189 315L252 284L410 220L472 189L504 158L504 63L472 31.5L410 -0L284 -0L220 31.5L189 63L158 126L158 -0L189 63" />
<glyph unicode="&#xdf;" glyph-name="germandbls" horiz-adv-x="693" d="M468 662L531 630L562 598L594 536L594 472L562 410L531 378L468 346M250.307 -0L126 -0M504 346L567 315L598 284L630 220L630 126L598 63L567 31.5L504 -0M464 346L504 346L598 315L630 284L662 220L662 126L630 63L598 31.5L504 -0L382.307 -0L382.307 109.687M468 346L562 378L594 410L626 472L626 536L594 598L562 630L468 662L415.957 662L378 662L284 630L252 598L220 536L220 447L220 -0M378 662L315 630L284 598L252 536L252 457L252 -0" />
<glyph unicode="&#xc7;" glyph-name="Ccedilla" horiz-adv-x="662" d="M412 2.17261e-05C409.515 -16.8482 411.377 -33.4328 411.377 -33.4328C464.112 -63.4277 441.425 -171.551 304.04 -110.124C346.201 -109.974 394.004 -124.198 404.286 -97.1345C416.339 -60.4813 376.504 -51.2156 378 -0ZM598 567L630 472L630 662L598 567L536 630L441 662L378 662L284 630L220 567L189 504L158 410L158 252L189 158L220 94.5L284 31.5L378 -0L441 -0L536 31.5L598 94.5L630 158M378 662L315 630L252 567L220 504L189 410L189 252L220 158L252 94.5L315 31.5L378 -0" />
</font>
</defs>
</svg>
