<?xml version="1.0" encoding="UTF-8" ?>
<!DOCTYPE svg PUBLIC "-//W3C//DTD SVG 1.1//EN" "http://www.w3.org/Graphics/SVG/1.1/DTD/svg11.dtd" >

<svg xmlns="http://www.w3.org/2000/svg" xmlns:xlink="http://www.w3.org/1999/xlink" version="1.1">

<metadata>
Font name:               EMS Readability Italic
License:                 SIL Open Font License http://scripts.sil.org/OFL
Created by:              Sheldon B. Michaels
SVG font conversion by:  Windell H. Oskay
A derivative of:         Source Sans Pro-Light
Designer:                Paul D. Hunt, Adobe
Link:                    http://www.adobe.com
Google font page:        https://fonts.google.com/specimen/Source+Sans+Pro
</metadata>
<defs>
<font id="EMSReadabilityItalic" horiz-adv-x="378" >
<font-face
font-family="EMS Readability Italic"
units-per-em="1000"
ascent="800"
descent="-200"
cap-height="500"
x-height="300"
/>
<missing-glyph horiz-adv-x="378" />
<glyph unicode=" " glyph-name="space" horiz-adv-x="378" />
<glyph unicode="!" glyph-name="exclam" horiz-adv-x="280" d="M 330 674 L 245 192 M 198 69.3 L 192 18.9 L 239 18.9 L 248 69.3 L 198 69.3" />
<glyph unicode="&#x22;" glyph-name="quotedbl" horiz-adv-x="381" d="M 255 693 L 224 491 M 394 693 L 365 491" />
<glyph unicode="#" glyph-name="numbersign" horiz-adv-x="501" d="M 331 649 L 142 15.8 M 513 649 L 321 15.8 M 167 447 L 545 447 M 113 246 L 488 246" />
<glyph unicode="$" glyph-name="dollar" horiz-adv-x="501" d="M 510 580 L 466 624 L 416 636 L 384 639 L 403 747 L 384 639 L 318 627 L 258 580 L 227 526 L 220 460 L 239 413 L 280 375 L 381 318 L 419 284 L 444 249 L 454 192 L 447 145 L 422 85.1 L 359 40.9 L 290 18.9 L 274 18.9 L 255 -85 L 274 18.9 L 224 25.2 L 167 50.4 L 123 88.2" />
<glyph unicode="%" glyph-name="percent" horiz-adv-x="828" d="M 258 284 L 309 293 L 350 324 L 384 375 L 410 444 L 422 495 L 419 564 L 403 617 L 378 649 L 340 665 L 299 662 L 249 633 L 211 589 L 189 536 L 167 428 L 167 372 L 183 328 L 205 299 L 230 287 L 258 284 M 649 12.6 L 699 22.1 L 740 56.7 L 775 104 L 800 173 L 813 224 L 813 296 L 797 350 L 769 381 L 731 397 L 690 391 L 639 365 L 602 321 L 583 268 L 558 161 L 558 101 L 573 59.9 L 598 31.5 L 621 15.8 L 649 12.6 M 252 9.45 L 728 671" />
<glyph unicode="&amp;" glyph-name="ampersand" horiz-adv-x="598" d="M 576 22.1 L 510 53.6 L 441 120 L 375 198 L 334 265 L 287 369 L 268 444 L 277 542 L 296 598 L 337 643 L 391 662 L 447 652 L 479 621 L 485 570 L 466 517 L 425 463 L 378 428 L 243 337 L 192 299 L 148 249 L 120 195 L 117 135 L 139 69.3 L 195 31.5 L 271 15.8 L 334 31.5 L 406 72.4 L 469 132 L 523 192 L 573 271 L 611 340" />
<glyph unicode="&apos;" glyph-name="quotesingle" horiz-adv-x="249" d="M 255 693 L 224 491" />
<glyph unicode="(" glyph-name="parenleft" horiz-adv-x="302" d="M 230 -148 L 195 -53.5 L 173 69.3 L 170 145 L 180 255 L 202 359 L 233 450 L 271 539 L 321 633 L 359 687 L 384 718" />
<glyph unicode=")" glyph-name="parenright" horiz-adv-x="302" d="M 50.4 -151 L 123 -50.4 L 183 56.7 L 220 161 L 258 290 L 265 416 L 265 498 L 255 573 L 233 649 L 208 721" />
<glyph unicode="*" glyph-name="asterisk" horiz-adv-x="422" d="M 239 488 L 328 589 L 450 627 L 328 589 L 350 709 L 328 589 L 220 627 L 328 589 L 387 485" />
<glyph unicode="+" glyph-name="plus" horiz-adv-x="501" d="M 362 554 L 287 123 M 132 340 L 526 340" />
<glyph unicode="," glyph-name="comma" horiz-adv-x="249" d="M 161 25.2 L 123 25.2 L 132 75.6 L 170 75.6 L 176 18.9 L 164 -28.4 L 139 -69.3 L 107 -94.5 L 75.6 -120" />
<glyph unicode="-" glyph-name="hyphen" horiz-adv-x="328" d="M 120 261 L 324 261" />
<glyph unicode="." glyph-name="period" horiz-adv-x="249" d="M 126 72.4 L 120 22.1 L 167 22.1 L 176 72.4 L 126 72.4" />
<glyph unicode="/" glyph-name="slash" horiz-adv-x="381" d="M 34.6 -142 L 485 709" />
<glyph unicode="0" glyph-name="zero" horiz-adv-x="501" d="M 265 18.9 L 328 31.5 L 400 94.5 L 441 161 L 469 236 L 491 340 L 504 438 L 498 532 L 476 592 L 435 630 L 391 646 L 353 643 L 290 608 L 236 551 L 189 460 L 164 365 L 148 271 L 142 183 L 158 94.5 L 186 53.6 L 220 22.1 L 265 18.9" />
<glyph unicode="1" glyph-name="one" horiz-adv-x="504" d="M 387 598 L 284 595 L 397 636 L 290 31.5 L 132 31.5 L 444 31.5" />
<glyph unicode="2" glyph-name="two" horiz-adv-x="504" d="M 189 558 L 239 598 L 296 630 L 359 646 L 413 636 L 466 608 L 488 561 L 491 491 L 482 432 L 435 359 L 362 277 L 280 192 L 205 126 L 135 63 L 104 31.5 L 460 31.5" />
<glyph unicode="3" glyph-name="three" horiz-adv-x="498" d="M 205 576 L 265 614 L 334 643 L 387 643 L 441 627 L 482 589 L 498 539 L 495 479 L 469 425 L 410 384 L 343 353 L 293 343 L 252 343 L 299 343 L 346 337 L 397 318 L 441 277 L 460 239 L 463 195 L 450 148 L 435 110 L 397 66.1 L 346 37.8 L 287 22.1 L 230 22.1 L 173 37.8 L 123 69.3 L 91.4 101" />
<glyph unicode="4" glyph-name="four" horiz-adv-x="504" d="M 359 15.8 L 469 630 L 101 220 L 498 220" />
<glyph unicode="5" glyph-name="five" horiz-adv-x="501" d="M 94.5 97.6 L 126 63 L 167 37.8 L 214 18.9 L 261 15.8 L 334 34.6 L 394 75.6 L 444 135 L 472 205 L 479 287 L 454 350 L 391 391 L 318 397 L 261 384 L 205 356 L 198 365 L 268 630 L 526 630" />
<glyph unicode="6" glyph-name="six" horiz-adv-x="498" d="M 148 265 L 205 315 L 268 359 L 328 378 L 391 378 L 435 356 L 466 324 L 479 265 L 472 195 L 447 123 L 400 63 L 343 25.2 L 277 15.8 L 224 34.6 L 180 72.4 L 148 135 L 145 224 L 158 318 L 189 438 L 224 510 L 265 567 L 321 614 L 384 639 L 444 643 L 498 624 L 532 589" />
<glyph unicode="7" glyph-name="seven" horiz-adv-x="504" d="M 243 18.9 L 287 186 L 331 306 L 387 410 L 441 491 L 501 567 L 561 633 L 198 633" />
<glyph unicode="8" glyph-name="eight" horiz-adv-x="501" d="M 372 321 L 441 372 L 488 428 L 507 482 L 517 539 L 485 605 L 428 639 L 378 643 L 299 621 L 243 570 L 217 513 L 220 435 L 261 387 L 340 340 L 413 296 L 460 255 L 476 198 L 457 129 L 428 78.8 L 359 31.5 L 284 15.8 L 224 25.2 L 164 53.6 L 129 104 L 123 158 L 142 236 L 205 306 L 252 334 L 309 359" />
<glyph unicode="9" glyph-name="nine" horiz-adv-x="501" d="M 117 75.6 L 148 40.9 L 198 22.1 L 258 15.8 L 328 47.2 L 397 107 L 447 198 L 482 309 L 501 413 L 498 510 L 472 586 L 422 630 L 353 643 L 277 617 L 227 573 L 189 517 L 170 460 L 164 397 L 186 331 L 243 290 L 315 280 L 406 315 L 463 362 L 501 403" />
<glyph unicode=":" glyph-name="colon" horiz-adv-x="249" d="M 192 454 L 186 406 L 233 406 L 243 454 L 192 454 M 126 72.4 L 117 25.2 L 167 25.2 L 173 72.4 L 126 72.4" />
<glyph unicode=";" glyph-name="semicolon" horiz-adv-x="246" d="M 195 454 L 186 403 L 236 403 L 246 454 L 195 454 M 161 25.2 L 123 25.2 L 132 75.6 L 170 75.6 L 176 18.9 L 164 -28.4 L 142 -69.3 L 107 -94.5 L 75.6 -120" />
<glyph unicode="&#x3c;" glyph-name="less" horiz-adv-x="504" d="M 498 183 L 129 343 L 554 504" />
<glyph unicode="=" glyph-name="equal" horiz-adv-x="504" d="M 142 441 L 545 441 M 107 239 L 507 239" />
<glyph unicode="&#x3e;" glyph-name="greater" horiz-adv-x="498" d="M 104 183 L 529 346 L 161 504" />
<glyph unicode="?" glyph-name="question" horiz-adv-x="428" d="M 198 72.4 L 189 22.1 L 239 22.1 L 249 72.4 L 198 72.4 M 239 202 L 255 261 L 293 324 L 381 419 L 432 485 L 454 542 L 450 598 L 425 643 L 391 668 L 337 674 L 287 665 L 239 643 L 192 608" />
<glyph unicode="@" glyph-name="at" horiz-adv-x="832" d="M 636 413 L 551 173 L 488 123 L 438 97.6 L 375 94.5 L 328 135 L 324 202 L 359 302 L 428 381 L 510 419 L 570 406 L 595 378 L 608 340 L 548 167 L 548 129 L 595 88.2 L 671 94.5 L 737 145 L 791 211 L 819 293 L 832 378 L 819 469 L 788 536 L 740 586 L 652 617 L 561 624 L 469 608 L 362 558 L 284 491 L 220 419 L 167 324 L 142 243 L 129 173 L 135 78.8 L 158 3.15 L 224 -66.1 L 287 -97.6 L 381 -117 L 476 -113 L 567 -69.3" />
<glyph unicode="A" glyph-name="A" horiz-adv-x="548" d="M 59.9 15.8 L 410 662 L 476 255 L 192 255 L 476 255 L 517 15.8" />
<glyph unicode="B" glyph-name="B" horiz-adv-x="602" d="M 148 28.4 L 258 646 L 441 646 L 495 643 L 545 621 L 583 580 L 586 532 L 573 476 L 545 425 L 491 391 L 447 372 L 391 362 L 214 362 L 394 362 L 444 353 L 504 337 L 548 302 L 570 271 L 573 227 L 561 164 L 526 104 L 472 66.1 L 391 34.6 L 331 28.4 L 158 28.4" />
<glyph unicode="C" glyph-name="C" horiz-adv-x="589" d="M 551 97.6 L 476 47.2 L 384 15.8 L 296 28.4 L 224 72.4 L 173 148 L 154 227 L 167 346 L 195 457 L 252 548 L 328 617 L 406 652 L 491 658 L 564 643 L 605 611 L 617 592" />
<glyph unicode="D" glyph-name="D" horiz-adv-x="627" d="M 154 31.5 L 265 646 L 441 646 L 510 627 L 554 598 L 589 561 L 617 488 L 621 406 L 611 356 L 598 290 L 573 214 L 539 161 L 485 94.5 L 403 53.6 L 337 34.6 L 287 31.5 L 154 31.5" />
<glyph unicode="E" glyph-name="E" horiz-adv-x="539" d="M 488 31.5 L 154 31.5 L 211 356 L 488 356 L 211 356 L 261 643 L 586 643" />
<glyph unicode="F" glyph-name="F" horiz-adv-x="501" d="M 151 18.9 L 208 346 L 488 346 L 208 346 L 261 643 L 583 643" />
<glyph unicode="G" glyph-name="G" horiz-adv-x="624" d="M 419 315 L 592 315 L 551 81.9 L 504 53.6 L 413 22.1 L 346 18.9 L 287 31.5 L 233 63 L 180 139 L 154 233 L 164 343 L 195 450 L 255 545 L 331 617 L 406 649 L 485 662 L 564 649 L 608 621 L 636 592" />
<glyph unicode="H" glyph-name="H" horiz-adv-x="668" d="M 151 22.1 L 265 652 L 211 359 L 611 359 L 665 649 L 551 22.1" />
<glyph unicode="I" glyph-name="I" horiz-adv-x="268" d="M 151 18.9 L 261 652" />
<glyph unicode="J" glyph-name="J" horiz-adv-x="488" d="M 113 101 L 135 63 L 170 34.6 L 217 15.8 L 284 25.2 L 350 66.1 L 387 126 L 403 173 L 488 655" />
<glyph unicode="K" glyph-name="K" horiz-adv-x="583" d="M 151 18.9 L 265 655 M 621 649 L 202 255 M 384 425 L 548 18.9" />
<glyph unicode="L" glyph-name="L" horiz-adv-x="491" d="M 265 655 L 154 31.5 L 469 31.5" />
<glyph unicode="M" glyph-name="M" horiz-adv-x="731" d="M 148 15.8 L 261 655 L 293 655 L 397 97.6 L 702 652 L 721 652 L 611 18.9" />
<glyph unicode="N" glyph-name="N" horiz-adv-x="655" d="M 145 22.1 L 258 649 L 280 649 L 542 22.1 L 655 652" />
<glyph unicode="O" glyph-name="O" horiz-adv-x="677" d="M 353 22.1 L 438 34.6 L 529 88.2 L 602 173 L 649 284 L 668 387 L 668 472 L 649 542 L 608 608 L 545 649 L 482 662 L 419 652 L 346 627 L 274 573 L 211 482 L 183 410 L 161 302 L 158 220 L 176 145 L 211 85.1 L 255 44.1 L 306 25.2 L 353 22.1" />
<glyph unicode="P" glyph-name="P" horiz-adv-x="580" d="M 151 15.8 L 265 649 L 491 649 L 545 633 L 580 602 L 605 561 L 605 498 L 592 441 L 554 378 L 501 340 L 432 315 L 356 312 L 205 312" />
<glyph unicode="Q" glyph-name="Q" horiz-adv-x="674" d="M 350 15.8 L 422 31.5 L 501 69.3 L 570 132 L 621 220 L 649 296 L 662 384 L 668 476 L 652 539 L 608 608 L 542 649 L 479 665 L 410 652 L 337 624 L 271 567 L 227 507 L 186 413 L 164 340 L 158 271 L 164 189 L 189 120 L 224 72.4 L 271 37.8 L 321 22.1 L 350 18.9 L 365 -37.8 L 400 -78.8 L 441 -104 L 495 -120 L 545 -123 L 592 -113" />
<glyph unicode="R" glyph-name="R" horiz-adv-x="580" d="M 148 18.9 L 261 649 L 469 649 L 520 633 L 570 605 L 598 542 L 589 488 L 570 428 L 523 375 L 469 346 L 394 328 L 208 328 L 384 328 L 513 18.9" />
<glyph unicode="S" glyph-name="S" horiz-adv-x="545" d="M 113 107 L 161 63 L 205 37.8 L 265 25.2 L 337 22.1 L 422 53.6 L 482 101 L 513 164 L 520 220 L 498 277 L 432 324 L 315 381 L 249 428 L 217 479 L 230 542 L 268 608 L 343 652 L 416 662 L 482 655 L 526 630 L 567 595" />
<glyph unicode="T" glyph-name="T" horiz-adv-x="548" d="M 293 22.1 L 403 649 L 186 649 L 627 649" />
<glyph unicode="U" glyph-name="U" horiz-adv-x="662" d="M 268 655 L 189 217 L 189 161 L 208 101 L 236 59.9 L 287 28.4 L 340 15.8 L 406 25.2 L 479 59.9 L 536 117 L 570 167 L 589 236 L 662 652" />
<glyph unicode="V" glyph-name="V" horiz-adv-x="513" d="M 176 655 L 271 18.9 L 598 652" />
<glyph unicode="W" glyph-name="W" horiz-adv-x="791" d="M 198 655 L 233 18.9 L 246 22.1 L 523 652 L 536 652 L 589 18.9 L 602 18.9 L 857 655" />
<glyph unicode="X" glyph-name="X" horiz-adv-x="507" d="M 75.6 18.9 L 567 655 M 208 658 L 466 18.9" />
<glyph unicode="Y" glyph-name="Y" horiz-adv-x="472" d="M 176 655 L 299 274 L 255 22.1 L 299 277 L 554 652" />
<glyph unicode="Z" glyph-name="Z" horiz-adv-x="561" d="M 233 649 L 608 649 L 97.6 28.4 L 513 28.4" />
<glyph unicode="[" glyph-name="bracketleft" horiz-adv-x="306" d="M 255 -123 L 123 -123 L 268 699 L 403 699" />
<glyph unicode="\" glyph-name="backslash" horiz-adv-x="384" d="M 183 706 L 331 -142" />
<glyph unicode="]" glyph-name="bracketright" horiz-adv-x="306" d="M 37.8 -120 L 170 -120 L 318 702 L 183 702" />
<glyph unicode="^" glyph-name="asciicircum" horiz-adv-x="504" d="M 173 312 L 381 674 L 469 302" />
<glyph unicode="_" glyph-name="underscore" horiz-adv-x="529" d="M 28.4 -81.9 L 501 -81.9" />
<glyph unicode="`" glyph-name="grave" horiz-adv-x="558" d="M 362 709 L 432 586" />
<glyph unicode="a" glyph-name="a" horiz-adv-x="520" d="M 208 428 L 280 466 L 340 482 L 400 488 L 441 472 L 472 438 L 485 387 L 476 318 L 438 107 L 425 22.1 L 438 107 L 391 78.8 L 340 47.2 L 287 25.2 L 230 15.8 L 183 31.5 L 151 56.7 L 129 97.6 L 139 158 L 173 205 L 230 246 L 284 265 L 346 284 L 403 293 L 441 296 L 469 296" />
<glyph unicode="b" glyph-name="b" horiz-adv-x="564" d="M 268 718 L 142 15.8 L 158 101 L 183 72.4 L 233 37.8 L 287 22.1 L 343 18.9 L 416 56.7 L 466 101 L 507 164 L 536 243 L 545 321 L 542 394 L 507 454 L 469 476 L 413 488 L 350 476 L 287 444 L 214 394" />
<glyph unicode="c" glyph-name="c" horiz-adv-x="472" d="M 441 72.4 L 381 34.6 L 306 18.9 L 239 28.4 L 176 75.6 L 145 142 L 142 220 L 158 302 L 195 378 L 255 438 L 321 472 L 391 482 L 444 472 L 482 454 L 491 435" />
<glyph unicode="d" glyph-name="d" horiz-adv-x="567" d="M 583 715 L 457 22.1 L 476 117 L 422 72.4 L 356 31.5 L 293 15.8 L 243 25.2 L 198 47.2 L 154 101 L 139 173 L 148 261 L 189 365 L 252 444 L 337 482 L 400 488 L 457 466 L 495 441 L 526 403" />
<glyph unicode="e" glyph-name="e" horiz-adv-x="504" d="M 151 265 L 498 265 L 507 321 L 504 394 L 469 450 L 425 482 L 359 485 L 290 466 L 227 419 L 192 372 L 158 312 L 142 249 L 142 173 L 158 104 L 205 47.2 L 255 22.1 L 321 15.8 L 378 31.5 L 441 59.9" />
<glyph unicode="f" glyph-name="f" horiz-adv-x="290" d="M 154 18.9 L 233 472 L 161 472 L 353 472 L 233 472 L 258 611 L 274 658 L 312 706 L 365 724 L 406 718 L 432 706" />
<glyph unicode="g" glyph-name="g" horiz-adv-x="510" d="M 192 40.9 L 135 -3.15 L 97.6 -56.7 L 81.9 -113 L 113 -161 L 183 -192 L 265 -202 L 346 -183 L 428 -132 L 466 -85 L 472 -31.5 L 454 18.9 L 387 37.8 L 195 37.8 L 161 66.1 L 148 110 L 164 151 L 230 211 L 261 189 L 312 180 L 381 202 L 435 246 L 469 299 L 479 362 L 466 419 L 450 444 L 413 472 L 564 472 L 410 472 L 365 482 L 293 476 L 236 435 L 195 378 L 180 315 L 186 265 L 205 233 L 227 208" />
<glyph unicode="h" glyph-name="h" horiz-adv-x="554" d="M 145 22.1 L 271 715 L 208 365 L 261 416 L 309 454 L 375 479 L 435 485 L 498 447 L 517 403 L 513 331 L 460 18.9" />
<glyph unicode="i" glyph-name="i" horiz-adv-x="252" d="M 145 15.8 L 227 479 M 233 671 L 224 621 L 274 621 L 284 671 L 233 671" />
<glyph unicode="j" glyph-name="j" horiz-adv-x="261" d="M -25.2 -186 L -18.9 -186 L 9.45 -195 L 56.7 -192 L 104 -164 L 126 -113 L 233 482 M 239 668 L 230 621 L 280 621 L 290 668 L 239 668" />
<glyph unicode="k" glyph-name="k" horiz-adv-x="485" d="M 142 15.8 L 268 718 M 501 479 L 170 148 M 324 306 L 454 15.8" />
<glyph unicode="l" glyph-name="l" horiz-adv-x="265" d="M 271 715 L 158 63 L 158 40.9 L 164 28.4 L 180 18.9 L 198 18.9" />
<glyph unicode="m" glyph-name="m" horiz-adv-x="835" d="M 142 15.8 L 224 479 L 205 375 L 255 413 L 302 447 L 346 472 L 394 485 L 435 479 L 460 466 L 488 435 L 498 381 L 491 315 L 438 15.8 L 501 365 L 520 391 L 595 450 L 652 476 L 693 488 L 734 476 L 762 460 L 788 419 L 788 337 L 731 18.9" />
<glyph unicode="n" glyph-name="n" horiz-adv-x="558" d="M 145 15.8 L 227 482 L 208 369 L 258 413 L 306 450 L 340 469 L 391 482 L 422 485 L 469 472 L 491 454 L 510 422 L 520 378 L 454 15.8" />
<glyph unicode="o" glyph-name="o" horiz-adv-x="561" d="M 306 18.9 L 309 18.9 L 375 34.6 L 441 75.6 L 488 139 L 520 208 L 532 274 L 532 334 L 523 387 L 501 428 L 460 466 L 416 482 L 375 485 L 321 476 L 268 447 L 220 400 L 189 356 L 158 290 L 151 239 L 145 180 L 151 126 L 180 75.6 L 217 40.9 L 261 22.1 L 306 18.9" />
<glyph unicode="p" glyph-name="p" horiz-adv-x="567" d="M 104 -195 L 224 482 L 208 381 L 268 435 L 337 469 L 394 479 L 460 479 L 507 450 L 539 387 L 548 315 L 536 233 L 510 164 L 463 91.4 L 403 44.1 L 362 25.2 L 302 22.1 L 255 31.5 L 208 59.9 L 164 94.5" />
<glyph unicode="q" glyph-name="q" horiz-adv-x="558" d="M 419 -192 L 539 479 L 526 410 L 476 450 L 422 476 L 346 482 L 271 454 L 214 397 L 173 328 L 151 271 L 142 214 L 139 154 L 151 94.5 L 183 53.6 L 224 28.4 L 284 15.8 L 353 34.6 L 419 72.4 L 469 110" />
<glyph unicode="r" glyph-name="r" horiz-adv-x="340" d="M 148 18.9 L 230 482 L 205 340 L 243 397 L 296 454 L 346 476 L 394 482 L 422 479" />
<glyph unicode="s" glyph-name="s" horiz-adv-x="428" d="M 97.6 78.8 L 148 40.9 L 205 22.1 L 255 15.8 L 321 37.8 L 378 75.6 L 400 132 L 397 189 L 350 236 L 277 268 L 211 299 L 176 340 L 176 387 L 202 432 L 258 476 L 324 485 L 384 472 L 432 441" />
<glyph unicode="t" glyph-name="t" horiz-adv-x="334" d="M 321 37.8 L 284 22.1 L 239 22.1 L 198 34.6 L 173 75.6 L 180 145 L 239 469 L 145 469 L 387 469 L 239 469 L 265 611" />
<glyph unicode="u" glyph-name="u" horiz-adv-x="554" d="M 526 476 L 444 18.9 L 466 139 L 422 97.6 L 375 56.7 L 312 25.2 L 258 15.8 L 205 31.5 L 170 63 L 158 104 L 167 183 L 217 476" />
<glyph unicode="v" glyph-name="v" horiz-adv-x="460" d="M 154 485 L 246 15.8 L 258 15.8 L 517 485" />
<glyph unicode="w" glyph-name="w" horiz-adv-x="702" d="M 164 482 L 214 9.45 L 227 9.45 L 444 482 L 463 482 L 513 9.45 L 526 9.45 L 743 482" />
<glyph unicode="x" glyph-name="x" horiz-adv-x="435" d="M 66.1 9.45 L 469 485 M 170 485 L 406 9.45" />
<glyph unicode="y" glyph-name="y" horiz-adv-x="460" d="M 154 479 L 258 3.15 M 507 476 L 214 -78.8 L 183 -126 L 142 -161 L 101 -183 L 34.6 -183" />
<glyph unicode="z" glyph-name="z" horiz-adv-x="425" d="M 176 466 L 457 466 L 81.9 31.5 L 403 31.5" />
<glyph unicode="{" glyph-name="braceleft" horiz-adv-x="309" d="M 258 -123 L 208 -126 L 167 -101 L 148 -50.4 L 211 214 L 205 249 L 183 274 L 161 284 L 123 287 L 176 299 L 217 321 L 233 362 L 277 627 L 293 671 L 343 699 L 403 699" />
<glyph unicode="|" glyph-name="bar" horiz-adv-x="255" d="M 97.6 -220 L 268 740" />
<glyph unicode="}" glyph-name="braceright" horiz-adv-x="309" d="M 37.8 -123 L 97.6 -120 L 145 -97.6 L 170 -37.8 L 208 208 L 230 255 L 255 277 L 299 290 L 312 290 L 277 302 L 246 315 L 236 350 L 252 441 L 293 630 L 277 684 L 239 702 L 189 702" />
<glyph unicode="~" glyph-name="asciitilde" horiz-adv-x="504" d="M 148 324 L 192 365 L 236 384 L 287 384 L 328 343 L 372 302 L 400 290 L 441 296 L 472 321 L 504 350" />
<glyph unicode="&#xa0;" glyph-name="nbspace" horiz-adv-x="378" />
<glyph unicode="&#xa1;" glyph-name="exclamdown" horiz-adv-x="280" d="M 135 18.9 L 220 501 M 268 624 L 274 674 L 227 674 L 217 624 L 268 624" />
<glyph unicode="&#xa2;" glyph-name="cent" horiz-adv-x="381" d="M 441 72.4 L 381 34.6 L 306 18.9 L 239 28.4 L 176 75.6 L 145 142 L 142 220 L 158 302 L 195 378 L 255 438 L 321 472 L 391 482 L 444 472 L 482 454 L 491 435 M 66.1 -142 L 517 709" />
<glyph unicode="&#xa5;" glyph-name="yen" horiz-adv-x="472" d="M 176 655 L 299 274 L 255 22.1 L 299 277 L 554 652 M 183 198 L 387 198 M 183 324 L 387 324" />
<glyph unicode="&#xa6;" glyph-name="brokenbar" horiz-adv-x="73.7" d="M 215 214 L 207 107 L 204 -40.6 M 215 686 L 207 579 L 204 432" />
<glyph unicode="&#xa8;" glyph-name="dieresis" horiz-adv-x="567" d=" M 283 702 L 277 652 L 324 652 L 333 702 L 283 702 M 536 702 L 530 652 L 577 652 L 587 702 L 536 702" />
<glyph unicode="&#xa9;" glyph-name="copyright" horiz-adv-x="677" d="M 353 22.1 L 438 34.6 L 529 88.2 L 602 173 L 649 284 L 668 387 L 668 472 L 649 542 L 608 608 L 545 649 L 482 662 L 419 652 L 346 627 L 274 573 L 211 482 L 183 410 L 161 302 L 158 220 L 176 145 L 211 85.1 L 255 44.1 L 306 25.2 L 353 22.1 M 465 206 L 427 181 L 381 165 L 337 172 L 301 194 L 276 232 L 266 271 L 272 331 L 287 386 L 315 432 L 353 466 L 392 484 L 435 487 L 471 479 L 491 463 L 498 454" />
<glyph unicode="&#xaa;" glyph-name="ordfeminine" horiz-adv-x="260" d="M 261 813 L 298 832 L 328 839 L 358 843 L 378 835 L 394 817 L 400 792 L 395 758 L 376 652 L 370 610 L 376 652 L 353 638 L 328 622 L 301 611 L 272 606 L 249 614 L 233 627 L 222 647 L 227 677 L 244 701 L 272 721 L 299 731 L 331 740 L 359 745 L 378 747 L 392 747" />
<glyph unicode="&#xab;" glyph-name="guillemotleft" horiz-adv-x="274" d="M 145 -7.56 L 34 212 L 140 423 M 271 -7.56 L 160 212 L 266 423" />
<glyph unicode="&#xae;" glyph-name="registered" horiz-adv-x="677" d="M 353 22.1 L 438 34.6 L 529 88.2 L 602 173 L 649 284 L 668 387 L 668 472 L 649 542 L 608 608 L 545 649 L 482 662 L 419 652 L 346 627 L 274 573 L 211 482 L 183 410 L 161 302 L 158 220 L 176 145 L 211 85.1 L 255 44.1 L 306 25.2 L 353 22.1 M 263 167 L 320 482 L 424 482 L 449 474 L 474 460 L 488 428 L 484 402 L 474 372 L 450 345 L 424 331 L 386 321 L 293 321 L 381 321 L 446 167" />
<glyph unicode="&#xb0;" glyph-name="degree" horiz-adv-x="244" d="M 248 574 L 273 577 L 301 593 L 322 619 L 336 652 L 342 683 L 342 709 L 336 730 L 324 749 L 305 762 L 286 765 L 267 763 L 246 755 L 224 739 L 205 712 L 197 690 L 190 658 L 189 633 L 195 610 L 205 593 L 218 580 L 233 575 L 248 574" />
<glyph unicode="&#xb1;" glyph-name="plusminus" horiz-adv-x="401" d="M 549 20.2 L 713 20.2 M 743 633 L 683 287 M 559 461 L 874 461" />
<glyph unicode="&#xb2;" glyph-name="twosuperior" horiz-adv-x="252" d="M 252 877 L 277 898 L 306 914 L 337 921 L 364 917 L 391 902 L 402 879 L 403 844 L 398 814 L 375 778 L 339 737 L 298 695 L 260 662 L 225 630 L 209 614 L 387 614" />
<glyph unicode="&#xb3;" glyph-name="threesuperior" horiz-adv-x="249" d="M 260 887 L 290 906 L 324 920 L 351 920 L 378 912 L 398 893 L 406 868 L 405 838 L 392 811 L 362 791 L 329 775 L 304 770 L 284 770 L 307 770 L 331 767 L 356 758 L 378 737 L 387 718 L 389 696 L 383 673 L 375 654 L 356 632 L 331 617 L 301 610 L 272 610 L 244 617 L 219 633 L 203 649" />
<glyph unicode="&#xb4;" glyph-name="acute" horiz-adv-x="378" d=" M 418 814 L 292 644" />
<glyph unicode="&#xb7;" glyph-name="middot" horiz-adv-x="299" d="M 227 389 L 219 329 L 276 329 L 287 389 L 227 389" />
<glyph unicode="&#xb9;" glyph-name="onesuperior" horiz-adv-x="252" d="M 351 898 L 299 896 L 356 917 L 302 614 L 224 614 L 380 614" />
<glyph unicode="&#xba;" glyph-name="ordmasculine" horiz-adv-x="244" d="M 248 574 L 273 577 L 301 593 L 322 619 L 336 652 L 342 683 L 342 709 L 336 730 L 324 749 L 305 762 L 286 765 L 267 763 L 246 755 L 224 739 L 205 712 L 197 690 L 190 658 L 189 633 L 195 610 L 205 593 L 218 580 L 233 575 L 248 574" />
<glyph unicode="&#xbb;" glyph-name="guillemotright" horiz-adv-x="319" d="M 61.7 -10.1 L 173 239 L 37.8 426 M 188 -10.1 L 299 239 L 164 426" />
<glyph unicode="&#xbc;" glyph-name="onequarter" horiz-adv-x="544" d="M 232 737 L 170 735 L 238 760 L 174 397 L 79.4 397 L 266 397 M 192 -142 L 643 709 M 688 9.45 L 754 378 L 533 132 L 771 132" />
<glyph unicode="&#xbd;" glyph-name="onehalf" horiz-adv-x="544" d="M 232 737 L 170 735 L 238 760 L 174 397 L 79.4 397 L 266 397 M 192 -142 L 643 709 M 586 335 L 616 359 L 650 378 L 688 387 L 720 382 L 752 365 L 765 336 L 767 295 L 762 259 L 733 215 L 690 166 L 641 115 L 595 75.6 L 554 37.8 L 535 18.9 L 748 18.9" />
<glyph unicode="&#xbe;" glyph-name="threequarters" horiz-adv-x="541" d="M 123 724 L 159 747 L 200 764 L 232 764 L 265 754 L 289 731 L 299 701 L 297 665 L 282 633 L 246 609 L 206 590 L 176 584 L 151 584 L 180 584 L 208 580 L 238 569 L 265 544 L 276 522 L 278 495 L 270 467 L 261 444 L 238 418 L 208 401 L 172 391 L 138 391 L 104 401 L 73.7 420 L 54.8 438 M 192 -142 L 643 709 M 688 9.45 L 754 378 L 533 132 L 771 132" />
<glyph unicode="&#xbf;" glyph-name="questiondown" horiz-adv-x="428" d="M 444 624 L 454 674 L 403 674 L 394 624 L 444 624 M 403 495 L 387 435 L 350 372 L 261 277 L 211 211 L 189 154 L 192 97.7 L 217 53.6 L 252 28.4 L 306 22.1 L 356 31.5 L 403 53.6 L 450 88.2" />
<glyph unicode="&#xc0;" glyph-name="Agrave" horiz-adv-x="548" d="M 59.9 15.8 L 410 662 L 476 255 L 192 255 L 476 255 L 517 15.8 M 290 992 L 359 869" />
<glyph unicode="&#xc1;" glyph-name="Aacute" horiz-adv-x="548" d="M 59.9 15.8 L 410 662 L 476 255 L 192 255 L 476 255 L 517 15.8 M 505 979 L 379 809" />
<glyph unicode="&#xc2;" glyph-name="Acircumflex" horiz-adv-x="548" d="M 59.9 15.8 L 410 662 L 476 255 L 192 255 L 476 255 L 517 15.8 M 350 817 L 454 999 L 498 813" />
<glyph unicode="&#xc3;" glyph-name="Atilde" horiz-adv-x="548" d="M 59.9 15.8 L 410 662 L 476 255 L 192 255 L 476 255 L 517 15.8 M 298 822 L 329 851 L 359 864 L 395 864 L 423 836 L 454 807 L 474 798 L 503 803 L 525 820 L 547 840" />
<glyph unicode="&#xc4;" glyph-name="Adieresis" horiz-adv-x="548" d="M 59.9 15.8 L 410 662 L 476 255 L 192 255 L 476 255 L 517 15.8 M 307 923 L 300 873 L 348 873 L 357 923 L 307 923 M 556 923 L 550 873 L 597 873 L 607 923 L 556 923" />
<glyph unicode="&#xc5;" glyph-name="Aring" horiz-adv-x="548" d="M 59.9 15.8 L 410 662 L 476 255 L 192 255 L 476 255 L 517 15.8 M 459 857 L 485 861 L 512 877 L 534 902 L 548 936 L 554 967 L 554 992 L 548 1013.0 L 536 1032.9 L 517 1045.2 L 498 1048.9 L 479 1046.1 L 457 1038.6 L 436 1022.5 L 417 995 L 408 973 L 402 941 L 401 917 L 406 894 L 417 876 L 430 864 L 445 858 L 459 857" />
<glyph unicode="&#xc8;" glyph-name="Egrave" horiz-adv-x="539" d="M 488 31.5 L 154 31.5 L 211 356 L 488 356 L 211 356 L 261 643 L 586 643 M 285 992 L 354 869" />
<glyph unicode="&#xc9;" glyph-name="Eacute" horiz-adv-x="539" d="M 488 31.5 L 154 31.5 L 211 356 L 488 356 L 211 356 L 261 643 L 586 643 M 494 948 L 368 778" />
<glyph unicode="&#xca;" glyph-name="Ecircumflex" horiz-adv-x="539" d="M 488 31.5 L 154 31.5 L 211 356 L 488 356 L 211 356 L 261 643 L 586 643 M 347 817 L 451 999 L 495 813" />
<glyph unicode="&#xcb;" glyph-name="Edieresis" horiz-adv-x="539" d="M 488 31.5 L 154 31.5 L 211 356 L 488 356 L 211 356 L 261 643 L 586 643 M 297 923 L 290 873 L 338 873 L 347 923 L 297 923 M 557 923 L 551 873 L 598 873 L 607 923 L 557 923" />
<glyph unicode="&#xcc;" glyph-name="Igrave" horiz-adv-x="268" d="M 151 18.9 L 261 652 M 150 992 L 219 869" />
<glyph unicode="&#xcd;" glyph-name="Iacute" horiz-adv-x="268" d="M 151 18.9 L 261 652 M 355 980 L 229 810" />
<glyph unicode="&#xce;" glyph-name="Icircumflex" horiz-adv-x="268" d="M 151 18.9 L 261 652 M 280 817 L 384 999 L 428 813" />
<glyph unicode="&#xcf;" glyph-name="Idieresis" horiz-adv-x="268" d="M 151 18.9 L 261 652 M 164 923 L 158 873 L 205 873 L 214 923 L 164 923 M 419 923 L 413 873 L 460 873 L 469 923 L 419 923" />
<glyph unicode="&#xd0;" glyph-name="Eth" horiz-adv-x="627" d="M 120 261 L 324 261 M 154 31.5 L 265 646 L 441 646 L 510 627 L 554 598 L 589 561 L 617 488 L 621 406 L 611 356 L 598 290 L 573 214 L 539 161 L 485 94.5 L 403 53.6 L 337 34.6 L 287 31.5 L 154 31.5" />
<glyph unicode="&#xd1;" glyph-name="Ntilde" horiz-adv-x="655" d="M 145 22.1 L 258 649 L 280 649 L 542 22.1 L 655 652 M 323 822 L 354 851 L 384 864 L 420 864 L 448 836 L 479 807 L 499 798 L 528 803 L 550 820 L 572 840" />
<glyph unicode="&#xd2;" glyph-name="Ograve" horiz-adv-x="677" d="M 353 22.1 L 438 34.6 L 529 88.2 L 602 173 L 649 284 L 668 387 L 668 472 L 649 542 L 608 608 L 545 649 L 482 662 L 419 652 L 346 627 L 274 573 L 211 482 L 183 410 L 161 302 L 158 220 L 176 145 L 211 85.1 L 255 44.1 L 306 25.2 L 353 22.1 M 354 992 L 424 869" />
<glyph unicode="&#xd3;" glyph-name="Oacute" horiz-adv-x="677" d="M 353 22.1 L 438 34.6 L 529 88.2 L 602 173 L 649 284 L 668 387 L 668 472 L 649 542 L 608 608 L 545 649 L 482 662 L 419 652 L 346 627 L 274 573 L 211 482 L 183 410 L 161 302 L 158 220 L 176 145 L 211 85.1 L 255 44.1 L 306 25.2 L 353 22.1 M 574 1000.2 L 448 830" />
<glyph unicode="&#xd4;" glyph-name="Ocircumflex" horiz-adv-x="677" d="M 353 22.1 L 438 34.6 L 529 88.2 L 602 173 L 649 284 L 668 387 L 668 472 L 649 542 L 608 608 L 545 649 L 482 662 L 419 652 L 346 627 L 274 573 L 211 482 L 183 410 L 161 302 L 158 220 L 176 145 L 211 85.1 L 255 44.1 L 306 25.2 L 353 22.1 M 382 817 L 486 999 L 530 813" />
<glyph unicode="&#xd5;" glyph-name="Otilde" horiz-adv-x="677" d="M 353 22.1 L 438 34.6 L 529 88.2 L 602 173 L 649 284 L 668 387 L 668 472 L 649 542 L 608 608 L 545 649 L 482 662 L 419 652 L 346 627 L 274 573 L 211 482 L 183 410 L 161 302 L 158 220 L 176 145 L 211 85.1 L 255 44.1 L 306 25.2 L 353 22.1 M 328 822 L 359 851 L 390 864 L 425 864 L 453 836 L 484 807 L 504 798 L 533 803 L 555 820 L 577 840" />
<glyph unicode="&#xd6;" glyph-name="Odieresis" horiz-adv-x="677" d="M 353 22.1 L 438 34.6 L 529 88.2 L 602 173 L 649 284 L 668 387 L 668 472 L 649 542 L 608 608 L 545 649 L 482 662 L 419 652 L 346 627 L 274 573 L 211 482 L 183 410 L 161 302 L 158 220 L 176 145 L 211 85.1 L 255 44.1 L 306 25.2 L 353 22.1 M 377 923 L 371 873 L 418 873 L 427 923 L 377 923 M 615 923 L 609 873 L 656 873 L 666 923 L 615 923" />
<glyph unicode="&#xd7;" glyph-name="multiply" horiz-adv-x="435" d="M 66.1 9.45 L 469 485 M 170 485 L 406 9.45" />
<glyph unicode="&#xd8;" glyph-name="Oslash" horiz-adv-x="677" d="M 353 22.1 L 438 34.6 L 529 88.2 L 602 173 L 649 284 L 668 387 L 668 472 L 649 542 L 608 608 L 545 649 L 482 662 L 419 652 L 346 627 L 274 573 L 211 482 L 183 410 L 161 302 L 158 220 L 176 145 L 211 85.1 L 255 44.1 L 306 25.2 L 353 22.1 M 174 -119 L 660 799" />
<glyph unicode="&#xd9;" glyph-name="Ugrave" horiz-adv-x="662" d="M 268 655 L 189 217 L 189 161 L 208 101 L 236 59.9 L 287 28.4 L 340 15.8 L 406 25.2 L 479 59.9 L 536 117 L 570 167 L 589 236 L 662 652 M 346 992 L 416 869" />
<glyph unicode="&#xda;" glyph-name="Uacute" horiz-adv-x="662" d="M 268 655 L 189 217 L 189 161 L 208 101 L 236 59.9 L 287 28.4 L 340 15.8 L 406 25.2 L 479 59.9 L 536 117 L 570 167 L 589 236 L 662 652 M 564 956 L 438 786" />
<glyph unicode="&#xdb;" glyph-name="Ucircumflex" horiz-adv-x="662" d="M 268 655 L 189 217 L 189 161 L 208 101 L 236 59.9 L 287 28.4 L 340 15.8 L 406 25.2 L 479 59.9 L 536 117 L 570 167 L 589 236 L 662 652 M 378 817 L 482 999 L 526 813" />
<glyph unicode="&#xdc;" glyph-name="Udieresis" horiz-adv-x="662" d="M 268 655 L 189 217 L 189 161 L 208 101 L 236 59.9 L 287 28.4 L 340 15.8 L 406 25.2 L 479 59.9 L 536 117 L 570 167 L 589 236 L 662 652 M 362 923 L 356 873 L 403 873 L 413 923 L 362 923 M 614 923 L 608 873 L 655 873 L 665 923 L 614 923" />
<glyph unicode="&#xdd;" glyph-name="Yacute" horiz-adv-x="472" d="M 176 655 L 299 274 L 255 22.1 L 299 277 L 554 652 M 482 990 L 356 820" />
<glyph unicode="&#xe0;" glyph-name="agrave" horiz-adv-x="520" d="M 208 428 L 280 466 L 340 482 L 400 488 L 441 472 L 472 438 L 485 387 L 476 318 L 438 107 L 425 22.1 L 438 107 L 391 78.8 L 340 47.2 L 287 25.2 L 230 15.8 L 183 31.5 L 151 56.7 L 129 97.6 L 139 158 L 173 205 L 230 246 L 284 265 L 346 284 L 403 293 L 441 296 L 469 296 M 307 740 L 376 617" />
<glyph unicode="&#xe1;" glyph-name="aacute" horiz-adv-x="520" d="M 208 428 L 280 466 L 340 482 L 400 488 L 441 472 L 472 438 L 485 387 L 476 318 L 438 107 L 425 22.1 L 438 107 L 391 78.8 L 340 47.2 L 287 25.2 L 230 15.8 L 183 31.5 L 151 56.7 L 129 97.6 L 139 158 L 173 205 L 230 246 L 284 265 L 346 284 L 403 293 L 441 296 L 469 296 M 499 844 L 373 674" />
<glyph unicode="&#xe2;" glyph-name="acircumflex" horiz-adv-x="520" d="M 208 428 L 280 466 L 340 482 L 400 488 L 441 472 L 472 438 L 485 387 L 476 318 L 438 107 L 425 22.1 L 438 107 L 391 78.8 L 340 47.2 L 287 25.2 L 230 15.8 L 183 31.5 L 151 56.7 L 129 97.6 L 139 158 L 173 205 L 230 246 L 284 265 L 346 284 L 403 293 L 441 296 L 469 296 M 295 660 L 399 841 L 443 655" />
<glyph unicode="&#xe3;" glyph-name="atilde" horiz-adv-x="520" d="M 208 428 L 280 466 L 340 482 L 400 488 L 441 472 L 472 438 L 485 387 L 476 318 L 438 107 L 425 22.1 L 438 107 L 391 78.8 L 340 47.2 L 287 25.2 L 230 15.8 L 183 31.5 L 151 56.7 L 129 97.6 L 139 158 L 173 205 L 230 246 L 284 265 L 346 284 L 403 293 L 441 296 L 469 296 M 269 646 L 300 675 L 331 688 L 366 688 L 395 659 L 426 631 L 445 622 L 474 626 L 496 644 L 518 664" />
<glyph unicode="&#xe4;" glyph-name="adieresis" horiz-adv-x="520" d="M 208 428 L 280 466 L 340 482 L 400 488 L 441 472 L 472 438 L 485 387 L 476 318 L 438 107 L 425 22.1 L 438 107 L 391 78.8 L 340 47.2 L 287 25.2 L 230 15.8 L 183 31.5 L 151 56.7 L 129 97.6 L 139 158 L 173 205 L 230 246 L 284 265 L 346 284 L 403 293 L 441 296 L 469 296 M 263 702 L 257 652 L 304 652 L 313 702 L 263 702 M 509 702 L 503 652 L 550 652 L 559 702 L 509 702" />
<glyph unicode="&#xe5;" glyph-name="aring" horiz-adv-x="520" d="M 208 428 L 280 466 L 340 482 L 400 488 L 441 472 L 472 438 L 485 387 L 476 318 L 438 107 L 425 22.1 L 438 107 L 391 78.8 L 340 47.2 L 287 25.2 L 230 15.8 L 183 31.5 L 151 56.7 L 129 97.6 L 139 158 L 173 205 L 230 246 L 284 265 L 346 284 L 403 293 L 441 296 L 469 296 M 389 668 L 415 672 L 442 688 L 464 713 L 478 747 L 484 778 L 484 803 L 478 824 L 466 844 L 447 856 L 428 860 L 409 857 L 387 850 L 366 833 L 347 806 L 338 784 L 332 752 L 331 728 L 336 705 L 347 687 L 360 675 L 375 669 L 389 668" />
<glyph unicode="&#xe8;" glyph-name="egrave" horiz-adv-x="504" d="M 151 265 L 498 265 L 507 321 L 504 394 L 469 450 L 425 482 L 359 485 L 290 466 L 227 419 L 192 372 L 158 312 L 142 249 L 142 173 L 158 104 L 205 47.2 L 255 22.1 L 321 15.8 L 378 31.5 L 441 59.9 M 299 740 L 369 617" />
<glyph unicode="&#xe9;" glyph-name="eacute" horiz-adv-x="504" d="M 151 265 L 498 265 L 507 321 L 504 394 L 469 450 L 425 482 L 359 485 L 290 466 L 227 419 L 192 372 L 158 312 L 142 249 L 142 173 L 158 104 L 205 47.2 L 255 22.1 L 321 15.8 L 378 31.5 L 441 59.9 M 495 841 L 369 671" />
<glyph unicode="&#xea;" glyph-name="ecircumflex" horiz-adv-x="504" d="M 151 265 L 498 265 L 507 321 L 504 394 L 469 450 L 425 482 L 359 485 L 290 466 L 227 419 L 192 372 L 158 312 L 142 249 L 142 173 L 158 104 L 205 47.2 L 255 22.1 L 321 15.8 L 378 31.5 L 441 59.9 M 291 660 L 395 841 L 439 655" />
<glyph unicode="&#xeb;" glyph-name="edieresis" horiz-adv-x="504" d="M 151 265 L 498 265 L 507 321 L 504 394 L 469 450 L 425 482 L 359 485 L 290 466 L 227 419 L 192 372 L 158 312 L 142 249 L 142 173 L 158 104 L 205 47.2 L 255 22.1 L 321 15.8 L 378 31.5 L 441 59.9 M 258 702 L 252 652 L 299 652 L 309 702 L 258 702 M 498 702 L 491 652 L 538 652 L 548 702 L 498 702" />
<glyph unicode="&#xec;" glyph-name="igrave" horiz-adv-x="252" d="M 145 15.8 L 227 479  M 173 740 L 243 617" />
<glyph unicode="&#xed;" glyph-name="iacute" horiz-adv-x="252" d="M 145 15.8 L 227 479  M 364 816 L 238 646" />
<glyph unicode="&#xee;" glyph-name="icircumflex" horiz-adv-x="252" d="M 145 15.8 L 227 479  M 165 660 L 269 841 L 313 655" />
<glyph unicode="&#xef;" glyph-name="idieresis" horiz-adv-x="252" d="M 145 15.8 L 227 479  M 125 702 L 119 652 L 166 652 L 175 702 L 125 702 M 379 702 L 373 652 L 420 652 L 429 702 L 379 702" />
<glyph unicode="&#xf1;" glyph-name="ntilde" horiz-adv-x="558" d="M 145 15.8 L 227 482 L 208 369 L 258 413 L 306 450 L 340 469 L 391 482 L 422 485 L 469 472 L 491 454 L 510 422 L 520 378 L 454 15.8 M 278 646 L 309 675 L 340 688 L 375 688 L 404 659 L 434 631 L 454 622 L 483 626 L 505 644 L 527 664" />
<glyph unicode="&#xf2;" glyph-name="ograve" horiz-adv-x="561" d="M 306 18.9 L 309 18.9 L 375 34.6 L 441 75.6 L 488 139 L 520 208 L 532 274 L 532 334 L 523 387 L 501 428 L 460 466 L 416 482 L 375 485 L 321 476 L 268 447 L 220 400 L 189 356 L 158 290 L 151 239 L 145 180 L 151 126 L 180 75.6 L 217 40.9 L 261 22.1 L 306 18.9 M 328 740 L 397 617" />
<glyph unicode="&#xf3;" glyph-name="oacute" horiz-adv-x="561" d="M 306 18.9 L 309 18.9 L 375 34.6 L 441 75.6 L 488 139 L 520 208 L 532 274 L 532 334 L 523 387 L 501 428 L 460 466 L 416 482 L 375 485 L 321 476 L 268 447 L 220 400 L 189 356 L 158 290 L 151 239 L 145 180 L 151 126 L 180 75.6 L 217 40.9 L 261 22.1 L 306 18.9 M 505 832 L 379 662" />
<glyph unicode="&#xf4;" glyph-name="ocircumflex" horiz-adv-x="561" d="M 306 18.9 L 309 18.9 L 375 34.6 L 441 75.6 L 488 139 L 520 208 L 532 274 L 532 334 L 523 387 L 501 428 L 460 466 L 416 482 L 375 485 L 321 476 L 268 447 L 220 400 L 189 356 L 158 290 L 151 239 L 145 180 L 151 126 L 180 75.6 L 217 40.9 L 261 22.1 L 306 18.9 M 306 660 L 410 841 L 454 655" />
<glyph unicode="&#xf5;" glyph-name="otilde" horiz-adv-x="561" d="M 306 18.9 L 309 18.9 L 375 34.6 L 441 75.6 L 488 139 L 520 208 L 532 274 L 532 334 L 523 387 L 501 428 L 460 466 L 416 482 L 375 485 L 321 476 L 268 447 L 220 400 L 189 356 L 158 290 L 151 239 L 145 180 L 151 126 L 180 75.6 L 217 40.9 L 261 22.1 L 306 18.9 M 279 646 L 309 675 L 340 688 L 376 688 L 404 659 L 435 631 L 455 622 L 484 626 L 506 644 L 528 664" />
<glyph unicode="&#xf6;" glyph-name="odieresis" horiz-adv-x="561" d="M 306 18.9 L 309 18.9 L 375 34.6 L 441 75.6 L 488 139 L 520 208 L 532 274 L 532 334 L 523 387 L 501 428 L 460 466 L 416 482 L 375 485 L 321 476 L 268 447 L 220 400 L 189 356 L 158 290 L 151 239 L 145 180 L 151 126 L 180 75.6 L 217 40.9 L 261 22.1 L 306 18.9 M 284 702 L 278 652 L 325 652 L 335 702 L 284 702 M 528 702 L 522 652 L 569 652 L 579 702 L 528 702" />
<glyph unicode="&#xf7;" glyph-name="divide" horiz-adv-x="737" d="M 472 545 L 466 495 L 513 495 L 523 545 L 472 545 M 472 230 L 466 180 L 513 180 L 523 230 L 472 230 M 269 356 L 730 356" />
<glyph unicode="&#xf8;" glyph-name="oslash" horiz-adv-x="561" d="M 306 18.9 L 309 18.9 L 375 34.6 L 441 75.6 L 488 139 L 520 208 L 532 274 L 532 334 L 523 387 L 501 428 L 460 466 L 416 482 L 375 485 L 321 476 L 268 447 L 220 400 L 189 356 L 158 290 L 151 239 L 145 180 L 151 126 L 180 75.6 L 217 40.9 L 261 22.1 L 306 18.9 M 179 -33.1 L 494 562" />
<glyph unicode="&#xf9;" glyph-name="ugrave" horiz-adv-x="554" d="M 526 476 L 444 18.9 L 466 139 L 422 97.6 L 375 56.7 L 312 25.2 L 258 15.8 L 205 31.5 L 170 63 L 158 104 L 167 183 L 217 476 M 324 740 L 394 617" />
<glyph unicode="&#xfa;" glyph-name="uacute" horiz-adv-x="554" d="M 526 476 L 444 18.9 L 466 139 L 422 97.6 L 375 56.7 L 312 25.2 L 258 15.8 L 205 31.5 L 170 63 L 158 104 L 167 183 L 217 476 M 522 847 L 396 677" />
<glyph unicode="&#xfb;" glyph-name="ucircumflex" horiz-adv-x="554" d="M 526 476 L 444 18.9 L 466 139 L 422 97.6 L 375 56.7 L 312 25.2 L 258 15.8 L 205 31.5 L 170 63 L 158 104 L 167 183 L 217 476 M 304 660 L 408 841 L 452 655" />
<glyph unicode="&#xfc;" glyph-name="udieresis" horiz-adv-x="554" d="M 526 476 L 444 18.9 L 466 139 L 422 97.6 L 375 56.7 L 312 25.2 L 258 15.8 L 205 31.5 L 170 63 L 158 104 L 167 183 L 217 476 M 282 702 L 276 652 L 323 652 L 332 702 L 282 702 M 524 702 L 518 652 L 565 652 L 575 702 L 524 702" />
<glyph unicode="&#xfd;" glyph-name="yacute" horiz-adv-x="460" d="M 154 479 L 258 3.15 M 507 476 L 214 -78.8 L 183 -126 L 142 -161 L 101 -183 L 34.6 -183 M 474 815 L 348 645" />
<glyph unicode="&#xff;" glyph-name="ydieresis" horiz-adv-x="460" d="M 154 479 L 258 3.15 M 507 476 L 214 -78.8 L 183 -126 L 142 -161 L 101 -183 L 34.6 -183 M 223 702 L 217 652 L 264 652 L 274 702 L 223 702 M 489 702 L 482 652 L 529 652 L 539 702 L 489 702" />
<glyph unicode="&#x2013;" glyph-name="endash" horiz-adv-x="491" d="M 180 261 L 487 261" />
<glyph unicode="&#x2014;" glyph-name="emdash" horiz-adv-x="655" d="M 239 261 L 649 261" />
<glyph unicode="&#x201c;" glyph-name="quotedblleft" horiz-adv-x="326" d="M 220 723 L 251 612 M 361 723 L 393 612" />
<glyph unicode="&#x201d;" glyph-name="quotedblright" horiz-adv-x="326" d="M 194 723 L 163 612 M 336 723 L 305 612" />
<glyph unicode="&#x2039;" glyph-name="guilsinglleft" horiz-adv-x="183" d="M 145 -7.56 L 34 212 L 140 423" />
<glyph unicode="&#x203a;" glyph-name="guilsinglright" horiz-adv-x="213" d="M 61.7 -10.1 L 173 239 L 37.8 426" />
<glyph unicode="&#x20ac;" glyph-name="Euro" horiz-adv-x="589" d="M 551 97.6 L 476 47.2 L 384 15.8 L 296 28.4 L 224 72.4 L 173 148 L 154 227 L 167 346 L 195 457 L 252 548 L 328 617 L 406 652 L 491 658 L 564 643 L 605 611 L 617 592 M 120 198 L 324 198 M 120 324 L 324 324" />
<glyph unicode="&#x0178;" glyph-name="Ydieresis" horiz-adv-x="472" d="M 176 655 L 299 274 L 255 22.1 L 299 277 L 554 652 M 267 923 L 260 873 L 307 873 L 317 923 L 267 923 M 521 923 L 515 873 L 562 873 L 571 923 L 521 923" />
<glyph unicode="&#x102;" glyph-name="Abreve" horiz-adv-x="548" d="M 59.9 15.8 L 410 662 L 476 255 L 192 255 L 476 255 L 517 15.8 M643 1064C643 1064 557.699 902 435 902C312.301 902 307 1074 307 1074" />
<glyph unicode="&#x114;" glyph-name="Ebreve" horiz-adv-x="539" d="M 488 31.5 L 154 31.5 L 211 356 L 488 356 L 211 356 L 261 643 L 586 643 M640 1064C640 1064 554.699 902 432 902C309.301 902 304 1074 304 1074" />
<glyph unicode="&#x11E;" glyph-name="Gbreve" horiz-adv-x="624" d="M 419 315 L 592 315 L 551 81.9 L 504 53.6 L 413 22.1 L 346 18.9 L 287 31.5 L 233 63 L 180 139 L 154 233 L 164 343 L 195 450 L 255 545 L 331 617 L 406 649 L 485 662 L 564 649 L 608 621 L 636 592 M667 1064C667 1064 581.699 902 459 902C336.301 902 331 1074 331 1074" />
<glyph unicode="&#x12C;" glyph-name="Ibreve" horiz-adv-x="268" d="M 151 18.9 L 261 652 M554 1064C554 1064 468.699 902 346 902C223.301 902 218 1074 218 1074" />
<glyph unicode="&#x14E;" glyph-name="Obreve" horiz-adv-x="677" d="M 353 22.1 L 438 34.6 L 529 88.2 L 602 173 L 649 284 L 668 387 L 668 472 L 649 542 L 608 608 L 545 649 L 482 662 L 419 652 L 346 627 L 274 573 L 211 482 L 183 410 L 161 302 L 158 220 L 176 145 L 211 85.1 L 255 44.1 L 306 25.2 L 353 22.1 M684 1064C684 1064 598.699 902 476 902C353.301 902 348 1074 348 1074" />
<glyph unicode="&#x16C;" glyph-name="Ubreve" horiz-adv-x="662" d="M 268 655 L 189 217 L 189 161 L 208 101 L 236 59.9 L 287 28.4 L 340 15.8 L 406 25.2 L 479 59.9 L 536 117 L 570 167 L 589 236 L 662 652 M679 1064C679 1064 593.699 902 471 902C348.301 902 343 1074 343 1074" />
<glyph unicode="&#x103;" glyph-name="abreve" horiz-adv-x="520" d="M 208 428 L 280 466 L 340 482 L 400 488 L 441 472 L 472 438 L 485 387 L 476 318 L 438 107 L 425 22.1 L 438 107 L 391 78.8 L 340 47.2 L 287 25.2 L 230 15.8 L 183 31.5 L 151 56.7 L 129 97.6 L 139 158 L 173 205 L 230 246 L 284 265 L 346 284 L 403 293 L 441 296 L 469 296 M634 864C634 864 548.699 702 426 702C303.301 702 298 874 298 874" />
<glyph unicode="&#x115;" glyph-name="ebreve" horiz-adv-x="504" d="M 151 265 L 498 265 L 507 321 L 504 394 L 469 450 L 425 482 L 359 485 L 290 466 L 227 419 L 192 372 L 158 312 L 142 249 L 142 173 L 158 104 L 205 47.2 L 255 22.1 L 321 15.8 L 378 31.5 L 441 59.9 M629 864C629 864 543.699 702 421 702C298.301 702 293 874 293 874" />
<glyph unicode="&#x11F;" glyph-name="gbreve" horiz-adv-x="510" d="M 192 40.9 L 135 -3.15 L 97.6 -56.7 L 81.9 -113 L 113 -161 L 183 -192 L 265 -202 L 346 -183 L 428 -132 L 466 -85 L 472 -31.5 L 454 18.9 L 387 37.8 L 195 37.8 L 161 66.1 L 148 110 L 164 151 L 230 211 L 261 189 L 312 180 L 381 202 L 435 246 L 469 299 L 479 362 L 466 419 L 450 444 L 413 472 L 564 472 L 410 472 L 365 482 L 293 476 L 236 435 L 195 378 L 180 315 L 186 265 L 205 233 L 227 208 M631 864C631 864 545.699 702 423 702C300.301 702 295 874 295 874" />
<glyph unicode="&#x12D;" glyph-name="ibreve" horiz-adv-x="252" d="M 145 15.8 L 227 479  M549 864C549 864 463.699 702 341 702C218.301 702 213 874 213 874" />
<glyph unicode="&#x14F;" glyph-name="obreve" horiz-adv-x="561" d="M 306 18.9 L 309 18.9 L 375 34.6 L 441 75.6 L 488 139 L 520 208 L 532 274 L 532 334 L 523 387 L 501 428 L 460 466 L 416 482 L 375 485 L 321 476 L 268 447 L 220 400 L 189 356 L 158 290 L 151 239 L 145 180 L 151 126 L 180 75.6 L 217 40.9 L 261 22.1 L 306 18.9 M647 864C647 864 561.699 702 439 702C316.301 702 311 874 311 874" />
<glyph unicode="&#x16D;" glyph-name="ubreve" horiz-adv-x="554" d="M 526 476 L 444 18.9 L 466 139 L 422 97.6 L 375 56.7 L 312 25.2 L 258 15.8 L 205 31.5 L 170 63 L 158 104 L 167 183 L 217 476 M645 864C645 864 559.699 702 437 702C314.301 702 309 874 309 874" />
<glyph unicode="&#xE6;" glyph-name="ae" horiz-adv-x="820" d="M466.453 265L813.453 265C831.699 336.009 833.278 393.719 780.566 450C727.855 506.281 609.439 481.121 539.141 415.807C468.843 350.492 456.327 255.742 458.465 181.091C460.603 106.441 509.794 38.4372 570.453 22.1C631.113 5.76272 694.692 32.0582 756.453 59.9M208 428C267.199 468.286 331.461 489.06 395.111 485.111C458.761 481.161 489.331 421.459 485 373.31L468.589 295.754C404.727 290.812 344.848 285.628 273.243 262.066C201.639 238.505 120.521 193.424 129 106.401C137.479 19.3774 228.153 8.69932 288.956 28.1336C349.759 47.5678 387.751 78.9598 438 107L464.388 123.461" />
<glyph unicode="&#xb8;" glyph-name="cedilla" horiz-adv-x="589" d="M361.776 18.109L342.964 -39.9706C428.605 -52.6485 389.18 -108.537 323.52 -101.766" />
<glyph unicode="&#xe7;" glyph-name="ccedilla" horiz-adv-x="472" d="M302 18.9L283.188 -39.1797C368.829 -51.8575 329.404 -107.746 263.744 -100.975M441 72.4L381 34.6L306 18.9L239 28.4L176 75.6L145 142L142 220L158 302L195 378L255 438L321 472L391 482L444 472L482 454L491 435" />
<glyph unicode="&#x130;" glyph-name="Idotaccent" horiz-adv-x="268" d="M259.842 810.322L250.842 760.322L300.842 760.322L310.842 810.322L259.842 810.322M151 18.9L261 652" />
<glyph unicode="&#xC6;" glyph-name="AE" horiz-adv-x="790" d="M783.356 14.3501L449.356 14.3501L506.356 357.052L783.356 357.052L506.356 357.052L556.356 660.15L881.356 660.15M79.9 15.8L550 662M488 255L254 255" />
<glyph unicode="&#xdf;" glyph-name="germandbls" horiz-adv-x="602" d="M146.944 28.2089L230.168 500.195C254.433 613.329 326.667 687.629 418.022 687.629C509.377 687.629 530.655 638.049 519.363 574.009C505.627 496.105 388.314 438.656 375.685 367.029C358.37 268.831 575.803 311.394 550.666 168.838C525.53 26.2811 299.391 -3.2112 248.283 66.2137" />
<glyph unicode="&#x15F;" glyph-name="scedilla" horiz-adv-x="428" d="M97.6 78.8C145.924 38.6395 225.207 8.55201 274.962 19.7415C324.717 30.931 341.702 44.9348 369.502 66.7633C396.202 91.1714 401.936 129.871 402.706 164.256C401.919 201.193 368.627 224.933 339.928 242.035C312.263 255.398 282.802 264.585 254.814 277.267C223.008 288.851 189.778 307.409 176 340C164.096 375.275 182.429 413.141 207.401 437.977C231.071 463.976 263.075 484.676 299.326 484.88C341.383 487.987 385.129 477.966 418.37 451.163C422.976 447.86 427.53 444.485 432 441M249.67 18.109L230.858 -39.9706C316.499 -52.6485 277.074 -108.537 211.414 -101.766" />
<glyph unicode="&#xa3;" glyph-name="sterling" horiz-adv-x="491" d="M119.859 261L324.159 261M469.692 31.5L154.692 31.5L217.92 390.08C247.782 559.437 286.384 652.201 398.598 655C510.812 657.799 479.252 466.08 479.252 466.08" />
<glyph unicode="&#x15E;" glyph-name="Scedilla" horiz-adv-x="545" d="M311.888 19.2429L293.075 -38.8368C378.716 -51.5146 339.291 -107.403 273.632 -100.633M113 107C113 107 145.414 74.3887 161 63C176.586 51.6113 187.551 44.4387 205 37.8C222.449 31.1613 242.944 27.9717 265 25.2C287.056 22.4283 310.21 17.8883 337 22.1C363.79 26.3117 397.716 39.9605 422 53.6C446.284 67.2395 466.633 81.987 482 101C497.367 120.013 506.948 143.778 513 164C519.052 184.222 522.384 200.557 520 220C517.616 239.443 512.526 258.29 498 277C483.474 295.71 462.258 306.023 432 324C401.742 341.977 345.258 363.023 315 381C284.742 398.977 265.151 410.876 249 428C232.849 445.124 220.684 458.574 217 479C213.316 499.426 221.687 520.111 230 542C238.313 563.889 248.856 588.699 268 608C287.144 627.301 317.701 643.24 343 652C368.299 660.76 392.661 661.644 416 662C439.339 662.356 463.44 660.969 482 655C500.56 649.031 511.739 640.002 526 630C540.261 619.998 567 595 567 595" />
<glyph unicode="&#xc7;" glyph-name="Ccedilla" horiz-adv-x="589" d="M361.776 18.109L342.964 -39.9706C428.605 -52.6485 389.18 -108.537 323.52 -101.766M551 97.6L476 47.2L384 15.8L296 28.4L224 72.4L173 148L154 227L167 346L195 457L252 548L328 617L406 652L491 658L564 643L605 611L617 592" />
<glyph unicode="&#x131;" glyph-name="dotlessi" horiz-adv-x="252" d="M145 15.8L227 479" />
<glyph unicode="&#x2D8;" glyph-name="breve" horiz-adv-x="504" d="M489 464C489 464 403.699 302 281 302C158.301 302 153 474 153 474" />
</font>
</defs>
</svg>
