<?xml version="1.0" encoding="UTF-8" ?>
<!DOCTYPE svg PUBLIC "-//W3C//DTD SVG 1.1//EN" "http://www.w3.org/Graphics/SVG/1.1/DTD/svg11.dtd" >

<svg xmlns="http://www.w3.org/2000/svg" xmlns:xlink="http://www.w3.org/1999/xlink" version="1.1">

<metadata>
Font name:               EMS Felix
License:                 SIL Open Font License http://scripts.sil.org/OFL
Created by:              Sheldon B. Michaels
SVG font conversion by:  Windell H. Oskay
A derivative of:         Felipa
Designer:                Fontstage
Link:                    https://twitter.com/fontstage
Google font page:        https://fonts.google.com/specimen/Felipa
</metadata>
<defs>
<font id="EMSFelix" horiz-adv-x="378" >
<font-face
font-family="EMS Felix"
units-per-em="1000"
ascent="800"
descent="-200"
cap-height="500"
x-height="300"
/>
<missing-glyph horiz-adv-x="378" />
<glyph unicode=" " glyph-name="space" horiz-adv-x="378" />
<glyph unicode="!" glyph-name="exclam" horiz-adv-x="482" d="M 408 759 L 389 583 L 345 381 L 314 243 L 285 167 M 263 72.4 L 232 40.9 L 260 0 L 292 34.6 L 263 72.4" />
<glyph unicode="&#x22;" glyph-name="quotedbl" horiz-adv-x="476" d="M 186 784 L 145 614 M 346 791 L 312 608" />
<glyph unicode="#" glyph-name="numbersign" horiz-adv-x="728" d="M 252 -28.4 L 331 551 M 491 551 L 416 -31.5 M 576 164 L 161 167 M 161 391 L 595 391" />
<glyph unicode="$" glyph-name="dollar" horiz-adv-x="463" d="M 306 432 L 315 444 L 230 444 L 246 561 L 230 450 L 161 432 L 120 394 L 107 350 L 142 293 L 186 249 L 239 183 L 274 123 L 277 81.9 L 252 44.1 L 208 25.2 L 170 18.9 L 154 -117 L 170 18.9 L 110 18.9 L 69.3 40.9" />
<glyph unicode="%" glyph-name="percent" horiz-adv-x="885" d="M 145 15.8 L 299 198 L 479 435 L 680 715 M 249 702 L 176 668 L 135 602 L 123 536 L 148 463 L 198 422 L 261 435 L 343 495 L 369 567 L 365 633 L 337 677 L 309 699 L 249 702 M 621 302 L 542 261 L 501 186 L 495 120 L 517 53.6 L 580 22.1 L 662 44.1 L 718 104 L 747 180 L 728 252 L 684 293 L 621 302" />
<glyph unicode="&amp;" glyph-name="ampersand" horiz-adv-x="800" d="M 406 107 L 337 40.9 L 290 12.6 L 205 34.6 L 148 113 L 126 233 L 142 372 L 205 520 L 290 621 L 391 668 L 441 652 L 450 605 L 419 548 L 365 498 L 309 460 L 173 391 L 252 425 L 340 435 L 469 435 L 586 441 L 643 435 L 491 438 L 454 321 L 441 236 L 432 142 L 450 63 L 488 12.6 L 510 -3.15 L 583 56.7 L 665 148 L 769 277" />
<glyph unicode="&apos;" glyph-name="quotesingle" horiz-adv-x="340" d="M 211 794 L 170 611" />
<glyph unicode="(" glyph-name="parenleft" horiz-adv-x="539" d="M 410 743 L 302 624 L 246 517 L 202 369 L 195 208 L 214 94.5 L 252 15.8 L 331 -72.5" />
<glyph unicode=")" glyph-name="parenright" horiz-adv-x="501" d="M 186 740 L 265 643 L 312 526 L 324 397 L 299 239 L 249 101 L 189 18.9 L 94.5 -72.5" />
<glyph unicode="*" glyph-name="asterisk" horiz-adv-x="589" d="M 268 416 L 328 690 M 161 485 L 432 624 M 198 649 L 387 472" />
<glyph unicode="+" glyph-name="plus" horiz-adv-x="721" d="M 132 290 L 558 290 M 346 504 L 346 72.4" />
<glyph unicode="," glyph-name="comma" horiz-adv-x="400" d="M 192 3.15 L 142 53.6 L 176 91.4 L 224 40.9 L 195 -28.4 L 148 -101" />
<glyph unicode="-" glyph-name="hyphen" horiz-adv-x="513" d="M 126 293 L 268 296 L 375 318" />
<glyph unicode="." glyph-name="period" horiz-adv-x="400" d="M 186 94.5 L 151 59.9 L 189 18.9 L 224 50.4 L 186 94.5" />
<glyph unicode="/" glyph-name="slash" horiz-adv-x="551" d="M 428 743 L 284 337 L 129 -44.1" />
<glyph unicode="0" glyph-name="zero" horiz-adv-x="633" d="M 318 460 L 208 416 L 142 321 L 113 227 L 123 120 L 164 34.6 L 255 12.6 L 369 56.7 L 444 148 L 476 265 L 466 378 L 419 444 L 365 460 L 318 460" />
<glyph unicode="1" glyph-name="one" horiz-adv-x="438" d="M 120 369 L 249 463 L 180 12.6" />
<glyph unicode="2" glyph-name="two" horiz-adv-x="548" d="M 123 403 L 202 441 L 287 454 L 346 425 L 362 350 L 334 261 L 258 170 L 167 85.1 L 78.8 12.6 L 164 12.6 L 312 18.9 L 353 15.8 L 375 18.9 L 419 47.2" />
<glyph unicode="3" glyph-name="three" horiz-adv-x="536" d="M 117 397 L 198 438 L 290 444 L 331 406 L 350 343 L 328 280 L 277 230 L 217 189 L 284 183 L 331 148 L 350 91.4 L 343 28.4 L 312 -25.2 L 255 -75.6 L 176 -85 L 94.5 -72.5 L 31.5 -47.2" />
<glyph unicode="4" glyph-name="four" horiz-adv-x="567" d="M 277 -123 L 365 460 L 287 365 L 217 233 L 120 117 L 56.7 28.4 L 296 28.4 L 378 34.6 L 447 53.6" />
<glyph unicode="5" glyph-name="five" horiz-adv-x="583" d="M 81.9 -81.9 L 195 -120 L 290 -117 L 365 -63 L 394 31.5 L 391 110 L 346 161 L 271 180 L 214 161 L 151 142 L 195 413 L 233 444 L 422 441" />
<glyph unicode="6" glyph-name="six" horiz-adv-x="605" d="M 195 274 L 258 309 L 331 318 L 391 293 L 416 243 L 422 167 L 400 101 L 346 31.5 L 268 6.3 L 183 28.4 L 139 75.6 L 113 167 L 126 277 L 170 387 L 239 482 L 328 542 L 416 567 L 491 561" />
<glyph unicode="7" glyph-name="seven" horiz-adv-x="532" d="M 186 -110 L 243 88.2 L 318 258 L 378 369 L 410 435 L 268 432 L 126 447" />
<glyph unicode="8" glyph-name="eight" horiz-adv-x="595" d="M 258 18.9 L 170 53.6 L 142 88.2 L 132 151 L 176 246 L 350 391 L 410 472 L 422 545 L 372 586 L 287 576 L 224 539 L 192 479 L 227 394 L 356 284 L 416 214 L 428 139 L 387 63 L 331 28.4 L 258 18.9" />
<glyph unicode="9" glyph-name="nine" horiz-adv-x="605" d="M 117 -81.9 L 224 -63 L 318 -6.3 L 384 66.1 L 413 170 L 428 258 L 419 350 L 387 416 L 315 460 L 211 441 L 145 381 L 110 296 L 123 214 L 173 158 L 261 148 L 309 161 L 343 189" />
<glyph unicode=":" glyph-name="colon" horiz-adv-x="425" d="M 205 444 L 167 400 L 205 359 L 243 397 L 205 444 M 170 85.1 L 132 47.2 L 170 12.6 L 202 44.1 L 170 85.1" />
<glyph unicode=";" glyph-name="semicolon" horiz-adv-x="425" d="M 198 435 L 164 400 L 198 365 L 230 397 L 198 435 M 176 3.15 L 129 50.4 L 167 88.2 L 208 44.1 L 186 -12.6 L 123 -94.5" />
<glyph unicode="&#x3c;" glyph-name="less" horiz-adv-x="775" d="M 561 416 L 365 337 L 195 236 L 413 107 L 580 28.4" />
<glyph unicode="=" glyph-name="equal" horiz-adv-x="715" d="M 154 315 L 576 315 M 117 132 L 545 132" />
<glyph unicode="&#x3e;" glyph-name="greater" horiz-adv-x="724" d="M 148 31.5 L 331 120 L 523 233 L 362 331 L 164 416" />
<glyph unicode="?" glyph-name="question" horiz-adv-x="558" d="M 198 78.8 L 164 44.1 L 208 0 L 239 31.5 L 198 78.8 M 180 176 L 167 252 L 195 324 L 268 400 L 343 469 L 397 539 L 425 627 L 413 693 L 369 734 L 293 731 L 233 696" />
<glyph unicode="@" glyph-name="at" horiz-adv-x="854" d="M 731 59.9 L 636 -15.8 L 517 -59.9 L 356 -44.1 L 220 34.6 L 148 151 L 154 346 L 208 463 L 299 564 L 428 624 L 602 627 L 712 573 L 775 447 L 765 306 L 696 198 L 608 148 L 510 139 L 570 435 L 523 328 L 466 249 L 381 183 L 337 161 L 337 252 L 365 362 L 428 428 L 504 438 L 570 432" />
<glyph unicode="A" glyph-name="A" horiz-adv-x="769" d="M 18.9 9.45 L 104 9.45 L 151 31.5 L 205 81.9 L 526 662 L 353 662 L 246 621 L 183 551 L 161 485 L 154 406 M 539 665 L 526 284 L 324 284 L 526 284 L 529 129 L 542 50.4 L 573 12.6 L 598 6.3 L 665 40.9" />
<glyph unicode="B" glyph-name="B" horiz-adv-x="699" d="M 81.9 343 L 101 457 L 142 551 L 220 621 L 315 658 L 416 665 L 504 655 L 586 617 L 608 545 L 595 491 L 558 428 L 504 391 L 454 378 L 435 381 L 513 369 L 580 331 L 611 271 L 605 186 L 567 117 L 498 59.9 L 419 28.4 L 214 25.2 L 186 12.6 L 236 69.3 L 274 142 L 365 655" />
<glyph unicode="C" glyph-name="C" horiz-adv-x="592" d="M 545 639 L 450 668 L 306 624 L 211 507 L 154 391 L 129 284 L 132 183 L 183 75.6 L 236 18.9 L 324 6.3 L 381 40.9 L 460 110" />
<glyph unicode="D" glyph-name="D" horiz-adv-x="696" d="M 107 353 L 120 469 L 192 589 L 287 643 L 384 668 L 504 662 L 602 624 L 671 520 L 680 397 L 652 268 L 595 167 L 520 78.8 L 438 40.9 L 369 22.1 L 217 28.4 L 195 18.9 L 236 56.7 L 280 135 L 375 655" />
<glyph unicode="E" glyph-name="E" horiz-adv-x="677" d="M 75.6 403 L 97.6 536 L 129 586 L 180 633 L 249 658 L 598 658 L 343 658 L 309 517 L 290 384 L 510 384 L 287 384 L 268 246 L 249 145 L 214 72.4 L 195 37.8 L 158 9.45 L 202 31.5 L 495 28.4 L 554 66.1" />
<glyph unicode="F" glyph-name="F" horiz-adv-x="646" d="M 129 9.45 L 217 12.6 L 268 44.1 L 302 113 L 346 381 L 551 381 L 346 381 L 394 665 L 646 665 L 359 665 L 274 652 L 220 621 L 170 576 L 139 504 L 139 460 L 142 410" />
<glyph unicode="G" glyph-name="G" horiz-adv-x="602" d="M 570 662 L 447 684 L 334 655 L 230 573 L 167 472 L 117 359 L 104 252 L 120 123 L 173 44.1 L 246 12.6 L 328 31.5 L 400 91.4 L 444 139 M 359 369 L 491 369 L 466 296 L 432 72.4 L 406 -9.45 L 369 -78.8 L 331 -132 L 296 -167 L 495 -167" />
<glyph unicode="H" glyph-name="H" horiz-adv-x="797" d="M 41 400 L 37.8 482 L 66.1 558 L 117 621 L 176 652 L 230 662 L 340 665 L 359 671 L 334 646 L 306 545 L 277 334 L 252 145 L 220 72.4 L 180 25.2 L 132 6.3 L 66.1 12.6 M 564 665 L 702 665 L 677 655 L 643 520 L 627 378 L 293 378 L 624 378 L 608 268 L 592 173 L 576 120 L 564 88.2 L 536 50.4 L 495 12.6 L 517 25.2 L 649 25.2 L 718 72.4" />
<glyph unicode="I" glyph-name="I" horiz-adv-x="457" d="M 28.4 400 L 28.4 482 L 63 564 L 120 627 L 189 662 L 255 665 L 340 668 L 321 662 L 290 539 L 255 350 L 233 195 L 217 120 L 189 72.4 L 154 31.5 L 126 0 L 158 25.2 L 315 22.1 L 372 69.3" />
<glyph unicode="J" glyph-name="J" horiz-adv-x="450" d="M -34.6 -107 L 31.5 -151 L 117 -164 L 202 -104 L 246 -6.3 L 340 586 L 356 636 L 384 674 L 369 662 L 230 658 L 145 614 L 97.6 548 L 81.9 495 L 78.8 403" />
<glyph unicode="K" glyph-name="K" horiz-adv-x="788" d="M 50.4 403 L 53.5 498 L 110 608 L 192 662 L 265 668 L 369 668 L 353 655 L 309 510 L 280 280 L 246 94.5 L 217 44.1 L 180 12.6 L 126 3.15 L 69.3 9.45 M 674 646 L 617 658 L 554 646 L 463 583 L 410 488 L 394 410 L 394 340 L 498 151 L 668 -88.2" />
<glyph unicode="L" glyph-name="L" horiz-adv-x="542" d="M 463 639 L 391 674 L 321 658 L 249 598 L 211 529 L 176 261 L 158 126 L 135 85.1 L 56.7 12.6 L 104 31.5 L 173 22.1 L 261 -34.6 L 362 -107 L 472 -158 L 554 -161 L 602 -117" />
<glyph unicode="M" glyph-name="M" horiz-adv-x="986" d="M 75.6 403 L 85 501 L 129 595 L 192 643 L 261 662 L 353 665 L 463 658 M 22 9.45 L 107 9.45 L 183 47.2 L 217 88.2 L 447 658 L 472 652 L 466 47.2 L 539 198 L 621 384 L 696 529 L 737 598 L 806 662 L 794 586 L 775 362 L 772 198 L 784 12.6 L 863 63" />
<glyph unicode="N" glyph-name="N" horiz-adv-x="728" d="M 63 406 L 75.6 504 L 113 592 L 173 646 L 246 665 L 381 665 M 94.5 25.2 L 173 25.2 L 217 50.4 L 255 107 L 271 186 L 293 315 L 353 665 L 384 662 L 441 498 L 576 75.6 L 586 47.2 L 573 9.45 L 608 72.4 L 630 158 L 696 523 L 706 598 L 734 665 L 753 677 L 712 665 L 602 665" />
<glyph unicode="O" glyph-name="O" horiz-adv-x="517" d="M 220 22.1 L 170 40.9 L 135 72.4 L 85 167 L 78.8 290 L 110 416 L 161 507 L 224 580 L 280 633 L 356 662 L 419 627 L 476 529 L 488 397 L 469 287 L 428 192 L 356 101 L 293 50.4 L 220 22.1" />
<glyph unicode="P" glyph-name="P" horiz-adv-x="548" d="M 18.9 369 L 37.8 498 L 101 583 L 202 646 L 287 665 L 381 668 L 476 649 L 539 598 L 561 517 L 529 432 L 457 362 L 406 350 L 369 353 M 312 665 L 274 558 L 252 387 L 202 132 L 186 85.1 L 158 40.9 L 104 3.15 L 135 18.9 L 284 22.1 L 340 53.6" />
<glyph unicode="Q" glyph-name="Q" horiz-adv-x="608" d="M 161 233 L 110 277 L 81.9 384 L 110 498 L 158 570 L 230 633 L 315 655 L 381 662 L 457 617 L 498 536 L 507 447 L 491 331 L 450 249 L 365 148 L 296 91.4 L 227 53.6 L 158 37.8 L 44.1 34.6 L 63 44.1 L 198 28.4 L 277 -12.6 L 353 -53.5 L 416 -72.5 L 495 -59.9 L 561 -25.2" />
<glyph unicode="R" glyph-name="R" horiz-adv-x="684" d="M 356 59.9 L 296 25.2 L 176 31.5 L 148 12.6 L 183 53.6 L 233 123 L 315 595 L 337 662 M 44.1 356 L 50.4 447 L 97.6 551 L 164 617 L 243 652 L 328 662 L 400 665 L 498 649 L 554 611 L 586 539 L 576 472 L 532 413 L 479 375 L 432 365 L 369 365 L 460 208 L 583 22.1 L 674 -91.4" />
<glyph unicode="S" glyph-name="S" horiz-adv-x="504" d="M 59.9 47.2 L 139 12.6 L 265 18.9 L 315 63 L 353 123 L 369 198 L 353 268 L 192 482 L 173 548 L 192 621 L 249 655 L 312 674 L 384 668 L 457 652" />
<glyph unicode="T" glyph-name="T" horiz-adv-x="617" d="M 34.6 406 L 34.6 488 L 69.3 570 L 120 627 L 180 658 L 592 658 L 359 658 L 331 551 L 302 324 L 271 148 L 230 66.1 L 205 34.6 L 161 6.3 L 195 18.9 L 346 25.2 L 400 63" />
<glyph unicode="U" glyph-name="U" horiz-adv-x="813" d="M 34.6 400 L 34.6 485 L 66.1 564 L 123 633 L 176 658 L 299 662 L 350 665 L 334 658 L 293 529 L 265 315 L 246 142 L 268 53.6 L 302 25.2 L 356 25.2 L 416 63 L 482 158 L 526 233 L 567 309 L 583 337 L 646 649 L 665 665 L 646 646 L 570 284 L 558 148 L 567 81.9 L 598 34.6 L 630 28.4 L 671 25.2 L 709 63" />
<glyph unicode="V" glyph-name="V" horiz-adv-x="709" d="M 15.8 400 L 28.4 491 L 69.3 586 L 139 639 L 214 662 L 280 652 L 315 589 L 340 485 L 350 362 L 353 239 L 356 126 L 350 22.1 L 428 164 L 520 334 L 617 529 L 658 630 L 643 655 L 576 655" />
<glyph unicode="W" glyph-name="W" horiz-adv-x="970" d="M 34.6 403 L 50.4 495 L 97.6 592 L 183 652 L 258 665 L 309 639 L 346 567 L 365 472 L 365 120 L 359 31.5 L 413 129 L 504 299 L 586 501 L 630 605 L 674 636 L 639 589 L 627 469 L 630 296 L 662 28.4 L 750 192 L 819 331 L 882 472 L 914 567 L 920 624 L 904 646 L 844 646" />
<glyph unicode="X" glyph-name="X" horiz-adv-x="803" d="M 34.6 25.2 L 129 22.1 L 189 50.4 L 268 123 L 359 252 L 498 485 L 576 608 L 617 652 L 649 665 L 699 665 L 743 649 M 107 444 L 113 513 L 145 592 L 189 646 L 261 665 L 309 668 L 343 624 L 369 576 L 454 227 L 520 63 L 554 22.1 L 589 6.3 L 636 28.4 L 699 75.6" />
<glyph unicode="Y" glyph-name="Y" horiz-adv-x="699" d="M 41 454 L 56.7 545 L 91.4 621 L 135 662 L 211 665 L 252 624 L 290 510 L 321 403 L 359 261 L 394 151 M 554 649 L 627 646 L 639 621 L 608 542 L 413 186 L 318 18.9 L 227 -94.5 L 170 -135 L 120 -139 L 15.8 -81.9" />
<glyph unicode="Z" glyph-name="Z" horiz-adv-x="709" d="M 126 488 L 126 548 L 161 627 L 195 668 L 277 684 L 343 668 L 416 649 L 482 636 L 548 636 L 595 662 L 536 605 L 387 410 L 268 258 L 183 164 L 59.9 63 L 81.9 69.3 L 161 63 L 233 25.2 L 428 -94.5 L 513 -117 L 564 -107 L 621 -41" />
<glyph unicode="[" glyph-name="bracketleft" horiz-adv-x="536" d="M 444 747 L 299 747 L 189 -75.6 L 334 -72.5" />
<glyph unicode="\" glyph-name="backslash" horiz-adv-x="592" d="M 139 731 L 287 255 L 394 -44.1" />
<glyph unicode="]" glyph-name="bracketright" horiz-adv-x="529" d="M 202 747 L 340 747 L 230 -69.3 L 91.4 -75.6" />
<glyph unicode="^" glyph-name="asciicircum" horiz-adv-x="772" d="M 139 309 L 378 614 L 592 306" />
<glyph unicode="_" glyph-name="underscore" horiz-adv-x="731" d="M 139 -25.2 L 602 -25.2" />
<glyph unicode="`" glyph-name="grave" horiz-adv-x="526" d="M 167 687 L 233 662 L 274 627 L 334 558" />
<glyph unicode="a" glyph-name="a" horiz-adv-x="413" d="M 271 425 L 161 432 L 81.9 397 L 25.2 296 L 3.15 167 L 3.15 66.1 L 12.6 15.8 L 72.5 75.6 L 158 195 L 211 284 L 252 369 L 271 413 L 227 217 L 205 120 L 198 66.1 L 192 12.6 L 255 53.6 L 365 186 L 413 252" />
<glyph unicode="b" glyph-name="b" horiz-adv-x="381" d="M 252 759 L 167 750 L 88.2 684 L 50.4 598 L 3.15 186 L -9.45 94.5 L -15.8 44.1 L -3.15 3.15 L 59.9 12.6 L 161 81.9 L 211 192 L 233 290 L 236 375 L 230 444 L 145 359 L 56.7 233 L -6.3 97.6" />
<glyph unicode="c" glyph-name="c" horiz-adv-x="309" d="M 239 435 L 198 457 L 132 444 L 59.9 365 L 31.5 302 L 6.3 236 L 3.15 161 L 9.45 88.2 L 31.5 34.6 L 75.6 -6.3 L 148 59.9 L 227 145 L 309 255" />
<glyph unicode="d" glyph-name="d" horiz-adv-x="410" d="M 476 753 L 400 753 L 331 712 L 290 643 L 268 548 L 252 432 L 243 369 L 195 277 L 129 161 L 66.1 72.4 L 0 12.6 L -12.6 129 L 3.15 268 L 41 356 L 72.5 400 L 120 425 L 170 438 L 220 432 L 243 406 L 230 290 L 217 151 L 189 6.3 L 261 63 L 346 167 L 413 255" />
<glyph unicode="e" glyph-name="e" horiz-adv-x="290" d="M 3.15 214 L 72.5 258 L 158 343 L 189 387 L 198 435 L 180 454 L 139 457 L 72.5 413 L 22 340 L -6.3 233 L -18.9 148 L -3.15 78.8 L 31.5 28.4 L 63 -3.15 L 170 107 L 239 186 L 287 255" />
<glyph unicode="f" glyph-name="f" horiz-adv-x="233" d="M -135 -173 L -78.8 -180 L -18.9 -158 L 37.8 -94.5 L 59.9 -22 L 94.5 243 L 117 432 L 37.8 432 L 249 441 L 117 435 L 126 526 L 145 624 L 192 709 L 236 750 L 293 762 L 315 759 L 356 750" />
<glyph unicode="g" glyph-name="g" horiz-adv-x="334" d="M -63 -167 L -53.6 -167 L 34.6 -170 L 101 -151 L 142 -110 L 180 -18.9 L 236 435 L 129 438 L 75.6 410 L 25.2 350 L 0 261 L -15.8 173 L -22.1 129 L -22.1 81.9 L -15.8 15.8 L 41 59.9 L 113 158 L 170 239 L 208 328 L 236 397" />
<glyph unicode="h" glyph-name="h" horiz-adv-x="397" d="M 246 759 L 180 759 L 120 731 L 53.5 643 L 37.8 545 L 18.9 425 L 0 280 L -15.8 164 L -40.9 22.1 L 9.45 139 L 81.9 265 L 154 369 L 211 428 L 236 435 L 246 381 L 217 255 L 192 139 L 176 69.3 L 167 0 L 258 78.8 L 350 186 L 394 255" />
<glyph unicode="i" glyph-name="i" horiz-adv-x="195" d="M -34.6 384 L 15.8 432 L 41 444 L -3.15 180 L -22.1 88.2 L -22.1 12.6 L 53.5 78.8 L 113 145 L 198 255 M 66.1 636 L 66.1 583 L 56.7 573" />
<glyph unicode="j" glyph-name="j" horiz-adv-x="129" d="M -239 -170 L -154 -167 L -91.4 -120 L -53.6 -56.7 L -28.4 44.1 L -3.15 189 L 12.6 324 L 28.4 450 L -25.2 413 L -47.2 387 M 72.5 643 L 63 605 L 47.2 589" />
<glyph unicode="k" glyph-name="k" horiz-adv-x="416" d="M 255 756 L 186 756 L 120 721 L 69.3 662 L 44.1 576 L -31.5 9.45 L 22 246 L 91.4 369 L 142 428 L 202 454 L 243 454 L 261 432 L 258 378 L 217 321 L 176 284 L 107 243 L 198 9.45 L 287 91.4 L 356 170 L 416 255" />
<glyph unicode="l" glyph-name="l" horiz-adv-x="192" d="M 252 753 L 205 762 L 132 734 L 69.3 658 L 47.2 564 L -22.1 107 L -31.5 3.15 L 44.1 69.3 L 142 186 L 192 255" />
<glyph unicode="m" glyph-name="m" horiz-adv-x="576" d="M -50.4 394 L 28.4 454 L 12.6 334 L -9.45 202 L -25.2 88.2 L -34.6 31.5 L 28.4 170 L 91.4 293 L 151 381 L 202 435 L 227 444 L 243 425 L 220 328 L 186 158 L 158 9.45 L 189 113 L 243 220 L 315 334 L 369 413 L 413 447 L 435 435 L 403 274 L 372 142 L 356 59.9 L 353 3.15 L 441 78.8 L 513 167 L 576 255" />
<glyph unicode="n" glyph-name="n" horiz-adv-x="447" d="M -3.15 391 L 56.7 441 L 85 460 L 69.3 384 L 50.4 252 L 31.5 161 L 18.9 75.6 L 12.6 22.1 L 15.8 6.3 L 12.6 72.4 L 78.8 164 L 129 261 L 186 343 L 246 413 L 277 450 L 293 450 L 302 384 L 277 261 L 255 167 L 236 94.5 L 220 3.15 L 277 50.4 L 359 135 L 403 198 L 447 255" />
<glyph unicode="o" glyph-name="o" horiz-adv-x="315" d="M 53.5 3.15 L 66.1 3.15 L 123 31.5 L 176 91.4 L 224 180 L 249 271 L 243 359 L 214 406 L 192 450 L 97.6 406 L 37.8 328 L -3.15 239 L -9.45 161 L 3.15 81.9 L 22 44.1 L 53.5 3.15" />
<glyph unicode="p" glyph-name="p" horiz-adv-x="290" d="M -44.1 397 L 34.6 454 L -47.2 -81.9 L -72.4 -161 L -167 -227 L 9.45 -132 M 0 167 L 9.45 173 L 37.8 271 L 104 362 L 164 425 L 198 450 L 214 362 L 211 271 L 189 173 L 158 88.2 L 120 34.6 L 69.3 15.8 L 28.4 22.1 L 3.15 40.9 L -22.1 81.9" />
<glyph unicode="q" glyph-name="q" horiz-adv-x="299" d="M 284 450 L 236 381 L 186 268 L 110 132 L 63 69.3 L -3.15 12.6 L -15.8 139 L 6.3 280 L 37.8 359 L 85 416 L 170 441 L 230 444 L 261 435 L 198 94.5 L 161 -129 L 142 -170 L 53.5 -230 L 230 -139" />
<glyph unicode="r" glyph-name="r" horiz-adv-x="230" d="M -50.4 387 L 6.3 435 L 37.8 457 L 6.3 287 L -18.9 132 L -22.1 56.7 L -22.1 25.2 L 6.3 126 L 50.4 224 L 88.2 324 L 135 403 L 161 435 L 195 450 L 236 447" />
<glyph unicode="s" glyph-name="s" horiz-adv-x="318" d="M 261 435 L 202 463 L 151 454 L 101 416 L 81.9 369 L 101 309 L 148 252 L 189 195 L 214 139 L 211 88.2 L 173 40.9 L 120 9.45 L 75.6 -3.15 L 18.9 22.1" />
<glyph unicode="t" glyph-name="t" horiz-adv-x="183" d="M 28.4 504 L 25.2 444 L -47.2 438 L 25.2 447 L 158 450 L 25.2 447 L 6.3 274 L -12.6 158 L -31.5 88.2 L -53.6 3.15 L 18.9 63 L 110 164 L 176 255" />
<glyph unicode="u" glyph-name="u" horiz-adv-x="394" d="M -47.2 397 L 18.9 444 L 37.8 457 L 9.45 331 L -3.15 211 L -12.6 139 L -12.6 47.2 L -12.6 12.6 L 41 63 L 113 158 L 161 246 L 211 346 L 255 447 L 224 321 L 198 192 L 183 85.1 L 176 9.45 L 252 72.4 L 324 161 L 397 255" />
<glyph unicode="v" glyph-name="v" horiz-adv-x="252" d="M -91.4 391 L -88.2 391 L -47.2 435 L -3.15 457 L 6.3 117 L 15.8 31.5 L 63 88.2 L 113 180 L 158 287 L 176 346 L 189 457" />
<glyph unicode="w" glyph-name="w" horiz-adv-x="410" d="M -97.6 394 L -47.2 438 L -9.45 457 L 3.15 447 L -3.15 158 L 3.15 44.1 L 6.3 18.9 L 66.1 94.5 L 113 186 L 151 287 L 170 328 L 211 457 L 186 432 L 195 94.5 L 202 25.2 L 258 88.2 L 309 183 L 350 280 L 372 356 L 381 435 L 375 457" />
<glyph unicode="x" glyph-name="x" horiz-adv-x="428" d="M 59.9 394 L 110 435 L 151 457 L 296 6.3 L 346 34.6 L 378 72.4 M 28.4 15.8 L 75.6 22.1 L 101 44.1 L 135 88.2 L 252 274 L 321 403 L 356 435 L 406 444" />
<glyph unicode="y" glyph-name="y" horiz-adv-x="284" d="M -50.4 397 L -40.9 400 L 6.3 435 L 37.8 457 L 6.3 280 L -12.6 120 L -3.15 22.1 L 75.6 107 L 142 211 L 189 299 L 252 441 L 220 293 L 192 81.9 L 167 -56.7 L 139 -120 L 101 -154 L 44.1 -173 L -59.9 -164" />
<glyph unicode="z" glyph-name="z" horiz-adv-x="391" d="M 88.2 391 L 154 435 L 195 441 L 277 432 L 334 432 L 37.8 6.3 L 101 31.5 L 183 25.2 L 268 9.45 L 302 3.15 L 343 34.6" />
<glyph unicode="{" glyph-name="braceleft" horiz-adv-x="491" d="M 403 750 L 331 718 L 290 646 L 271 529 L 261 425 L 243 369 L 220 356 L 170 340 L 208 318 L 252 271 L 252 208 L 217 72.4 L 205 -15.8 L 220 -66.1 L 271 -104" />
<glyph unicode="|" glyph-name="bar" horiz-adv-x="384" d="M 176 806 L 176 -167" />
<glyph unicode="}" glyph-name="braceright" horiz-adv-x="479" d="M 205 750 L 268 715 L 280 677 L 274 580 L 261 491 L 258 413 L 268 369 L 296 350 L 328 334 L 280 318 L 243 287 L 217 227 L 208 129 L 208 34.6 L 198 -31.5 L 167 -72.5 L 123 -107 L 101 -110" />
<glyph unicode="~" glyph-name="asciitilde" horiz-adv-x="825" d="M 148 239 L 224 280 L 293 296 L 369 280 L 450 255 L 510 233 L 580 230 L 655 265" />
<glyph unicode="&#xa0;" glyph-name="nbspace" horiz-adv-x="378" />
<glyph unicode="&#xa1;" glyph-name="exclamdown" horiz-adv-x="482" d="M 135 0 L 154 176 L 198 378 L 230 517 L 258 592 M 280 687 L 312 718 L 284 759 L 252 724 L 280 687" />
<glyph unicode="&#xa2;" glyph-name="cent" horiz-adv-x="551" d="M 239 435 L 198 457 L 132 444 L 59.9 365 L 31.5 302 L 6.3 236 L 3.15 161 L 9.45 88.2 L 31.5 34.6 L 75.6 -6.3 L 148 59.9 L 227 145 L 309 255 M 271 680 L 126 274 L -28.4 -107" />
<glyph unicode="&#xa3;" glyph-name="sterling" horiz-adv-x="542" d="M 63 293 L 205 296 L 312 318 M 463 639 L 391 674 L 321 658 L 249 598 L 211 529 L 176 261 L 158 126 L 135 85.1 L 56.7 12.6 L 104 31.5 L 173 22.1 L 261 -34.6 L 362 -107 L 472 -158 L 554 -161 L 602 -117" />
<glyph unicode="&#xa5;" glyph-name="yen" horiz-adv-x="460" d="M 78.8 702 L 47.2 693 L 50.4 649 L 97.6 498 L 151 365 L 164 324 L 142 192 L 117 113 L 94.5 66.1 L 107 63 L 135 117 L 132 148 M 164 337 L 170 337 L 274 428 L 391 551 L 450 633 L 491 715 M 53.5 173 L 34.6 151 L 227 158 M 53.5 299 L 34.6 277 L 227 284" />
<glyph unicode="&#xa6;" glyph-name="brokenbar" horiz-adv-x="115" d="M 223 242 L 223 -50.1 M 223 714 L 223 422" />
<glyph unicode="&#xa8;" glyph-name="dieresis" horiz-adv-x="567" d=" M 236 727 L 201 692 L 239 651 L 273 683 L 236 727 M 458 744 L 423 709 L 461 668 L 495 700 L 458 744" />
<glyph unicode="&#xa9;" glyph-name="copyright" horiz-adv-x="687" d="M 104 450 L 85 343 L 97.6 243 L 142 139 L 230 50.4 L 346 9.45 L 472 22.1 L 558 72.4 L 630 173 L 655 287 L 655 400 L 627 507 L 586 589 L 532 636 L 450 665 L 356 674 L 258 649 L 176 580 L 104 450 M 472 202 L 449 180 L 421 165 L 375 159 L 320 175 L 276 209 L 249 255 L 239 304 L 243 356 L 252 402 L 285 454 L 329 484 L 370 491 L 402 493 L 430 485 L 450 472 L 465 461" />
<glyph unicode="&#xaa;" glyph-name="ordfeminine" horiz-adv-x="206" d="M 261 795 L 206 799 L 167 781 L 139 731 L 128 666 L 128 616 L 132 591 L 162 621 L 205 680 L 232 724 L 252 767 L 261 789 L 239 691 L 228 643 L 225 616 L 222 589 L 254 610 L 309 676 L 332 709" />
<glyph unicode="&#xab;" glyph-name="guillemotleft" horiz-adv-x="465" d="M 224 333 L 146 270 L 78.1 189 L 165 85.7 L 232 22.7 M 350 333 L 272 270 L 204 189 L 291 85.7 L 358 22.7" />
<glyph unicode="&#xae;" glyph-name="registered" horiz-adv-x="687" d="M 104 450 L 85 343 L 97.6 243 L 142 139 L 230 50.4 L 346 9.45 L 472 22.1 L 558 72.4 L 630 173 L 655 287 L 655 400 L 627 507 L 586 589 L 532 636 L 450 665 L 356 674 L 258 649 L 176 580 L 104 450 M 263 162 L 266 484 L 238 471 L 280 488 L 320 495 L 370 495 L 413 469 L 436 433 L 443 392 L 422 350 L 395 324 L 373 315 L 324 324 L 269 315 L 313 307 L 369 313 L 384 266 L 414 213 L 441 173 L 452 165 L 469 167" />
<glyph unicode="&#xb0;" glyph-name="degree" horiz-adv-x="186" d="M 189 545 L 174 551 L 163 560 L 148 589 L 146 626 L 156 663 L 171 691 L 190 713 L 207 729 L 230 737 L 249 727 L 266 697 L 269 658 L 264 625 L 251 596 L 230 569 L 211 554 L 189 545" />
<glyph unicode="&#xb1;" glyph-name="plusminus" horiz-adv-x="577" d="M 554 45.4 L 668 47.9 L 753 65.5 M 559 421 L 900 421 M 731 592 L 731 247" />
<glyph unicode="&#xb2;" glyph-name="twosuperior" horiz-adv-x="274" d="M 187 784 L 227 803 L 269 810 L 299 795 L 307 758 L 293 713 L 255 668 L 209 625 L 165 589 L 208 589 L 282 592 L 302 591 L 313 592 L 335 606" />
<glyph unicode="&#xb3;" glyph-name="threesuperior" horiz-adv-x="268" d="M 184 781 L 225 802 L 271 805 L 291 786 L 301 754 L 290 723 L 265 698 L 235 677 L 268 674 L 291 657 L 301 628 L 298 597 L 282 570 L 254 545 L 214 540 L 173 547 L 142 559" />
<glyph unicode="&#xb4;" glyph-name="acute" horiz-adv-x="378" d=" M 306 776 L 300 738 L 281 690 L 259 656 L 237 627" />
<glyph unicode="&#xb7;" glyph-name="middot" horiz-adv-x="480" d="M 299 416 L 257 374 L 302 325 L 344 363 L 299 416" />
<glyph unicode="&#xb9;" glyph-name="onesuperior" horiz-adv-x="219" d="M 186 767 L 250 814 L 216 589" />
<glyph unicode="&#xba;" glyph-name="ordmasculine" horiz-adv-x="186" d="M 189 545 L 174 551 L 163 560 L 148 589 L 146 626 L 156 663 L 171 691 L 190 713 L 207 729 L 230 737 L 249 727 L 266 697 L 269 658 L 264 625 L 251 596 L 230 569 L 211 554 L 189 545" />
<glyph unicode="&#xbb;" glyph-name="guillemotright" horiz-adv-x="435" d="M 59.2 25.2 L 132 95.8 L 209 186 L 145 265 L 65.5 333 M 185 25.2 L 258 95.8 L 335 186 L 271 265 L 192 333" />
<glyph unicode="&#xbc;" glyph-name="onequarter" horiz-adv-x="543" d="M 71.8 599 L 149 656 L 108 386 M 586 743 L 441 337 L 287 -44.1 M 639 -73.7 L 692 276 L 644 219 L 603 140 L 544 69.9 L 507 17 L 650 17 L 699 20.8 L 741 32.1" />
<glyph unicode="&#xbd;" glyph-name="onehalf" horiz-adv-x="532" d="M 71.8 599 L 149 656 L 108 386 M 586 743 L 441 337 L 287 -44.1 M 546 242 L 593 265 L 644 272 L 680 255 L 690 210 L 673 157 L 627 102 L 573 51 L 520 7.56 L 571 7.56 L 660 11.3 L 684 9.45 L 697 11.3 L 724 28.3" />
<glyph unicode="&#xbe;" glyph-name="threequarters" horiz-adv-x="595" d="M 69.9 616 L 119 641 L 174 644 L 198 622 L 210 584 L 197 546 L 166 516 L 130 491 L 170 488 L 198 467 L 210 433 L 206 395 L 187 363 L 153 333 L 106 327 L 56.7 335 L 18.9 350 M 586 743 L 441 337 L 287 -44.1 M 639 -73.7 L 692 276 L 644 219 L 603 140 L 544 69.9 L 507 17 L 650 17 L 699 20.8 L 741 32.1" />
<glyph unicode="&#xbf;" glyph-name="questiondown" horiz-adv-x="558" d="M 391 655 L 425 690 L 381 734 L 350 702 L 391 655 M 410 558 L 422 482 L 394 410 L 321 334 L 246 265 L 192 195 L 164 107 L 176 41 L 220 2.84e-14 L 296 3.15 L 356 37.8" />
<glyph unicode="&#xc0;" glyph-name="Agrave" horiz-adv-x="769" d="M 18.9 9.45 L 104 9.45 L 151 31.5 L 205 81.9 L 526 662 L 353 662 L 246 621 L 183 551 L 161 485 L 154 406 M 539 665 L 526 284 L 324 284 L 526 284 L 529 129 L 542 50.4 L 573 12.6 L 598 6.3 L 665 40.9 M 323 924 L 348 877 L 402 827" />
<glyph unicode="&#xc1;" glyph-name="Aacute" horiz-adv-x="769" d="M 18.9 9.45 L 104 9.45 L 151 31.5 L 205 81.9 L 526 662 L 353 662 L 246 621 L 183 551 L 161 485 L 154 406 M 539 665 L 526 284 L 324 284 L 526 284 L 529 129 L 542 50.4 L 573 12.6 L 598 6.3 L 665 40.9 M 583 991 L 577 953 L 558 906 L 536 871 L 514 843" />
<glyph unicode="&#xc2;" glyph-name="Acircumflex" horiz-adv-x="769" d="M 18.9 9.45 L 104 9.45 L 151 31.5 L 205 81.9 L 526 662 L 353 662 L 246 621 L 183 551 L 161 485 L 154 406 M 539 665 L 526 284 L 324 284 L 526 284 L 529 129 L 542 50.4 L 573 12.6 L 598 6.3 L 665 40.9 M 403 763 L 512 850 L 628 763" />
<glyph unicode="&#xc3;" glyph-name="Atilde" horiz-adv-x="769" d="M 18.9 9.45 L 104 9.45 L 151 31.5 L 205 81.9 L 526 662 L 353 662 L 246 621 L 183 551 L 161 485 L 154 406 M 539 665 L 526 284 L 324 284 L 526 284 L 529 129 L 542 50.4 L 573 12.6 L 598 6.3 L 665 40.9 M 273 818 L 326 847 L 375 858 L 428 847 L 485 829 L 527 813 L 576 811 L 629 836" />
<glyph unicode="&#xc4;" glyph-name="Adieresis" horiz-adv-x="769" d="M 18.9 9.45 L 104 9.45 L 151 31.5 L 205 81.9 L 526 662 L 353 662 L 246 621 L 183 551 L 161 485 L 154 406 M 539 665 L 526 284 L 324 284 L 526 284 L 529 129 L 542 50.4 L 573 12.6 L 598 6.3 L 665 40.9 M 319 973 L 285 938 L 323 897 L 357 928 L 319 973 M 612 966 L 577 931 L 615 890 L 650 922 L 612 966" />
<glyph unicode="&#xc5;" glyph-name="Aring" horiz-adv-x="769" d="M 18.9 9.45 L 104 9.45 L 151 31.5 L 205 81.9 L 526 662 L 353 662 L 246 621 L 183 551 L 161 485 L 154 406 M 539 665 L 526 284 L 324 284 L 526 284 L 529 129 L 542 50.4 L 573 12.6 L 598 6.3 L 665 40.9 M 486 857 L 471 863 L 460 872 L 445 901 L 443 937 L 453 975 L 468 1002.6 L 487 1024.4 L 504 1040.4 L 526 1048.9 L 545 1038.6 L 562 1009.3 L 566 970 L 560 936 L 548 908 L 526 881 L 507 866 L 486 857" />
<glyph unicode="&#xc8;" glyph-name="Egrave" horiz-adv-x="677" d="M 75.6 403 L 97.6 536 L 129 586 L 180 633 L 249 658 L 598 658 L 343 658 L 309 517 L 290 384 L 510 384 L 287 384 L 268 246 L 249 145 L 214 72.4 L 195 37.8 L 158 9.45 L 202 31.5 L 495 28.4 L 554 66.1 M 292 921 L 317 874 L 371 824" />
<glyph unicode="&#xc9;" glyph-name="Eacute" horiz-adv-x="677" d="M 75.6 403 L 97.6 536 L 129 586 L 180 633 L 249 658 L 598 658 L 343 658 L 309 517 L 290 384 L 510 384 L 287 384 L 268 246 L 249 145 L 214 72.4 L 195 37.8 L 158 9.45 L 202 31.5 L 495 28.4 L 554 66.1 M 564 988 L 558 950 L 539 903 L 517 868 L 495 840" />
<glyph unicode="&#xca;" glyph-name="Ecircumflex" horiz-adv-x="677" d="M 75.6 403 L 97.6 536 L 129 586 L 180 633 L 249 658 L 598 658 L 343 658 L 309 517 L 290 384 L 510 384 L 287 384 L 268 246 L 249 145 L 214 72.4 L 195 37.8 L 158 9.45 L 202 31.5 L 495 28.4 L 554 66.1 M 314 825 L 430 919 L 555 825" />
<glyph unicode="&#xcb;" glyph-name="Edieresis" horiz-adv-x="677" d="M 75.6 403 L 97.6 536 L 129 586 L 180 633 L 249 658 L 598 658 L 343 658 L 309 517 L 290 384 L 510 384 L 287 384 L 268 246 L 249 145 L 214 72.4 L 195 37.8 L 158 9.45 L 202 31.5 L 495 28.4 L 554 66.1 M 282 946 L 248 911 L 286 870 L 320 902 L 282 946 M 588 932 L 553 897 L 591 856 L 626 888 L 588 932" />
<glyph unicode="&#xcc;" glyph-name="Igrave" horiz-adv-x="457" d="M 28.4 400 L 28.4 482 L 63 564 L 120 627 L 189 662 L 255 665 L 340 668 L 321 662 L 290 539 L 255 350 L 233 195 L 217 120 L 189 72.4 L 154 31.5 L 126 0 L 158 25.2 L 315 22.1 L 372 69.3 M 177 906 L 202 859 L 256 809" />
<glyph unicode="&#xcd;" glyph-name="Iacute" horiz-adv-x="457" d="M 28.4 400 L 28.4 482 L 63 564 L 120 627 L 189 662 L 255 665 L 340 668 L 321 662 L 290 539 L 255 350 L 233 195 L 217 120 L 189 72.4 L 154 31.5 L 126 0 L 158 25.2 L 315 22.1 L 372 69.3 M 450 1022.7 L 444 985 L 425 938 L 403 903 L 381 875" />
<glyph unicode="&#xce;" glyph-name="Icircumflex" horiz-adv-x="457" d="M 28.4 400 L 28.4 482 L 63 564 L 120 627 L 189 662 L 255 665 L 340 668 L 321 662 L 290 539 L 255 350 L 233 195 L 217 120 L 189 72.4 L 154 31.5 L 126 0 L 158 25.2 L 315 22.1 L 372 69.3 M 194 800 L 306 890 L 425 800" />
<glyph unicode="&#xcf;" glyph-name="Idieresis" horiz-adv-x="457" d="M 28.4 400 L 28.4 482 L 63 564 L 120 627 L 189 662 L 255 665 L 340 668 L 321 662 L 290 539 L 255 350 L 233 195 L 217 120 L 189 72.4 L 154 31.5 L 126 0 L 158 25.2 L 315 22.1 L 372 69.3 M 220 963 L 186 928 L 223 887 L 258 919 L 220 963 M 443 934 L 408 900 L 446 859 L 481 890 L 443 934" />
<glyph unicode="&#xd0;" glyph-name="Eth" horiz-adv-x="696" d="M 189 293 L 331 296 L 438 318 M 107 353 L 120 469 L 192 589 L 287 643 L 384 668 L 504 662 L 602 624 L 671 520 L 680 397 L 652 268 L 595 167 L 520 78.8 L 438 40.9 L 369 22.1 L 217 28.4 L 195 18.9 L 236 56.7 L 280 135 L 375 655" />
<glyph unicode="&#xd1;" glyph-name="Ntilde" horiz-adv-x="728" d="M 63 406 L 75.6 504 L 113 592 L 173 646 L 246 665 L 381 665 M 94.5 25.2 L 173 25.2 L 217 50.4 L 255 107 L 271 186 L 293 315 L 353 665 L 384 662 L 441 498 L 576 75.6 L 586 47.2 L 573 9.45 L 608 72.4 L 630 158 L 696 523 L 706 598 L 734 665 L 753 677 L 712 665 L 602 665 M 359 864 L 416 894 L 468 906 L 524 894 L 585 875 L 630 859 L 682 856 L 739 882" />
<glyph unicode="&#xd2;" glyph-name="Ograve" horiz-adv-x="517" d="M 220 22.1 L 170 40.9 L 135 72.4 L 85 167 L 78.8 290 L 110 416 L 161 507 L 224 580 L 280 633 L 356 662 L 419 627 L 476 529 L 488 397 L 469 287 L 428 192 L 356 101 L 293 50.4 L 220 22.1 M 198 911 L 223 864 L 277 813" />
<glyph unicode="&#xd3;" glyph-name="Oacute" horiz-adv-x="517" d="M 220 22.1 L 170 40.9 L 135 72.4 L 85 167 L 78.8 290 L 110 416 L 161 507 L 224 580 L 280 633 L 356 662 L 419 627 L 476 529 L 488 397 L 469 287 L 428 192 L 356 101 L 293 50.4 L 220 22.1 M 466 1004.6 L 459 967 L 440 920 L 418 885 L 396 857" />
<glyph unicode="&#xd4;" glyph-name="Ocircumflex" horiz-adv-x="517" d="M 220 22.1 L 170 40.9 L 135 72.4 L 85 167 L 78.8 290 L 110 416 L 161 507 L 224 580 L 280 633 L 356 662 L 419 627 L 476 529 L 488 397 L 469 287 L 428 192 L 356 101 L 293 50.4 L 220 22.1 M 250 847 L 370 943 L 497 847" />
<glyph unicode="&#xd5;" glyph-name="Otilde" horiz-adv-x="517" d="M 220 22.1 L 170 40.9 L 135 72.4 L 85 167 L 78.8 290 L 110 416 L 161 507 L 224 580 L 280 633 L 356 662 L 419 627 L 476 529 L 488 397 L 469 287 L 428 192 L 356 101 L 293 50.4 L 220 22.1 M 179 780 L 230 808 L 277 819 L 329 808 L 384 791 L 425 776 L 472 774 L 523 797" />
<glyph unicode="&#xd6;" glyph-name="Odieresis" horiz-adv-x="517" d="M 220 22.1 L 170 40.9 L 135 72.4 L 85 167 L 78.8 290 L 110 416 L 161 507 L 224 580 L 280 633 L 356 662 L 419 627 L 476 529 L 488 397 L 469 287 L 428 192 L 356 101 L 293 50.4 L 220 22.1 M 241 950 L 206 915 L 244 874 L 279 906 L 241 950 M 441 928 L 406 894 L 444 853 L 479 884 L 441 928" />
<glyph unicode="&#xd7;" glyph-name="multiply" horiz-adv-x="428" d="M 59.9 394 L 110 435 L 151 457 L 296 6.3 L 346 34.6 L 378 72.4 M 28.4 15.8 L 75.6 22.1 L 101 44.1 L 135 88.2 L 252 274 L 321 403 L 356 435 L 406 444" />
<glyph unicode="&#xd8;" glyph-name="Oslash" horiz-adv-x="517" d="M 220 22.1 L 170 40.9 L 135 72.4 L 85 167 L 78.8 290 L 110 416 L 161 507 L 224 580 L 280 633 L 356 662 L 419 627 L 476 529 L 488 397 L 469 287 L 428 192 L 356 101 L 293 50.4 L 220 22.1 M 429 769 L 272 330 L 105 -81.6" />
<glyph unicode="&#xd9;" glyph-name="Ugrave" horiz-adv-x="813" d="M 34.6 400 L 34.6 485 L 66.1 564 L 123 633 L 176 658 L 299 662 L 350 665 L 334 658 L 293 529 L 265 315 L 246 142 L 268 53.6 L 302 25.2 L 356 25.2 L 416 63 L 482 158 L 526 233 L 567 309 L 583 337 L 646 649 L 665 665 L 646 646 L 570 284 L 558 148 L 567 81.9 L 598 34.6 L 630 28.4 L 671 25.2 L 709 63 M 346 910 L 371 863 L 424 812" />
<glyph unicode="&#xda;" glyph-name="Uacute" horiz-adv-x="813" d="M 34.6 400 L 34.6 485 L 66.1 564 L 123 633 L 176 658 L 299 662 L 350 665 L 334 658 L 293 529 L 265 315 L 246 142 L 268 53.6 L 302 25.2 L 356 25.2 L 416 63 L 482 158 L 526 233 L 567 309 L 583 337 L 646 649 L 665 665 L 646 646 L 570 284 L 558 148 L 567 81.9 L 598 34.6 L 630 28.4 L 671 25.2 L 709 63 M 625 1027.5 L 619 990 L 600 942 L 578 908 L 556 879" />
<glyph unicode="&#xdb;" glyph-name="Ucircumflex" horiz-adv-x="813" d="M 34.6 400 L 34.6 485 L 66.1 564 L 123 633 L 176 658 L 299 662 L 350 665 L 334 658 L 293 529 L 265 315 L 246 142 L 268 53.6 L 302 25.2 L 356 25.2 L 416 63 L 482 158 L 526 233 L 567 309 L 583 337 L 646 649 L 665 665 L 646 646 L 570 284 L 558 148 L 567 81.9 L 598 34.6 L 630 28.4 L 671 25.2 L 709 63 M 353 784 L 465 873 L 583 784" />
<glyph unicode="&#xdc;" glyph-name="Udieresis" horiz-adv-x="813" d="M 34.6 400 L 34.6 485 L 66.1 564 L 123 633 L 176 658 L 299 662 L 350 665 L 334 658 L 293 529 L 265 315 L 246 142 L 268 53.6 L 302 25.2 L 356 25.2 L 416 63 L 482 158 L 526 233 L 567 309 L 583 337 L 646 649 L 665 665 L 646 646 L 570 284 L 558 148 L 567 81.9 L 598 34.6 L 630 28.4 L 671 25.2 L 709 63 M 373 924 L 338 889 L 376 848 L 411 880 L 373 924 M 621 954 L 586 919 L 624 878 L 659 910 L 621 954" />
<glyph unicode="&#xdd;" glyph-name="Yacute" horiz-adv-x="699" d="M 41 454 L 56.7 545 L 91.4 621 L 135 662 L 211 665 L 252 624 L 290 510 L 321 403 L 359 261 L 394 151 M 554 649 L 627 646 L 639 621 L 608 542 L 413 186 L 318 18.9 L 227 -94.5 L 170 -135 L 120 -139 L 15.8 -81.9 M 556 987 L 549 949 L 530 902 L 508 867 L 486 839" />
<glyph unicode="&#xe0;" glyph-name="agrave" horiz-adv-x="413" d="M 271 425 L 161 432 L 81.9 397 L 25.2 296 L 3.15 167 L 3.15 66.1 L 12.6 15.8 L 72.5 75.6 L 158 195 L 211 284 L 252 369 L 271 413 L 227 217 L 205 120 L 198 66.1 L 192 12.6 L 255 53.6 L 365 186 L 413 252 M 64.8 676 L 90 628 L 144 578" />
<glyph unicode="&#xe1;" glyph-name="aacute" horiz-adv-x="413" d="M 271 425 L 161 432 L 81.9 397 L 25.2 296 L 3.15 167 L 3.15 66.1 L 12.6 15.8 L 72.5 75.6 L 158 195 L 211 284 L 252 369 L 271 413 L 227 217 L 205 120 L 198 66.1 L 192 12.6 L 255 53.6 L 365 186 L 413 252 M 328 742 L 321 704 L 302 657 L 280 623 L 258 594" />
<glyph unicode="&#xe2;" glyph-name="acircumflex" horiz-adv-x="413" d="M 271 425 L 161 432 L 81.9 397 L 25.2 296 L 3.15 167 L 3.15 66.1 L 12.6 15.8 L 72.5 75.6 L 158 195 L 211 284 L 252 369 L 271 413 L 227 217 L 205 120 L 198 66.1 L 192 12.6 L 255 53.6 L 365 186 L 413 252 M 52.5 568 L 166 658 L 286 568" />
<glyph unicode="&#xe3;" glyph-name="atilde" horiz-adv-x="413" d="M 271 425 L 161 432 L 81.9 397 L 25.2 296 L 3.15 167 L 3.15 66.1 L 12.6 15.8 L 72.5 75.6 L 158 195 L 211 284 L 252 369 L 271 413 L 227 217 L 205 120 L 198 66.1 L 192 12.6 L 255 53.6 L 365 186 L 413 252 M 15 550 L 64.5 577 L 110 587 L 159 577 L 213 561 L 252 546 L 297 544 L 347 567" />
<glyph unicode="&#xe4;" glyph-name="adieresis" horiz-adv-x="413" d="M 271 425 L 161 432 L 81.9 397 L 25.2 296 L 3.15 167 L 3.15 66.1 L 12.6 15.8 L 72.5 75.6 L 158 195 L 211 284 L 252 369 L 271 413 L 227 217 L 205 120 L 198 66.1 L 192 12.6 L 255 53.6 L 365 186 L 413 252 M 156 733 L 122 698 L 159 657 L 194 689 L 156 733 M 393 745 L 358 711 L 396 670 L 431 701 L 393 745" />
<glyph unicode="&#xe5;" glyph-name="aring" horiz-adv-x="413" d="M 271 425 L 161 432 L 81.9 397 L 25.2 296 L 3.15 167 L 3.15 66.1 L 12.6 15.8 L 72.5 75.6 L 158 195 L 211 284 L 252 369 L 271 413 L 227 217 L 205 120 L 198 66.1 L 192 12.6 L 255 53.6 L 365 186 L 413 252 M 161 621 L 146 627 L 135 636 L 120 664 L 118 701 L 128 739 L 143 766 L 162 788 L 179 804 L 201 813 L 220 802 L 237 773 L 241 733 L 235 700 L 223 672 L 201 644 L 182 629 L 161 621" />
<glyph unicode="&#xe8;" glyph-name="egrave" horiz-adv-x="290" d="M 3.15 214 L 72.5 258 L 158 343 L 189 387 L 198 435 L 180 454 L 139 457 L 72.5 413 L 22 340 L -6.3 233 L -18.9 148 L -3.15 78.8 L 31.5 28.4 L 63 -3.15 L 170 107 L 239 186 L 287 255 M 6.58 689 L 31.8 641 L 85.3 591" />
<glyph unicode="&#xe9;" glyph-name="eacute" horiz-adv-x="290" d="M 3.15 214 L 72.5 258 L 158 343 L 189 387 L 198 435 L 180 454 L 139 457 L 72.5 413 L 22 340 L -6.3 233 L -18.9 148 L -3.15 78.8 L 31.5 28.4 L 63 -3.15 L 170 107 L 239 186 L 287 255 M 280 779 L 274 741 L 255 694 L 233 659 L 211 631" />
<glyph unicode="&#xea;" glyph-name="ecircumflex" horiz-adv-x="290" d="M 3.15 214 L 72.5 258 L 158 343 L 189 387 L 198 435 L 180 454 L 139 457 L 72.5 413 L 22 340 L -6.3 233 L -18.9 148 L -3.15 78.8 L 31.5 28.4 L 63 -3.15 L 170 107 L 239 186 L 287 255 M 15 557 L 124 644 L 240 557" />
<glyph unicode="&#xeb;" glyph-name="edieresis" horiz-adv-x="290" d="M 3.15 214 L 72.5 258 L 158 343 L 189 387 L 198 435 L 180 454 L 139 457 L 72.5 413 L 22 340 L -6.3 233 L -18.9 148 L -3.15 78.8 L 31.5 28.4 L 63 -3.15 L 170 107 L 239 186 L 287 255 M 99.9 693 L 65.3 659 L 103 618 L 138 649 L 99.9 693 M 327 707 L 292 672 L 330 631 L 364 663 L 327 707" />
<glyph unicode="&#xec;" glyph-name="igrave" horiz-adv-x="195" d="M -34.6 384 L 15.8 432 L 41 444 L -3.15 180 L -22.1 88.2 L -22.1 12.6 L 53.5 78.8 L 113 145 L 198 255  M -43 678 L -17.8 631 L 35.7 580" />
<glyph unicode="&#xed;" glyph-name="iacute" horiz-adv-x="195" d="M -34.6 384 L 15.8 432 L 41 444 L -3.15 180 L -22.1 88.2 L -22.1 12.6 L 53.5 78.8 L 113 145 L 198 255  M 211 737 L 205 700 L 186 652 L 164 618 L 142 589" />
<glyph unicode="&#xee;" glyph-name="icircumflex" horiz-adv-x="195" d="M -34.6 384 L 15.8 432 L 41 444 L -3.15 180 L -22.1 88.2 L -22.1 12.6 L 53.5 78.8 L 113 145 L 198 255  M -21.9 593 L 93.2 685 L 216 593" />
<glyph unicode="&#xef;" glyph-name="idieresis" horiz-adv-x="195" d="M -34.6 384 L 15.8 432 L 41 444 L -3.15 180 L -22.1 88.2 L -22.1 12.6 L 53.5 78.8 L 113 145 L 198 255  M 60.8 695 L 26.2 660 L 64 619 L 98.6 651 L 60.8 695 M 300 733 L 265 699 L 303 658 L 337 689 L 300 733" />
<glyph unicode="&#xf1;" glyph-name="ntilde" horiz-adv-x="447" d="M -3.15 391 L 56.7 441 L 85 460 L 69.3 384 L 50.4 252 L 31.5 161 L 18.9 75.6 L 12.6 22.1 L 15.8 6.3 L 12.6 72.4 L 78.8 164 L 129 261 L 186 343 L 246 413 L 277 450 L 293 450 L 302 384 L 277 261 L 255 167 L 236 94.5 L 220 3.15 L 277 50.4 L 359 135 L 403 198 L 447 255 M 32.2 565 L 83.5 593 L 131 604 L 182 593 L 238 576 L 278 561 L 325 559 L 377 582" />
<glyph unicode="&#xf2;" glyph-name="ograve" horiz-adv-x="315" d="M 53.5 3.15 L 66.1 3.15 L 123 31.5 L 176 91.4 L 224 180 L 249 271 L 243 359 L 214 406 L 192 450 L 97.6 406 L 37.8 328 L -3.15 239 L -9.45 161 L 3.15 81.9 L 22 44.1 L 53.5 3.15 M -1.67 687 L 23.5 639 L 77.1 589" />
<glyph unicode="&#xf3;" glyph-name="oacute" horiz-adv-x="315" d="M 53.5 3.15 L 66.1 3.15 L 123 31.5 L 176 91.4 L 224 180 L 249 271 L 243 359 L 214 406 L 192 450 L 97.6 406 L 37.8 328 L -3.15 239 L -9.45 161 L 3.15 81.9 L 22 44.1 L 53.5 3.15 M 268 768 L 262 730 L 243 683 L 221 648 L 199 620" />
<glyph unicode="&#xf4;" glyph-name="ocircumflex" horiz-adv-x="315" d="M 53.5 3.15 L 66.1 3.15 L 123 31.5 L 176 91.4 L 224 180 L 249 271 L 243 359 L 214 406 L 192 450 L 97.6 406 L 37.8 328 L -3.15 239 L -9.45 161 L 3.15 81.9 L 22 44.1 L 53.5 3.15 M 16.5 587 L 130 678 L 252 587" />
<glyph unicode="&#xf5;" glyph-name="otilde" horiz-adv-x="315" d="M 53.5 3.15 L 66.1 3.15 L 123 31.5 L 176 91.4 L 224 180 L 249 271 L 243 359 L 214 406 L 192 450 L 97.6 406 L 37.8 328 L -3.15 239 L -9.45 161 L 3.15 81.9 L 22 44.1 L 53.5 3.15 M 5.02 583 L 58.5 612 L 107 623 L 161 612 L 219 594 L 261 578 L 310 576 L 364 601" />
<glyph unicode="&#xf6;" glyph-name="odieresis" horiz-adv-x="315" d="M 53.5 3.15 L 66.1 3.15 L 123 31.5 L 176 91.4 L 224 180 L 249 271 L 243 359 L 214 406 L 192 450 L 97.6 406 L 37.8 328 L -3.15 239 L -9.45 161 L 3.15 81.9 L 22 44.1 L 53.5 3.15 M 72.7 709 L 38.1 674 L 75.9 633 L 111 664 L 72.7 709 M 332 698 L 297 664 L 335 623 L 370 654 L 332 698" />
<glyph unicode="&#xf7;" glyph-name="divide" horiz-adv-x="805" d="M 439 428 L 433 381 L 477 381 L 483 425 L 439 428 M 446 145 L 440 97.6 L 484 97.6 L 490 142 L 446 145 M 258 258 L 270 258 L 448 277 L 571 271 L 694 287" />
<glyph unicode="&#xf8;" glyph-name="oslash" horiz-adv-x="315" d="M 53.5 3.15 L 66.1 3.15 L 123 31.5 L 176 91.4 L 224 180 L 249 271 L 243 359 L 214 406 L 192 450 L 97.6 406 L 37.8 328 L -3.15 239 L -9.45 161 L 3.15 81.9 L 22 44.1 L 53.5 3.15 M 234 520 L 132 236 L 24.3 -30.9" />
<glyph unicode="&#xf9;" glyph-name="ugrave" horiz-adv-x="394" d="M -47.2 397 L 18.9 444 L 37.8 457 L 9.45 331 L -3.15 211 L -12.6 139 L -12.6 47.2 L -12.6 12.6 L 41 63 L 113 158 L 161 246 L 211 346 L 255 447 L 224 321 L 198 192 L 183 85.1 L 176 9.45 L 252 72.4 L 324 161 L 397 255 M 45.8 682 L 71 635 L 125 584" />
<glyph unicode="&#xfa;" glyph-name="uacute" horiz-adv-x="394" d="M -47.2 397 L 18.9 444 L 37.8 457 L 9.45 331 L -3.15 211 L -12.6 139 L -12.6 47.2 L -12.6 12.6 L 41 63 L 113 158 L 161 246 L 211 346 L 255 447 L 224 321 L 198 192 L 183 85.1 L 176 9.45 L 252 72.4 L 324 161 L 397 255 M 311 769 L 305 732 L 286 684 L 264 650 L 242 621" />
<glyph unicode="&#xfb;" glyph-name="ucircumflex" horiz-adv-x="394" d="M -47.2 397 L 18.9 444 L 37.8 457 L 9.45 331 L -3.15 211 L -12.6 139 L -12.6 47.2 L -12.6 12.6 L 41 63 L 113 158 L 161 246 L 211 346 L 255 447 L 224 321 L 198 192 L 183 85.1 L 176 9.45 L 252 72.4 L 324 161 L 397 255 M 65 576 L 177 665 L 296 576" />
<glyph unicode="&#xfc;" glyph-name="udieresis" horiz-adv-x="394" d="M -47.2 397 L 18.9 444 L 37.8 457 L 9.45 331 L -3.15 211 L -12.6 139 L -12.6 47.2 L -12.6 12.6 L 41 63 L 113 158 L 161 246 L 211 346 L 255 447 L 224 321 L 198 192 L 183 85.1 L 176 9.45 L 252 72.4 L 324 161 L 397 255 M 105 747 L 70.3 713 L 108 672 L 143 703 L 105 747 M 378 752 L 343 718 L 381 677 L 415 708 L 378 752" />
<glyph unicode="&#xfd;" glyph-name="yacute" horiz-adv-x="284" d="M -50.4 397 L -40.9 400 L 6.3 435 L 37.8 457 L 6.3 280 L -12.6 120 L -3.15 22.1 L 75.6 107 L 142 211 L 189 299 L 252 441 L 220 293 L 192 81.9 L 167 -56.7 L 139 -120 L 101 -154 L 44.1 -173 L -59.9 -164 M 252 738 L 246 701 L 227 653 L 205 619 L 183 590" />
<glyph unicode="&#xff;" glyph-name="ydieresis" horiz-adv-x="284" d="M -50.4 397 L -40.9 400 L 6.3 435 L 37.8 457 L 6.3 280 L -12.6 120 L -3.15 22.1 L 75.6 107 L 142 211 L 189 299 L 252 441 L 220 293 L 192 81.9 L 167 -56.7 L 139 -120 L 101 -154 L 44.1 -173 L -59.9 -164 M 77 731 L 42.4 696 L 80.2 655 L 115 687 L 77 731 M 359 710 L 325 676 L 362 635 L 397 666 L 359 710" />
<glyph unicode="&#x2013;" glyph-name="endash" horiz-adv-x="770" d="M 189 293 L 402 296 L 562 318" />
<glyph unicode="&#x2014;" glyph-name="emdash" horiz-adv-x="1026.9" d="M 252 293 L 536 296 L 750 318" />
<glyph unicode="&#x201c;" glyph-name="quotedblleft" horiz-adv-x="472" d="M 72.3 706 L 75.1 680 L 85.1 646 L 109 598 M 214 706 L 217 680 L 227 646 L 251 598" />
<glyph unicode="&#x201d;" glyph-name="quotedblright" horiz-adv-x="472" d="M 196 717 L 193 683 L 184 641 L 174 610 L 164 584 M 337 717 L 335 683 L 326 641 L 316 610 L 306 584" />
<glyph unicode="&#x2039;" glyph-name="guilsinglleft" horiz-adv-x="310" d="M 224 333 L 146 270 L 78.1 189 L 165 85.7 L 232 22.7" />
<glyph unicode="&#x203a;" glyph-name="guilsinglright" horiz-adv-x="290" d="M 59.2 25.2 L 132 95.8 L 209 186 L 145 265 L 65.5 333" />
<glyph unicode="&#x20ac;" glyph-name="Euro" horiz-adv-x="592" d="M 545 639 L 450 668 L 306 624 L 211 507 L 154 391 L 129 284 L 132 183 L 183 75.6 L 236 18.9 L 324 6.3 L 381 40.9 L 460 110 M 126 230 L 268 233 L 375 255 M 126 356 L 268 359 L 375 381" />
<glyph unicode="&#x0178;" glyph-name="Ydieresis" horiz-adv-x="699" d="M 41 454 L 56.7 545 L 91.4 621 L 135 662 L 211 665 L 252 624 L 290 510 L 321 403 L 359 261 L 394 151 M 554 649 L 627 646 L 639 621 L 608 542 L 413 186 L 318 18.9 L 227 -94.5 L 170 -135 L 120 -139 L 15.8 -81.9 M 326 942 L 292 907 L 329 867 L 364 898 L 326 942 M 587 963 L 552 929 L 590 888 L 624 919 L 587 963" />
<glyph unicode="&#x102;" glyph-name="Abreve" horiz-adv-x="769" d="M 18.9 9.45 L 104 9.45 L 151 31.5 L 205 81.9 L 526 662 L 353 662 L 246 621 L 183 551 L 161 485 L 154 406 M 539 665 L 526 284 L 324 284 L 526 284 L 529 129 L 542 50.4 L 573 12.6 L 598 6.3 L 665 40.9 M360.491 917.383C360.491 917.383 361.178 823.001 462.445 823.477C563.712 823.952 618.509 918.446 618.509 918.446" />
<glyph unicode="&#x114;" glyph-name="Ebreve" horiz-adv-x="677" d="M 75.6 403 L 97.6 536 L 129 586 L 180 633 L 249 658 L 598 658 L 343 658 L 309 517 L 290 384 L 510 384 L 287 384 L 268 246 L 249 145 L 214 72.4 L 195 37.8 L 158 9.45 L 202 31.5 L 495 28.4 L 554 66.1 M331.491 923.022C331.491 923.022 332.178 828.64 433.445 829.115C534.712 829.591 589.509 924.085 589.509 924.085" />
<glyph unicode="&#x11E;" glyph-name="Gbreve" horiz-adv-x="602" d="M 570 662 L 447 684 L 334 655 L 230 573 L 167 472 L 117 359 L 104 252 L 120 123 L 173 44.1 L 246 12.6 L 328 31.5 L 400 91.4 L 444 139 M 359 369 L 491 369 L 466 296 L 432 72.4 L 406 -9.45 L 369 -78.8 L 331 -132 L 296 -167 L 495 -167 M307.491 905.088C307.491 905.088 308.178 810.706 409.445 811.182C510.712 811.657 565.509 906.151 565.509 906.151" />
<glyph unicode="&#x12C;" glyph-name="Ibreve" horiz-adv-x="457" d="M 28.4 400 L 28.4 482 L 63 564 L 120 627 L 189 662 L 255 665 L 340 668 L 321 662 L 290 539 L 255 350 L 233 195 L 217 120 L 189 72.4 L 154 31.5 L 126 0 L 158 25.2 L 315 22.1 L 372 69.3 M261.491 917.775C261.491 917.775 262.178 823.392 363.445 823.868C464.712 824.344 519.509 918.838 519.509 918.838" />
<glyph unicode="&#x14E;" glyph-name="Obreve" horiz-adv-x="517" d="M 220 22.1 L 170 40.9 L 135 72.4 L 85 167 L 78.8 290 L 110 416 L 161 507 L 224 580 L 280 633 L 356 662 L 419 627 L 476 529 L 488 397 L 469 287 L 428 192 L 356 101 L 293 50.4 L 220 22.1 M280.491 921.888C280.491 921.888 281.178 827.506 382.445 827.981C483.712 828.457 538.509 922.951 538.509 922.951" />
<glyph unicode="&#x16C;" glyph-name="Ubreve" horiz-adv-x="813" d="M 34.6 400 L 34.6 485 L 66.1 564 L 123 633 L 176 658 L 299 662 L 350 665 L 334 658 L 293 529 L 265 315 L 246 142 L 268 53.6 L 302 25.2 L 356 25.2 L 416 63 L 482 158 L 526 233 L 567 309 L 583 337 L 646 649 L 665 665 L 646 646 L 570 284 L 558 148 L 567 81.9 L 598 34.6 L 630 28.4 L 671 25.2 L 709 63 M374.491 905.582C374.491 905.582 375.178 811.2 476.445 811.676C577.712 812.151 632.509 906.645 632.509 906.645" />
<glyph unicode="&#x103;" glyph-name="abreve" horiz-adv-x="413" d="M 271 425 L 161 432 L 81.9 397 L 25.2 296 L 3.15 167 L 3.15 66.1 L 12.6 15.8 L 72.5 75.6 L 158 195 L 211 284 L 252 369 L 271 413 L 227 217 L 205 120 L 198 66.1 L 192 12.6 L 255 53.6 L 365 186 L 413 252 M127.491 692.725C127.491 692.725 128.178 598.343 229.445 598.818C330.712 599.294 385.509 693.788 385.509 693.788" />
<glyph unicode="&#x115;" glyph-name="ebreve" horiz-adv-x="290" d="M 3.15 214 L 72.5 258 L 158 343 L 189 387 L 198 435 L 180 454 L 139 457 L 72.5 413 L 22 340 L -6.3 233 L -18.9 148 L -3.15 78.8 L 31.5 28.4 L 63 -3.15 L 170 107 L 239 186 L 287 255 M88.491 695.984C88.491 695.984 89.1785 601.602 190.445 602.077C291.712 602.553 346.509 697.047 346.509 697.047" />
<glyph unicode="&#x11F;" glyph-name="gbreve" horiz-adv-x="334" d="M -63 -167 L -53.6 -167 L 34.6 -170 L 101 -151 L 142 -110 L 180 -18.9 L 236 435 L 129 438 L 75.6 410 L 25.2 350 L 0 261 L -15.8 173 L -22.1 129 L -22.1 81.9 L -15.8 15.8 L 41 59.9 L 113 158 L 170 239 L 208 328 L 236 397 M102.491 660.813C102.491 660.813 103.178 566.431 204.445 566.907C305.712 567.382 360.509 661.876 360.509 661.876" />
<glyph unicode="&#x12D;" glyph-name="ibreve" horiz-adv-x="195" d="M -34.6 384 L 15.8 432 L 41 444 L -3.15 180 L -22.1 88.2 L -22.1 12.6 L 53.5 78.8 L 113 145 L 198 255  M58.491 660.307C58.491 660.307 59.1785 565.925 160.445 566.4C261.712 566.876 316.509 661.37 316.509 661.37" />
<glyph unicode="&#x14F;" glyph-name="obreve" horiz-adv-x="315" d="M 53.5 3.15 L 66.1 3.15 L 123 31.5 L 176 91.4 L 224 180 L 249 271 L 243 359 L 214 406 L 192 450 L 97.6 406 L 37.8 328 L -3.15 239 L -9.45 161 L 3.15 81.9 L 22 44.1 L 53.5 3.15 M96.491 654.542C96.491 654.542 97.1785 560.16 198.445 560.635C299.712 561.111 354.509 655.605 354.509 655.605" />
<glyph unicode="&#x16D;" glyph-name="ubreve" horiz-adv-x="394" d="M -47.2 397 L 18.9 444 L 37.8 457 L 9.45 331 L -3.15 211 L -12.6 139 L -12.6 47.2 L -12.6 12.6 L 41 63 L 113 158 L 161 246 L 211 346 L 255 447 L 224 321 L 198 192 L 183 85.1 L 176 9.45 L 252 72.4 L 324 161 L 397 255 M121.491 669.829C121.491 669.829 122.178 575.447 223.445 575.923C324.712 576.398 379.509 670.892 379.509 670.892" />
<glyph unicode="&#xdf;" glyph-name="germandbls" horiz-adv-x="350" d="M-125.855 -55.47C-125.855 -55.47 -27.0578 -28.9285 -21.8381 22.7201C-0.337223 219.498 22.9259 269.402 56.6289 608.89C108.332 799.31 272.413 710.218 268.379 561.801C264.345 413.384 87.9056 322.862 134.719 342.043C181.532 361.224 271.456 302.575 198.596 150.904C125.735 -0.766968 21.4585 10.7089 21.4585 10.7089" />
<glyph unicode="&#x2D8;" glyph-name="breve" horiz-adv-x="772" d="M236.491 399.903C236.491 399.903 237.178 305.521 338.445 305.997C439.712 306.472 494.509 400.966 494.509 400.966" />
<glyph unicode="&#x15F;" glyph-name="scedilla" horiz-adv-x="318" d="M91.4364 -2.09206L96.0313 -17.9065C97.7504 -23.8229 99.8184 -29.777 100.866 -35.8499C102.511 -45.3899 103.96 -74.6705 99.6021 -82.3887C85.9934 -106.493 74.2161 -97.523 62.9088 -96.5463M261 435C235.323 450.08 207.237 469.714 175.809 462.349C136.073 452.731 97.509 425.192 84.3395 385.265C76.0027 354.313 91.5763 323.314 108.133 297.933C125.926 275.621 146.811 255.908 163.172 232.398C183.961 205.08 203.559 175.644 213.286 142.452C226.287 74.2067 155.186 2.18715 93.2033 -1.59811C60.6647 -2.46633 41.4318 10.1629 18.9 22.1" />
<glyph unicode="&#xC6;" glyph-name="AE" horiz-adv-x="980" d="M982.283 654.156L960.968 648.326L603 658C575.882 567.058 563.343 477.399 550 384L743.601 385.201L778.951 390.713L752.316 384.275L549.238 384C516.079 245.853 525.413 91.7516 418 9.45C573.514 32.4147 730.147 -18.0974 814 66.1M18.9 9.45C131.188 0.983543 170.891 39.6331 205 81.9L595.469 658.156L353 662C229.068 655.044 165.987 541.284 154 406M526 284L342 284" />
<glyph unicode="&#xb8;" glyph-name="cedilla" horiz-adv-x="592" d="M338.417 13.9803L338.417 -7.98921C338.417 -16.2084 339.071 -24.6057 337.682 -32.7753C335.5 -45.6091 318.749 -81.995 309.041 -91.924C297.178 -104.057 260.628 -119.353 239.274 -113.894" />
<glyph unicode="&#x130;" glyph-name="Idotaccent" horiz-adv-x="457" d="M320.1 805.017L320.1 752.017L310.7 742.017M28.4 400L28.4 482L63 564L120 627L189 662L255 665L340 668L321 662L290 539L255 350L233 195L217 120L189 72.4L154 31.5L126 7.10543e-15L158 25.2L315 22.1L372 69.3" />
<glyph unicode="&#xe7;" glyph-name="ccedilla" horiz-adv-x="309" d="M75.6 -6.3L75.6 -28.2695C75.6 -36.4887 76.2548 -44.886 74.8656 -53.0556C72.6833 -65.8893 55.9327 -102.275 46.2245 -112.204C34.3614 -124.337 -2.1884 -139.634 -23.5422 -134.174M239 435L198 457L132 444L59.9 365L31.5 302L6.3 236L3.15 161L9.45 88.2L31.5 34.6L75.6 -6.3L148 59.9L227 145L309 255" />
<glyph unicode="&#xc7;" glyph-name="Ccedilla" horiz-adv-x="592" d="M338.417 13.9803L338.417 -7.98921C338.417 -16.2084 339.071 -24.6057 337.682 -32.7753C335.5 -45.6091 318.749 -81.995 309.041 -91.924C297.178 -104.057 260.628 -119.353 239.274 -113.894M545 639L450 668L306 624L211 507L154 391L129 284L132 183L183 75.6L236 18.9L324 6.3L381 40.9L460 110" />
<glyph unicode="&#x15E;" glyph-name="Scedilla" horiz-adv-x="504" d="M198.268 7.86471C204.056 -48.8794 168.257 -128.117 99.1255 -113.976M59.9 47.2C86.2667 35.6667 104.237 19.0086 139 12.6C173.763 6.19141 224.173 7.5045 265 18.9C337.88 57.3149 381.392 161.647 368.494 229.818C355.596 297.99 298.018 342.652 257.014 394.491C223.971 434.201 181.9 480.137 173.23 524.813C164.559 569.489 175.452 615.441 207.446 635.471C279.869 684.564 359.607 672.984 435.132 657.33C442.433 655.6 449.724 653.83 457 652" />
<glyph unicode="&#xE6;" glyph-name="ae" horiz-adv-x="590" d="M271 425C104.19 443.003 67.7779 399.591 25.2 296C-17.3779 192.409 -5.05473 109.772 12.6 15.8C128.515 125.819 208.129 267.404 271 413C255.886 337.891 234.217 277.054 243.15 214C320.079 255.337 399.458 328.389 429 387C458.542 445.611 422.929 492.507 320.626 416.138C218.323 339.769 180.699 71.9696 303 -3.15001C385.868 76.2625 461.575 160.952 527 255" />
<glyph unicode="&#x131;" glyph-name="dotlessi" horiz-adv-x="195" d="M-34.6 384L15.8 432L41 444L-3.15 180L-22.1 88.2L-22.1 12.6L53.5 78.8L113 145L198 255" />
</font>
</defs>
</svg>
