<?xml version="1.0" encoding="UTF-8" ?>
<!DOCTYPE svg PUBLIC "-//W3C//DTD SVG 1.1//EN" "http://www.w3.org/Graphics/SVG/1.1/DTD/svg11.dtd" >

<svg xmlns="http://www.w3.org/2000/svg" xmlns:xlink="http://www.w3.org/1999/xlink" version="1.1">

<metadata>

Font name:               EMS Tech
License:                 SIL Open Font License http://scripts.sil.org/OFL
Created by:              Sheldon B. Michaels
SVG font conversion by:  Windell H. Oskay
A derivative of:         Architects Daughter
Designer:                Kimberly Geswein, Kimberly Geswein Fonts
Link:                    http://www.kimberlygeswein.com/
Google font page:        https://fonts.google.com/specimen/Architects+Daughter
</metadata>
<defs>
<font id="EMSTech" horiz-adv-x="378" >
<font-face
font-family="EMS Tech"
units-per-em="1000"
ascent="800"
descent="-200"
cap-height="500"
x-height="300"
/>
<missing-glyph horiz-adv-x="378" />
<glyph unicode=" " glyph-name="space" horiz-adv-x="378" />
<glyph unicode="!" glyph-name="exclam" horiz-adv-x="88.2" d="M 122 684 L 118 202 M 137 25.2 L 115 9.45" />
<glyph unicode="&#x22;" glyph-name="quotedbl" horiz-adv-x="224" d="M 142 772 L 139 589 L 148 561 M 243 772 L 239 583 L 246 564" />
<glyph unicode="#" glyph-name="numbersign" horiz-adv-x="677" d="M 249 605 L 258 104 M 447 630 L 472 110 M 91.4 444 L 375 472 L 665 485 M 123 246 L 400 284 L 665 309" />
<glyph unicode="$" glyph-name="dollar" horiz-adv-x="586" d="M 561 592 L 356 583 L 246 558 L 151 510 L 110 460 L 107 413 L 135 365 L 205 346 L 384 346 L 510 359 L 583 340 L 598 299 L 583 252 L 504 205 L 419 161 L 296 139 L 154 132 M 318 816 L 387 -53.5" />
<glyph unicode="%" glyph-name="percent" horiz-adv-x="639" d="M 224 621 L 158 605 L 142 545 L 148 510 L 176 488 L 249 491 L 306 523 L 312 583 L 284 608 L 224 621 M 595 671 L 230 15.8 M 523 151 L 501 88.2 L 523 37.8 L 570 34.6 L 617 40.9 L 674 85.1 L 674 135 L 652 161 L 598 167 L 523 151" />
<glyph unicode="&amp;" glyph-name="ampersand" horiz-adv-x="728" d="M 750 309 L 690 233 L 605 164 L 488 88.2 L 375 31.5 L 271 3.15 L 186 6.3 L 142 28.4 L 145 91.4 L 170 145 L 334 362 L 400 482 L 416 548 L 425 617 L 410 665 L 381 687 L 337 680 L 280 649 L 239 598 L 220 554 L 217 466 L 233 397 L 277 331 L 315 284 L 391 214 L 498 123 L 602 66.1 L 662 40.9 L 687 40.9" />
<glyph unicode="&apos;" glyph-name="quotesingle" horiz-adv-x="142" d="M 148 611 L 107 479" />
<glyph unicode="(" glyph-name="parenleft" horiz-adv-x="299" d="M 299 813 L 230 734 L 173 624 L 135 517 L 113 400 L 104 299 L 123 192 L 161 66.1 L 217 -34.6" />
<glyph unicode=")" glyph-name="parenright" horiz-adv-x="353" d="M 113 788 L 208 709 L 268 611 L 321 485 L 343 381 L 346 287 L 331 195 L 293 113 L 265 59.9 L 195 -18.9" />
<glyph unicode="*" glyph-name="asterisk" horiz-adv-x="536" d="M 324 419 L 410 668 L 372 428 L 573 488 L 365 397 L 416 154 L 315 359 L 176 167 L 290 406 L 135 529 L 324 444" />
<glyph unicode="+" glyph-name="plus" horiz-adv-x="551" d="M 306 479 L 318 306 L 337 126 L 346 53.6 M 101 255 L 192 274 L 302 293 L 422 309 L 558 312" />
<glyph unicode="," glyph-name="comma" horiz-adv-x="167" d="M 158 50.4 L 113 -50.4 L 85 -88.2" />
<glyph unicode="-" glyph-name="hyphen" horiz-adv-x="318" d="M 110 233 L 227 252 L 309 261" />
<glyph unicode="." glyph-name="period" horiz-adv-x="110" d="M 97.6 9.45 L 113 12.6" />
<glyph unicode="/" glyph-name="slash" horiz-adv-x="488" d="M 532 674 L 410 482 L 334 353 L 271 261 L 195 145 L 104 6.3" />
<glyph unicode="0" glyph-name="zero" horiz-adv-x="646" d="M 400 668 L 466 662 L 548 627 L 611 551 L 643 466 L 658 369 L 643 246 L 598 148 L 517 59.9 L 428 18.9 L 293 9.45 L 180 40.9 L 120 104 L 94.5 183 L 110 324 L 148 450 L 214 567 L 271 627 L 337 665 L 400 668" />
<glyph unicode="1" glyph-name="one" horiz-adv-x="239" d="M 173 671 L 154 15.8" />
<glyph unicode="2" glyph-name="two" horiz-adv-x="551" d="M 117 558 L 186 617 L 258 658 L 346 680 L 397 680 L 447 646 L 466 595 L 457 523 L 432 450 L 375 340 L 299 217 L 208 107 L 129 18.9 L 230 18.9 L 356 31.5 L 463 53.6 L 561 78.8" />
<glyph unicode="3" glyph-name="three" horiz-adv-x="523" d="M 101 608 L 139 614 L 268 658 L 362 674 L 441 677 L 488 668 L 513 633 L 510 580 L 479 529 L 391 454 L 280 378 L 186 328 L 309 378 L 416 394 L 485 369 L 513 328 L 510 265 L 457 183 L 372 104 L 284 47.2 L 176 9.45 L 139 3.15" />
<glyph unicode="4" glyph-name="four" horiz-adv-x="517" d="M 432 0 L 428 532 L 419 639 L 394 674 L 324 621 L 164 416 L 101 328 L 406 340 L 539 362" />
<glyph unicode="5" glyph-name="five" horiz-adv-x="548" d="M 580 668 L 447 627 L 318 592 L 230 583 L 126 573 L 132 677 L 110 331 L 180 337 L 299 359 L 413 362 L 495 353 L 554 293 L 564 217 L 545 151 L 469 91.4 L 372 47.2 L 261 22.1 L 113 9.45 L 113 37.8" />
<glyph unicode="6" glyph-name="six" horiz-adv-x="671" d="M 438 668 L 356 643 L 280 586 L 211 504 L 161 432 L 126 334 L 123 233 L 139 161 L 195 81.9 L 277 28.4 L 337 9.45 L 406 6.3 L 498 15.8 L 595 66.1 L 662 145 L 680 192 L 677 249 L 652 287 L 598 290 L 513 255 L 425 186 L 369 139 L 318 88.2 L 284 47.2" />
<glyph unicode="7" glyph-name="seven" horiz-adv-x="567" d="M 97.6 636 L 246 639 L 422 671 L 576 687 L 520 621 L 444 472 L 384 340 L 353 208 L 337 132 L 331 47.2" />
<glyph unicode="8" glyph-name="eight" horiz-adv-x="658" d="M 397 668 L 293 621 L 233 561 L 211 488 L 224 432 L 268 394 L 328 378 L 419 406 L 476 422 L 564 432 L 649 397 L 706 315 L 699 224 L 633 123 L 545 53.6 L 444 15.8 L 321 9.45 L 227 28.4 L 151 101 L 139 173 L 164 239 L 217 306 L 284 362 L 324 381 L 532 432 L 611 485 L 665 529 L 671 586 L 646 633 L 608 658 L 510 680 L 397 668" />
<glyph unicode="9" glyph-name="nine" horiz-adv-x="532" d="M 576 454 L 454 422 L 353 406 L 249 400 L 167 416 L 120 447 L 117 498 L 145 558 L 239 630 L 340 662 L 435 671 L 495 643 L 542 595 L 573 523 L 570 400 L 545 302 L 504 205 L 444 107 L 375 47.2 L 318 18.9" />
<glyph unicode=":" glyph-name="colon" horiz-adv-x="161" d="M 120 343 L 142 340 M 164 117 L 183 117" />
<glyph unicode=";" glyph-name="semicolon" horiz-adv-x="91.3" d="M 94.5 331 L 110 331 M 117 59.9 L 91.4 -56.7 L 72.5 -110 L 50.4 -151" />
<glyph unicode="&#x3c;" glyph-name="less" horiz-adv-x="504" d="M 463 441 L 265 284 L 195 224 L 268 167 L 391 117 L 438 97.7 L 476 78.8" />
<glyph unicode="=" glyph-name="equal" horiz-adv-x="498" d="M 132 299 L 438 337 M 139 158 L 334 186 L 460 208" />
<glyph unicode="&#x3e;" glyph-name="greater" horiz-adv-x="498" d="M 158 419 L 268 378 L 346 343 L 460 306 L 410 258 L 331 198 L 268 151 L 176 81.9" />
<glyph unicode="?" glyph-name="question" horiz-adv-x="517" d="M 94.5 646 L 195 668 L 306 680 L 384 680 L 466 655 L 520 621 L 536 576 L 529 526 L 485 482 L 428 438 L 321 365 L 214 315 L 236 290 L 299 277 L 353 277 M 321 18.9 L 346 18.9" />
<glyph unicode="@" glyph-name="at" horiz-adv-x="1137.2" d="M 718 472 L 639 485 L 513 447 L 457 391 L 441 346 L 447 296 L 491 271 L 567 293 L 646 346 L 690 387 L 718 435 L 756 378 L 810 346 L 879 356 L 936 387 L 951 425 L 945 501 L 901 580 L 838 630 L 706 680 L 551 684 L 419 646 L 321 589 L 249 523 L 189 432 L 142 337 L 126 224 L 167 117 L 265 47.2 L 387 12.6 L 513 -3.15 L 662 9.45 L 825 37.8 L 958 78.8 L 1061.6 135 L 1137.2 205" />
<glyph unicode="A" glyph-name="A" horiz-adv-x="674" d="M 107 3.15 L 227 318 L 302 526 L 356 671 L 372 668 L 432 570 L 520 391 L 583 233 L 639 94.5 L 687 9.45 M 195 243 L 312 268 L 447 309 L 561 331 L 668 356" />
<glyph unicode="B" glyph-name="B" horiz-adv-x="756" d="M 135 655 L 139 369 L 151 192 L 173 6.3 L 334 18.9 L 504 56.7 L 639 110 L 734 170 L 750 230 L 728 293 L 639 343 L 545 356 L 438 369 L 315 359 L 180 346 L 372 397 L 495 450 L 580 501 L 608 551 L 602 605 L 570 630 L 491 665 L 378 684 L 265 687 L 94.5 677" />
<glyph unicode="C" glyph-name="C" horiz-adv-x="747" d="M 580 646 L 542 680 L 447 693 L 328 655 L 220 580 L 154 485 L 120 403 L 104 312 L 101 217 L 151 129 L 214 63 L 290 28.4 L 391 15.8 L 513 34.6 L 611 85.1 L 696 151 L 756 202" />
<glyph unicode="D" glyph-name="D" horiz-adv-x="684" d="M 123 674 L 126 0 L 217 12.6 L 328 47.2 L 444 107 L 539 173 L 614 249 L 674 337 L 693 410 L 684 491 L 617 570 L 507 630 L 400 658 L 290 665 L 208 655 L 126 636" />
<glyph unicode="E" glyph-name="E" horiz-adv-x="621" d="M 539 668 L 129 655 L 126 309 L 548 356 L 129 309 L 142 22.1 L 627 53.6" />
<glyph unicode="F" glyph-name="F" horiz-adv-x="734" d="M 759 662 L 542 649 L 394 624 L 258 611 L 154 589 L 135 680 L 167 529 L 195 372 L 195 284 L 132 255 L 252 302 L 482 340 L 693 375 L 249 302 L 195 277 L 192 9.45" />
<glyph unicode="G" glyph-name="G" horiz-adv-x="747" d="M 548 680 L 457 671 L 359 624 L 287 561 L 230 501 L 170 394 L 129 280 L 123 176 L 142 101 L 189 47.2 L 280 9.45 L 375 25.2 L 488 78.8 L 561 132 L 617 186 L 630 211 L 636 403 L 331 350 L 743 419 L 639 400 L 639 -44.1" />
<glyph unicode="H" glyph-name="H" horiz-adv-x="602" d="M 154 677 L 142 343 L 142 189 L 164 0 L 145 328 L 91.4 309 L 220 334 L 365 350 L 548 359 L 548 674 L 545 280 L 558 129 L 573 50.4 L 592 12.6" />
<glyph unicode="I" glyph-name="I" horiz-adv-x="107" d="M 129 671 L 126 410 L 123 277 L 126 164 L 126 22.1" />
<glyph unicode="J" glyph-name="J" horiz-adv-x="548" d="M 532 671 L 539 309 L 532 173 L 510 88.2 L 479 44.1 L 416 18.9 L 340 22.1 L 268 34.6 L 183 63 L 126 107 L 88.2 145 L 81.9 173" />
<glyph unicode="K" glyph-name="K" horiz-adv-x="605" d="M 142 655 L 126 422 L 123 268 L 123 9.45 M 595 665 L 428 536 L 315 450 L 198 387 L 145 346 L 126 265 L 239 220 L 387 154 L 498 101 L 586 44.1 L 627 18.9" />
<glyph unicode="L" glyph-name="L" horiz-adv-x="617" d="M 148 671 L 148 665 L 151 391 L 151 227 L 142 85.1 L 139 28.4 L 340 28.4 L 627 22.1" />
<glyph unicode="M" glyph-name="M" horiz-adv-x="841" d="M 113 28.4 L 145 346 L 170 573 L 192 662 L 211 668 L 255 636 L 331 482 L 410 331 L 479 189 L 523 252 L 639 469 L 743 671 L 765 655 L 788 564 L 810 410 L 835 246 L 860 12.6" />
<glyph unicode="N" glyph-name="N" horiz-adv-x="655" d="M 120 28.4 L 129 243 L 132 428 L 132 627 L 148 658 L 255 542 L 381 378 L 545 167 L 633 47.2 L 636 164 L 636 391 L 633 677" />
<glyph unicode="O" glyph-name="O" horiz-adv-x="693" d="M 403 677 L 321 662 L 233 605 L 164 520 L 110 410 L 104 280 L 148 145 L 217 78.8 L 293 37.8 L 400 28.4 L 532 40.9 L 639 113 L 706 230 L 709 350 L 693 466 L 630 564 L 592 617 L 532 652 L 460 677 L 403 677" />
<glyph unicode="P" glyph-name="P" horiz-adv-x="677" d="M 145 28.4 L 145 205 L 154 450 L 161 551 L 189 621 L 277 665 L 413 687 L 548 684 L 665 639 L 699 602 L 696 526 L 655 463 L 564 406 L 450 372 L 343 356 L 151 350" />
<glyph unicode="Q" glyph-name="Q" horiz-adv-x="762" d="M 633 107 L 677 158 L 712 265 L 724 403 L 702 523 L 627 611 L 510 668 L 403 665 L 306 624 L 239 558 L 173 463 L 139 353 L 113 246 L 145 117 L 217 50.4 L 302 6.3 L 403 -9.45 L 488 3.15 L 561 31.5 L 643 97.7 L 747 31.5 L 586 142 L 441 274 L 422 277" />
<glyph unicode="R" glyph-name="R" horiz-adv-x="693" d="M 123 665 L 132 353 L 139 22.1 L 148 422 L 129 605 L 230 665 L 350 684 L 447 671 L 523 668 L 580 655 L 614 621 L 624 580 L 573 539 L 482 504 L 397 466 L 302 435 L 145 387 L 139 362 L 255 299 L 346 236 L 485 154 L 699 12.6 L 721 9.45" />
<glyph unicode="S" glyph-name="S" horiz-adv-x="674" d="M 630 665 L 501 643 L 369 608 L 249 573 L 198 532 L 173 501 L 164 472 L 189 428 L 321 384 L 444 340 L 570 290 L 639 252 L 680 217 L 677 183 L 624 120 L 501 56.7 L 356 9.45 L 249 3.15 L 173 12.6 L 129 34.6 L 113 66.1" />
<glyph unicode="T" glyph-name="T" horiz-adv-x="652" d="M 75.6 671 L 268 662 L 438 652 L 605 652 L 684 671 M 331 652 L 309 337 L 299 170 L 299 28.4" />
<glyph unicode="U" glyph-name="U" horiz-adv-x="580" d="M 148 655 L 110 441 L 91.4 277 L 91.4 173 L 129 85.1 L 176 31.5 L 290 22.1 L 400 72.4 L 488 154 L 542 306 L 567 438 L 561 662 L 561 25.2" />
<glyph unicode="V" glyph-name="V" horiz-adv-x="633" d="M 85 662 L 365 44.1 L 403 37.8 L 526 350 L 668 671" />
<glyph unicode="W" glyph-name="W" horiz-adv-x="1017.4" d="M 110 671 L 372 31.5 L 450 211 L 598 551 L 639 510 L 709 400 L 819 176 L 895 34.6 L 945 176 L 989 369 L 1039.5 662" />
<glyph unicode="X" glyph-name="X" horiz-adv-x="639" d="M 104 668 L 284 422 L 510 186 L 665 44.1 M 649 684 L 419 391 L 261 202 L 132 34.6 L 123 31.5" />
<glyph unicode="Y" glyph-name="Y" horiz-adv-x="536" d="M 110 671 L 180 608 L 274 501 L 416 346 L 536 671 L 567 699 L 539 671 L 403 299 L 315 18.9" />
<glyph unicode="Z" glyph-name="Z" horiz-adv-x="658" d="M 123 668 L 684 671 L 602 545 L 384 284 L 192 56.7 L 173 34.6 L 274 9.45 L 384 6.3 L 709 25.2" />
<glyph unicode="[" glyph-name="bracketleft" horiz-adv-x="450" d="M 375 847 L 123 788 L 139 328 L 170 -63 L 438 -22.1" />
<glyph unicode="\" glyph-name="backslash" horiz-adv-x="517" d="M 85 589 L 277 315 L 416 132 L 523 12.6" />
<glyph unicode="]" glyph-name="bracketright" horiz-adv-x="576" d="M 101 765 L 249 794 L 422 816 L 479 822 L 488 510 L 498 296 L 507 56.7 L 513 -50.4 L 416 -72.5 L 299 -85 L 205 -91.4" />
<glyph unicode="^" glyph-name="asciicircum" horiz-adv-x="293" d="M 104 340 L 129 391 L 217 454 L 274 419 L 340 346" />
<glyph unicode="_" glyph-name="underscore" horiz-adv-x="740" d="M 142 3.15 L 306 31.5 L 479 44.1 L 731 66.1" />
<glyph unicode="`" glyph-name="grave" horiz-adv-x="142" d="M 104 605 L 170 551" />
<glyph unicode="a" glyph-name="a" horiz-adv-x="532" d="M 536 277 L 479 151 L 387 66.1 L 321 28.4 L 258 6.3 L 170 15.8 L 123 47.2 L 110 145 L 158 243 L 220 337 L 321 406 L 397 441 L 454 441 L 523 428 L 536 381 L 548 3.15" />
<glyph unicode="b" glyph-name="b" horiz-adv-x="589" d="M 145 671 L 151 40.9 L 198 22.1 L 280 37.8 L 403 88.2 L 554 208 L 614 312 L 636 394 L 617 438 L 570 457 L 460 447 L 362 381 L 255 306 L 158 167" />
<glyph unicode="c" glyph-name="c" horiz-adv-x="602" d="M 536 416 L 504 444 L 410 454 L 309 416 L 224 353 L 132 233 L 104 107 L 164 34.6 L 287 -3.15 L 419 3.15 L 513 25.2 L 614 78.8" />
<glyph unicode="d" glyph-name="d" horiz-adv-x="558" d="M 554 652 L 539 387 L 532 217 L 539 78.8 L 542 18.9 L 536 183 L 444 85.1 L 296 18.9 L 192 12.6 L 120 53.6 L 97.6 161 L 151 265 L 280 353 L 397 372 L 485 359 L 542 299" />
<glyph unicode="e" glyph-name="e" horiz-adv-x="532" d="M 139 296 L 265 299 L 410 302 L 504 318 L 520 353 L 507 387 L 425 460 L 321 460 L 227 425 L 161 365 L 113 243 L 97.6 170 L 94.5 120 L 148 50.4 L 236 6.3 L 337 12.6 L 444 37.8 L 520 75.6 L 548 110" />
<glyph unicode="f" glyph-name="f" horiz-adv-x="602" d="M 611 542 L 523 636 L 419 684 L 350 690 L 268 636 L 230 551 L 230 460 L 246 375 L 280 183 L 293 25.2 L 268 255 L 81.9 227 L 435 274 L 598 296" />
<glyph unicode="g" glyph-name="g" horiz-adv-x="551" d="M 554 261 L 488 148 L 369 53.6 L 239 6.3 L 148 6.3 L 120 53.6 L 158 173 L 252 315 L 359 403 L 428 438 L 498 428 L 554 384 L 570 -63 L 558 -214 L 523 -309 L 479 -372 L 438 -406 L 384 -416 L 343 -419 L 230 -416" />
<glyph unicode="h" glyph-name="h" horiz-adv-x="517" d="M 139 668 L 129 356 L 139 6.3 L 164 271 L 243 372 L 334 428 L 416 425 L 472 378 L 529 271 L 539 167 L 542 28.4" />
<glyph unicode="i" glyph-name="i" horiz-adv-x="252" d="M 180 636 L 198 636 M 205 447 L 214 44.1 L 233 25.2" />
<glyph unicode="j" glyph-name="j" horiz-adv-x="167" d="M 72.5 633 L 88.2 655 M 94.5 491 L 94.5 312 L 107 104 L 117 -195 L 107 -312 L 75.6 -359 L 37.8 -372 L 9.45 -372 L -72.4 -353 L -123 -312" />
<glyph unicode="k" glyph-name="k" horiz-adv-x="501" d="M 91.4 674 L 110 293 L 110 12.6 L 117 246 L 205 321 L 432 472 L 126 258 L 246 170 L 517 22.1" />
<glyph unicode="l" glyph-name="l" horiz-adv-x="202" d="M 167 690 L 176 249 L 183 40.9" />
<glyph unicode="m" glyph-name="m" horiz-adv-x="847" d="M 123 463 L 129 3.15 L 167 318 L 230 413 L 340 460 L 406 463 L 450 435 L 485 350 L 472 3.15 L 507 324 L 583 410 L 690 460 L 781 460 L 838 435 L 850 356 L 854 208 L 860 12.6" />
<glyph unicode="n" glyph-name="n" horiz-adv-x="485" d="M 91.4 450 L 94.5 18.9 L 91.4 324 L 208 400 L 321 454 L 394 460 L 447 454 L 482 416 L 507 306 L 504 9.45" />
<glyph unicode="o" glyph-name="o" horiz-adv-x="554" d="M 346 469 L 220 413 L 154 318 L 110 224 L 132 97.7 L 173 28.4 L 306 6.3 L 416 34.6 L 529 107 L 592 224 L 570 369 L 520 425 L 463 460 L 346 469" />
<glyph unicode="p" glyph-name="p" horiz-adv-x="517" d="M 107 441 L 113 -378 L 110 378 L 224 441 L 353 469 L 498 447 L 545 378 L 536 271 L 491 198 L 400 120 L 306 72.4 L 117 25.2" />
<glyph unicode="q" glyph-name="q" horiz-adv-x="517" d="M 526 406 L 498 454 L 428 463 L 302 413 L 211 328 L 148 227 L 117 135 L 126 50.4 L 208 3.15 L 299 9.45 L 406 56.7 L 463 113 L 501 180 L 529 353 L 545 -406" />
<glyph unicode="r" glyph-name="r" horiz-adv-x="523" d="M 129 469 L 117 15.8 L 148 271 L 224 369 L 321 425 L 400 457 L 435 460 L 539 450 L 551 441" />
<glyph unicode="s" glyph-name="s" horiz-adv-x="466" d="M 501 428 L 469 460 L 375 460 L 268 438 L 170 387 L 129 321 L 129 249 L 170 217 L 261 217 L 359 236 L 422 233 L 472 214 L 504 186 L 495 139 L 397 63 L 271 28.4 L 198 0 L 167 3.15" />
<glyph unicode="t" glyph-name="t" horiz-adv-x="419" d="M 277 671 L 293 6.3 L 284 378 L 91.4 378 L 450 381" />
<glyph unicode="u" glyph-name="u" horiz-adv-x="501" d="M 135 460 L 110 315 L 101 148 L 139 50.4 L 217 9.45 L 350 18.9 L 425 66.1 L 466 85.1 L 507 142 L 536 202 L 513 472 L 545 12.6" />
<glyph unicode="v" glyph-name="v" horiz-adv-x="539" d="M 123 466 L 337 56.7 L 362 15.8 L 425 167 L 561 450" />
<glyph unicode="w" glyph-name="w" horiz-adv-x="775" d="M 110 460 L 180 236 L 249 97.7 L 296 25.2 L 315 37.8 L 403 312 L 419 372 L 460 343 L 621 47.2 L 662 22.1 L 806 457" />
<glyph unicode="x" glyph-name="x" horiz-adv-x="485" d="M 104 447 L 321 214 L 523 12.6 L 315 214 L 485 447 L 321 211 L 195 69.3 L 126 3.15" />
<glyph unicode="y" glyph-name="y" horiz-adv-x="589" d="M 113 425 L 438 -37.8 L 617 435 L 290 -425" />
<glyph unicode="z" glyph-name="z" horiz-adv-x="504" d="M 120 454 L 132 454 L 520 450 L 539 435 L 438 321 L 255 158 L 145 50.4 L 135 18.9 L 239 18.9 L 532 18.9 L 558 9.45" />
<glyph unicode="{" glyph-name="braceleft" horiz-adv-x="350" d="M 419 822 L 369 819 L 312 788 L 280 731 L 271 655 L 277 526 L 271 507 L 189 438 L 161 403 L 158 362 L 176 318 L 255 258 L 299 220 L 302 94.5 L 321 -12.6 L 365 -69.3 L 416 -97.6 L 463 -104" />
<glyph unicode="|" glyph-name="bar" horiz-adv-x="139" d="M 139 715 L 148 -37.8" />
<glyph unicode="}" glyph-name="braceright" horiz-adv-x="413" d="M 154 822 L 233 803 L 284 753 L 299 621 L 287 498 L 369 447 L 425 400 L 438 356 L 406 331 L 284 236 L 287 139 L 277 25.2 L 239 -41 L 192 -75.6 L 110 -101" />
<glyph unicode="~" glyph-name="asciitilde" horiz-adv-x="450" d="M 110 284 L 148 343 L 192 375 L 227 375 L 280 337 L 346 284 L 397 293 L 438 309 L 491 387" />
<glyph unicode="&#xa0;" glyph-name="nbspace" horiz-adv-x="378" />
<glyph unicode="&#xa1;" glyph-name="exclamdown" horiz-adv-x="88.2" d="M 113 9.45 L 117 491 M 97.6 668 L 120 684" />
<glyph unicode="&#xa2;" glyph-name="cent" horiz-adv-x="139" d="M 536 416 L 504 444 L 410 454 L 309 416 L 224 353 L 132 233 L 104 107 L 164 34.6 L 287 -3.15 L 419 3.15 L 513 25.2 L 614 78.8 M 328 652 L 337 -101" />
<glyph unicode="&#xa5;" glyph-name="yen" horiz-adv-x="536" d="M 110 671 L 180 608 L 274 501 L 416 346 L 536 671 L 567 699 L 539 671 L 403 299 L 315 18.9 M 299 170 L 416 189 L 498 198 M 299 296 L 416 315 L 498 324" />
<glyph unicode="&#xa6;" glyph-name="brokenbar" horiz-adv-x="41.6" d="M 287 215 L 290 -11.3 M 287 687 L 290 461" />
<glyph unicode="&#xa8;" glyph-name="dieresis" horiz-adv-x="567" d=" M 240 648 L 256 651 M 479 627 L 495 630" />
<glyph unicode="&#xa9;" glyph-name="copyright" horiz-adv-x="693" d="M 403 677 L 321 662 L 233 605 L 164 520 L 110 410 L 104 280 L 148 145 L 217 78.8 L 293 37.8 L 400 28.4 L 532 40.9 L 639 113 L 706 230 L 709 350 L 693 466 L 630 564 L 592 617 L 532 652 L 460 677 L 403 677 M 479 480 L 460 498 L 413 504 L 353 485 L 299 447 L 266 400 L 249 359 L 241 313 L 239 266 L 265 222 L 296 189 L 334 172 L 384 165 L 446 175 L 495 200 L 537 233 L 567 258" />
<glyph unicode="&#xaa;" glyph-name="ordfeminine" horiz-adv-x="266" d="M 410 769 L 381 706 L 335 663 L 302 644 L 271 633 L 227 638 L 203 654 L 197 702 L 220 751 L 252 799 L 302 833 L 340 850 L 369 850 L 403 844 L 410 821 L 416 632" />
<glyph unicode="&#xab;" glyph-name="guillemotleft" horiz-adv-x="302" d="M 185 353 L 106 227 L 78.1 179 L 107 134 L 156 93.2 L 175 78.1 L 190 63 M 311 353 L 232 227 L 204 179 L 233 134 L 282 93.2 L 301 78.1 L 316 63" />
<glyph unicode="&#xae;" glyph-name="registered" horiz-adv-x="693" d="M 403 677 L 321 662 L 233 605 L 164 520 L 110 410 L 104 280 L 148 145 L 217 78.8 L 293 37.8 L 400 28.4 L 532 40.9 L 639 113 L 706 230 L 709 350 L 693 466 L 630 564 L 592 617 L 532 652 L 460 677 L 403 677 M 250 490 L 255 334 L 258 169 L 263 369 L 254 460 L 304 490 L 364 499 L 413 493 L 450 491 L 479 485 L 496 468 L 501 447 L 476 427 L 430 410 L 387 391 L 340 375 L 261 351 L 258 339 L 317 307 L 362 276 L 432 235 L 539 164 L 550 162" />
<glyph unicode="&#xb0;" glyph-name="degree" horiz-adv-x="249" d="M 253 770 L 229 765 L 202 748 L 181 723 L 165 690 L 163 651 L 177 610 L 198 591 L 220 578 L 252 576 L 292 579 L 324 601 L 344 636 L 345 672 L 340 707 L 321 736 L 310 752 L 292 763 L 270 770 L 253 770" />
<glyph unicode="&#xb1;" glyph-name="plusminus" horiz-adv-x="441" d="M 542 -2.52 L 635 12.6 L 701 20.2 M 698 572 L 708 433 L 723 290 L 731 232 M 534 393 L 607 408 L 696 423 L 791 436 L 900 438" />
<glyph unicode="&#xb2;" glyph-name="twosuperior" horiz-adv-x="276" d="M 200 909 L 235 939 L 271 959 L 315 970 L 340 970 L 365 953 L 375 928 L 370 891 L 358 855 L 329 800 L 291 739 L 246 684 L 206 639 L 257 639 L 320 646 L 373 657 L 422 669" />
<glyph unicode="&#xb3;" glyph-name="threesuperior" horiz-adv-x="261" d="M 192 934 L 211 937 L 276 959 L 323 967 L 362 969 L 386 964 L 398 947 L 397 920 L 381 895 L 337 857 L 282 819 L 235 794 L 296 819 L 350 827 L 384 814 L 398 794 L 397 762 L 370 721 L 328 682 L 284 654 L 230 635 L 211 632" />
<glyph unicode="&#xb4;" glyph-name="acute" horiz-adv-x="378" d=" M 381 839 L 287 644" />
<glyph unicode="&#xb7;" glyph-name="middot" horiz-adv-x="132" d="M 193 314 L 212 318" />
<glyph unicode="&#xb9;" glyph-name="onesuperior" horiz-adv-x="120" d="M 228 965 L 219 638" />
<glyph unicode="&#xba;" glyph-name="ordmasculine" horiz-adv-x="249" d="M 253 770 L 229 765 L 202 748 L 181 723 L 165 690 L 163 651 L 177 610 L 198 591 L 220 578 L 252 576 L 292 579 L 324 601 L 344 636 L 345 672 L 340 707 L 321 736 L 310 752 L 292 763 L 270 770 L 253 770" />
<glyph unicode="&#xbb;" glyph-name="guillemotright" horiz-adv-x="299" d="M 63 335 L 107 302 L 139 275 L 184 244 L 164 207 L 132 159 L 107 121 L 70.6 65.5 M 189 335 L 233 302 L 265 275 L 310 244 L 290 207 L 258 159 L 233 121 L 197 65.5" />
<glyph unicode="&#xbc;" glyph-name="onequarter" horiz-adv-x="408" d="M 104 781 L 92.6 387 M 627 674 L 504 482 L 428 353 L 365 261 L 290 145 L 198 6.3 M 731 0 L 730 319 L 724 384 L 709 404 L 667 372 L 571 249 L 533 197 L 716 204 L 796 217" />
<glyph unicode="&#xbd;" glyph-name="onehalf" horiz-adv-x="427" d="M 104 781 L 92.6 387 M 627 674 L 504 482 L 428 353 L 365 261 L 290 145 L 198 6.3 M 542 335 L 584 370 L 627 395 L 680 408 L 711 408 L 741 387 L 752 357 L 747 314 L 731 270 L 697 204 L 652 130 L 597 64.3 L 550 11.3 L 610 11.3 L 686 18.9 L 750 32.1 L 809 47.2" />
<glyph unicode="&#xbe;" glyph-name="threequarters" horiz-adv-x="561" d="M 60.5 743 L 83.2 747 L 161 773 L 217 782 L 265 784 L 293 779 L 308 758 L 306 726 L 287 696 L 234 650 L 168 605 L 112 575 L 185 605 L 249 614 L 291 599 L 308 575 L 306 537 L 274 488 L 223 440 L 170 406 L 106 384 L 83.2 380 M 627 674 L 504 482 L 428 353 L 365 261 L 290 145 L 198 6.3 M 731 0 L 730 319 L 724 384 L 709 404 L 667 372 L 571 249 L 533 197 L 716 204 L 796 217" />
<glyph unicode="&#xbf;" glyph-name="questiondown" horiz-adv-x="517" d="M 536 53.5 L 435 31.5 L 324 18.9 L 246 18.9 L 164 44.1 L 110 78.7 L 94.5 123 L 101 173 L 145 217 L 202 261 L 309 334 L 416 384 L 394 409 L 331 422 L 277 422 M 309 680 L 284 680" />
<glyph unicode="&#xc0;" glyph-name="Agrave" horiz-adv-x="674" d="M 107 3.15 L 227 318 L 302 526 L 356 671 L 372 668 L 432 570 L 520 391 L 583 233 L 639 94.5 L 687 9.45 M 195 243 L 312 268 L 447 309 L 561 331 L 668 356 M 204 1115.5 L 220 1065.1 L 305 936" />
<glyph unicode="&#xc1;" glyph-name="Aacute" horiz-adv-x="674" d="M 107 3.15 L 227 318 L 302 526 L 356 671 L 372 668 L 432 570 L 520 391 L 583 233 L 639 94.5 L 687 9.45 M 195 243 L 312 268 L 447 309 L 561 331 L 668 356 M 475 1050.8 L 381 855" />
<glyph unicode="&#xc2;" glyph-name="Acircumflex" horiz-adv-x="674" d="M 107 3.15 L 227 318 L 302 526 L 356 671 L 372 668 L 432 570 L 520 391 L 583 233 L 639 94.5 L 687 9.45 M 195 243 L 312 268 L 447 309 L 561 331 L 668 356 M 236 764 L 255 802 L 322 850 L 366 824 L 416 768" />
<glyph unicode="&#xc3;" glyph-name="Atilde" horiz-adv-x="674" d="M 107 3.15 L 227 318 L 302 526 L 356 671 L 372 668 L 432 570 L 520 391 L 583 233 L 639 94.5 L 687 9.45 M 195 243 L 312 268 L 447 309 L 561 331 L 668 356 M 270 834 L 298 878 L 331 902 L 357 902 L 397 874 L 446 834 L 484 841 L 515 852 L 555 911" />
<glyph unicode="&#xc4;" glyph-name="Adieresis" horiz-adv-x="674" d="M 107 3.15 L 227 318 L 302 526 L 356 671 L 372 668 L 432 570 L 520 391 L 583 233 L 639 94.5 L 687 9.45 M 195 243 L 312 268 L 447 309 L 561 331 L 668 356 M 267 849 L 283 852 M 467 837 L 483 841" />
<glyph unicode="&#xc5;" glyph-name="Aring" horiz-adv-x="674" d="M 107 3.15 L 227 318 L 302 526 L 356 671 L 372 668 L 432 570 L 520 391 L 583 233 L 639 94.5 L 687 9.45 M 195 243 L 312 268 L 447 309 L 561 331 L 668 356 M 370 1053.7 L 346 1048.9 L 319 1031.9 L 299 1006.4 L 283 973 L 281 935 L 294 894 L 315 874 L 337 862 L 369 859 L 409 863 L 441 885 L 461 919 L 462 955 L 457 990 L 438 1019.7 L 427 1035.7 L 409 1046.1 L 387 1053.7 L 370 1053.7" />
<glyph unicode="&#xc8;" glyph-name="Egrave" horiz-adv-x="621" d="M 539 668 L 129 655 L 126 309 L 548 356 L 129 309 L 142 22.1 L 627 53.6 M 173 1121.5 L 189 1071.1 L 274 942" />
<glyph unicode="&#xc9;" glyph-name="Eacute" horiz-adv-x="621" d="M 539 668 L 129 655 L 126 309 L 548 356 L 129 309 L 142 22.1 L 627 53.6 M 469 1095.9 L 374 901" />
<glyph unicode="&#xca;" glyph-name="Ecircumflex" horiz-adv-x="621" d="M 539 668 L 129 655 L 126 309 L 548 356 L 129 309 L 142 22.1 L 627 53.6 M 229 789 L 249 828 L 318 877 L 362 850 L 414 794" />
<glyph unicode="&#xcb;" glyph-name="Edieresis" horiz-adv-x="621" d="M 539 668 L 129 655 L 126 309 L 548 356 L 129 309 L 142 22.1 L 627 53.6 M 239 832 L 254 835 M 507 840 L 523 843" />
<glyph unicode="&#xcc;" glyph-name="Igrave" horiz-adv-x="107" d="M 129 671 L 126 410 L 123 277 L 126 164 L 126 22.1 M -88 1125.5 L -72.2 1075.1 L 12.8 946" />
<glyph unicode="&#xcd;" glyph-name="Iacute" horiz-adv-x="107" d="M 129 671 L 126 410 L 123 277 L 126 164 L 126 22.1 M 193 1045.8 L 98.7 850" />
<glyph unicode="&#xce;" glyph-name="Icircumflex" horiz-adv-x="107" d="M 129 671 L 126 410 L 123 277 L 126 164 L 126 22.1 M 29.3 826 L 50.2 867 L 123 920 L 170 891 L 225 831" />
<glyph unicode="&#xcf;" glyph-name="Idieresis" horiz-adv-x="107" d="M 129 671 L 126 410 L 123 277 L 126 164 L 126 22.1 M 4.02 843 L 19.8 846 M 269 854 L 285 857" />
<glyph unicode="&#xd0;" glyph-name="Eth" horiz-adv-x="684" d="M 23.6 350 L 198 378 L 321 392 M 123 674 L 126 0 L 217 12.6 L 328 47.2 L 444 107 L 539 173 L 614 249 L 674 337 L 693 410 L 684 491 L 617 570 L 507 630 L 400 658 L 290 665 L 208 655 L 126 636" />
<glyph unicode="&#xd1;" glyph-name="Ntilde" horiz-adv-x="655" d="M 120 28.4 L 129 243 L 132 428 L 132 627 L 148 658 L 255 542 L 381 378 L 545 167 L 633 47.2 L 636 164 L 636 391 L 633 677 M 258 802 L 286 846 L 319 869 L 344 869 L 383 841 L 432 802 L 469 809 L 499 820 L 538 878" />
<glyph unicode="&#xd2;" glyph-name="Ograve" horiz-adv-x="693" d="M 403 677 L 321 662 L 233 605 L 164 520 L 110 410 L 104 280 L 148 145 L 217 78.8 L 293 37.8 L 400 28.4 L 532 40.9 L 639 113 L 706 230 L 709 350 L 693 466 L 630 564 L 592 617 L 532 652 L 460 677 L 403 677 M 205 1116.8 L 221 1066.4 L 306 937" />
<glyph unicode="&#xd3;" glyph-name="Oacute" horiz-adv-x="693" d="M 403 677 L 321 662 L 233 605 L 164 520 L 110 410 L 104 280 L 148 145 L 217 78.8 L 293 37.8 L 400 28.4 L 532 40.9 L 639 113 L 706 230 L 709 350 L 693 466 L 630 564 L 592 617 L 532 652 L 460 677 L 403 677 M 481 1064.3 L 387 869" />
<glyph unicode="&#xd4;" glyph-name="Ocircumflex" horiz-adv-x="693" d="M 403 677 L 321 662 L 233 605 L 164 520 L 110 410 L 104 280 L 148 145 L 217 78.8 L 293 37.8 L 400 28.4 L 532 40.9 L 639 113 L 706 230 L 709 350 L 693 466 L 630 564 L 592 617 L 532 652 L 460 677 L 403 677 M 261 851 L 282 894 L 356 947 L 404 917 L 459 857" />
<glyph unicode="&#xd5;" glyph-name="Otilde" horiz-adv-x="693" d="M 403 677 L 321 662 L 233 605 L 164 520 L 110 410 L 104 280 L 148 145 L 217 78.8 L 293 37.8 L 400 28.4 L 532 40.9 L 639 113 L 706 230 L 709 350 L 693 466 L 630 564 L 592 617 L 532 652 L 460 677 L 403 677 M 266 770 L 292 811 L 323 833 L 347 833 L 384 807 L 430 770 L 465 776 L 493 787 L 530 842" />
<glyph unicode="&#xd6;" glyph-name="Odieresis" horiz-adv-x="693" d="M 403 677 L 321 662 L 233 605 L 164 520 L 110 410 L 104 280 L 148 145 L 217 78.8 L 293 37.8 L 400 28.4 L 532 40.9 L 639 113 L 706 230 L 709 350 L 693 466 L 630 564 L 592 617 L 532 652 L 460 677 L 403 677 M 270 836 L 286 839 M 542 848 L 558 851" />
<glyph unicode="&#xd7;" glyph-name="multiply" horiz-adv-x="485" d="M 104 447 L 321 214 L 523 12.6 L 315 214 L 485 447 L 321 211 L 195 69.3 L 126 3.15" />
<glyph unicode="&#xd8;" glyph-name="Oslash" horiz-adv-x="693" d="M 403 677 L 321 662 L 233 605 L 164 520 L 110 410 L 104 280 L 148 145 L 217 78.8 L 293 37.8 L 400 28.4 L 532 40.9 L 639 113 L 706 230 L 709 350 L 693 466 L 630 564 L 592 617 L 532 652 L 460 677 L 403 677 M 660 715 L 516 490 L 428 339 L 354 232 L 265 95.8 L 158 -66.3" />
<glyph unicode="&#xd9;" glyph-name="Ugrave" horiz-adv-x="580" d="M 148 655 L 110 441 L 91.4 277 L 91.4 173 L 129 85.1 L 176 31.5 L 290 22.1 L 400 72.4 L 488 154 L 542 306 L 567 438 L 561 662 L 561 25.2 M 154 1137.6 L 170 1087.2 L 255 958" />
<glyph unicode="&#xda;" glyph-name="Uacute" horiz-adv-x="580" d="M 148 655 L 110 441 L 91.4 277 L 91.4 173 L 129 85.1 L 176 31.5 L 290 22.1 L 400 72.4 L 488 154 L 542 306 L 567 438 L 561 662 L 561 25.2 M 427 1083.8 L 333 888" />
<glyph unicode="&#xdb;" glyph-name="Ucircumflex" horiz-adv-x="580" d="M 148 655 L 110 441 L 91.4 277 L 91.4 173 L 129 85.1 L 176 31.5 L 290 22.1 L 400 72.4 L 488 154 L 542 306 L 567 438 L 561 662 L 561 25.2 M 226 806 L 246 847 L 317 898 L 362 870 L 415 812" />
<glyph unicode="&#xdc;" glyph-name="Udieresis" horiz-adv-x="580" d="M 148 655 L 110 441 L 91.4 277 L 91.4 173 L 129 85.1 L 176 31.5 L 290 22.1 L 400 72.4 L 488 154 L 542 306 L 567 438 L 561 662 L 561 25.2 M 265 858 L 281 861 M 484 855 L 500 859" />
<glyph unicode="&#xdd;" glyph-name="Yacute" horiz-adv-x="536" d="M 110 671 L 180 608 L 274 501 L 416 346 L 536 671 L 567 699 L 539 671 L 403 299 L 315 18.9 M 419 1047.2 L 325 852" />
<glyph unicode="&#xe0;" glyph-name="agrave" horiz-adv-x="532" d="M 536 277 L 479 151 L 387 66.1 L 321 28.4 L 258 6.3 L 170 15.8 L 123 47.2 L 110 145 L 158 243 L 220 337 L 321 406 L 397 441 L 454 441 L 523 428 L 536 381 L 548 3.15 M 266 872 L 281 822 L 366 693" />
<glyph unicode="&#xe1;" glyph-name="aacute" horiz-adv-x="532" d="M 536 277 L 479 151 L 387 66.1 L 321 28.4 L 258 6.3 L 170 15.8 L 123 47.2 L 110 145 L 158 243 L 220 337 L 321 406 L 397 441 L 454 441 L 523 428 L 536 381 L 548 3.15 M 450 785 L 355 590" />
<glyph unicode="&#xe2;" glyph-name="acircumflex" horiz-adv-x="532" d="M 536 277 L 479 151 L 387 66.1 L 321 28.4 L 258 6.3 L 170 15.8 L 123 47.2 L 110 145 L 158 243 L 220 337 L 321 406 L 397 441 L 454 441 L 523 428 L 536 381 L 548 3.15 M 262 643 L 283 686 L 358 739 L 406 710 L 463 648" />
<glyph unicode="&#xe3;" glyph-name="atilde" horiz-adv-x="532" d="M 536 277 L 479 151 L 387 66.1 L 321 28.4 L 258 6.3 L 170 15.8 L 123 47.2 L 110 145 L 158 243 L 220 337 L 321 406 L 397 441 L 454 441 L 523 428 L 536 381 L 548 3.15 M 194 581 L 220 622 L 250 644 L 274 644 L 311 618 L 357 581 L 392 587 L 421 598 L 458 653" />
<glyph unicode="&#xe4;" glyph-name="adieresis" horiz-adv-x="532" d="M 536 277 L 479 151 L 387 66.1 L 321 28.4 L 258 6.3 L 170 15.8 L 123 47.2 L 110 145 L 158 243 L 220 337 L 321 406 L 397 441 L 454 441 L 523 428 L 536 381 L 548 3.15 M 221 609 L 237 612 M 489 634 L 505 637" />
<glyph unicode="&#xe5;" glyph-name="aring" horiz-adv-x="532" d="M 536 277 L 479 151 L 387 66.1 L 321 28.4 L 258 6.3 L 170 15.8 L 123 47.2 L 110 145 L 158 243 L 220 337 L 321 406 L 397 441 L 454 441 L 523 428 L 536 381 L 548 3.15 M 357 770 L 333 765 L 306 748 L 285 723 L 269 690 L 267 651 L 281 610 L 301 591 L 324 578 L 356 576 L 396 579 L 428 601 L 448 636 L 449 672 L 444 707 L 425 736 L 414 752 L 396 763 L 374 770 L 357 770" />
<glyph unicode="&#xe8;" glyph-name="egrave" horiz-adv-x="532" d="M 139 296 L 265 299 L 410 302 L 504 318 L 520 353 L 507 387 L 425 460 L 321 460 L 227 425 L 161 365 L 113 243 L 97.6 170 L 94.5 120 L 148 50.4 L 236 6.3 L 337 12.6 L 444 37.8 L 520 75.6 L 548 110 M 267 884 L 283 833 L 368 704" />
<glyph unicode="&#xe9;" glyph-name="eacute" horiz-adv-x="532" d="M 139 296 L 265 299 L 410 302 L 504 318 L 520 353 L 507 387 L 425 460 L 321 460 L 227 425 L 161 365 L 113 243 L 97.6 170 L 94.5 120 L 148 50.4 L 236 6.3 L 337 12.6 L 444 37.8 L 520 75.6 L 548 110 M 445 843 L 350 648" />
<glyph unicode="&#xea;" glyph-name="ecircumflex" horiz-adv-x="532" d="M 139 296 L 265 299 L 410 302 L 504 318 L 520 353 L 507 387 L 425 460 L 321 460 L 227 425 L 161 365 L 113 243 L 97.6 170 L 94.5 120 L 148 50.4 L 236 6.3 L 337 12.6 L 444 37.8 L 520 75.6 L 548 110 M 233 560 L 252 598 L 319 645 L 361 619 L 411 565" />
<glyph unicode="&#xeb;" glyph-name="edieresis" horiz-adv-x="532" d="M 139 296 L 265 299 L 410 302 L 504 318 L 520 353 L 507 387 L 425 460 L 321 460 L 227 425 L 161 365 L 113 243 L 97.6 170 L 94.5 120 L 148 50.4 L 236 6.3 L 337 12.6 L 444 37.8 L 520 75.6 L 548 110 M 218 651 L 233 654 M 469 609 L 485 612" />
<glyph unicode="&#xec;" glyph-name="igrave" horiz-adv-x="252" d="M 205 447 L 214 44.1 L 233 25.2 M 108 878 L 124 827 L 209 698" />
<glyph unicode="&#xed;" glyph-name="iacute" horiz-adv-x="252" d="M 205 447 L 214 44.1 L 233 25.2 M 314 842 L 219 647" />
<glyph unicode="&#xee;" glyph-name="icircumflex" horiz-adv-x="252" d="M 205 447 L 214 44.1 L 233 25.2 M 144 622 L 165 664 L 238 716 L 285 688 L 340 628" />
<glyph unicode="&#xef;" glyph-name="idieresis" horiz-adv-x="252" d="M 205 447 L 214 44.1 L 233 25.2 M 115 644 L 131 647 M 373 665 L 388 668" />
<glyph unicode="&#xf1;" glyph-name="ntilde" horiz-adv-x="485" d="M 91.4 450 L 94.5 18.9 L 91.4 324 L 208 400 L 321 454 L 394 460 L 447 454 L 482 416 L 507 306 L 504 9.45 M 174 575 L 200 615 L 229 636 L 252 636 L 288 611 L 332 575 L 366 582 L 393 592 L 429 645" />
<glyph unicode="&#xf2;" glyph-name="ograve" horiz-adv-x="554" d="M 346 469 L 220 413 L 154 318 L 110 224 L 132 97.7 L 173 28.4 L 306 6.3 L 416 34.6 L 529 107 L 592 224 L 570 369 L 520 425 L 463 460 L 346 469 M 271 859 L 287 809 L 372 680" />
<glyph unicode="&#xf3;" glyph-name="oacute" horiz-adv-x="554" d="M 346 469 L 220 413 L 154 318 L 110 224 L 132 97.7 L 173 28.4 L 306 6.3 L 416 34.6 L 529 107 L 592 224 L 570 369 L 520 425 L 463 460 L 346 469 M 446 785 L 352 590" />
<glyph unicode="&#xf4;" glyph-name="ocircumflex" horiz-adv-x="554" d="M 346 469 L 220 413 L 154 318 L 110 224 L 132 97.7 L 173 28.4 L 306 6.3 L 416 34.6 L 529 107 L 592 224 L 570 369 L 520 425 L 463 460 L 346 469 M 248 616 L 268 657 L 340 709 L 387 681 L 441 621" />
<glyph unicode="&#xf5;" glyph-name="otilde" horiz-adv-x="554" d="M 346 469 L 220 413 L 154 318 L 110 224 L 132 97.7 L 173 28.4 L 306 6.3 L 416 34.6 L 529 107 L 592 224 L 570 369 L 520 425 L 463 460 L 346 469 M 199 585 L 224 625 L 254 646 L 278 646 L 314 621 L 359 585 L 393 591 L 420 602 L 456 655" />
<glyph unicode="&#xf6;" glyph-name="odieresis" horiz-adv-x="554" d="M 346 469 L 220 413 L 154 318 L 110 224 L 132 97.7 L 173 28.4 L 306 6.3 L 416 34.6 L 529 107 L 592 224 L 570 369 L 520 425 L 463 460 L 346 469 M 239 626 L 255 629 M 487 626 L 503 629" />
<glyph unicode="&#xf7;" glyph-name="divide" horiz-adv-x="811" d="M 514 450 L 530 454 M 499 198 L 514 202 M 281 328 L 578 346 L 787 356" />
<glyph unicode="&#xf8;" glyph-name="oslash" horiz-adv-x="554" d="M 346 469 L 220 413 L 154 318 L 110 224 L 132 97.7 L 173 28.4 L 306 6.3 L 416 34.6 L 529 107 L 592 224 L 570 369 L 520 425 L 463 460 L 346 469 M 542 556 L 430 381 L 361 264 L 304 181 L 235 74.5 L 152 -51.6" />
<glyph unicode="&#xf9;" glyph-name="ugrave" horiz-adv-x="501" d="M 135 460 L 110 315 L 101 148 L 139 50.4 L 217 9.45 L 350 18.9 L 425 66.1 L 466 85.1 L 507 142 L 536 202 L 513 472 L 545 12.6 M 240 871 L 255 821 L 340 692" />
<glyph unicode="&#xfa;" glyph-name="uacute" horiz-adv-x="501" d="M 135 460 L 110 315 L 101 148 L 139 50.4 L 217 9.45 L 350 18.9 L 425 66.1 L 466 85.1 L 507 142 L 536 202 L 513 472 L 545 12.6 M 418 842 L 323 647" />
<glyph unicode="&#xfb;" glyph-name="ucircumflex" horiz-adv-x="501" d="M 135 460 L 110 315 L 101 148 L 139 50.4 L 217 9.45 L 350 18.9 L 425 66.1 L 466 85.1 L 507 142 L 536 202 L 513 472 L 545 12.6 M 235 613 L 255 654 L 326 704 L 372 676 L 425 618" />
<glyph unicode="&#xfc;" glyph-name="udieresis" horiz-adv-x="501" d="M 135 460 L 110 315 L 101 148 L 139 50.4 L 217 9.45 L 350 18.9 L 425 66.1 L 466 85.1 L 507 142 L 536 202 L 513 472 L 545 12.6 M 191 630 L 207 634 M 498 627 L 514 630" />
<glyph unicode="&#xfd;" glyph-name="yacute" horiz-adv-x="589" d="M 113 425 L 438 -37.8 L 617 435 L 290 -425 M 466 812 L 372 616" />
<glyph unicode="&#xff;" glyph-name="ydieresis" horiz-adv-x="589" d="M 113 425 L 438 -37.8 L 617 435 L 290 -425 M 257 656 L 272 659 M 526 657 L 541 660" />
<glyph unicode="&#x2013;" glyph-name="endash" horiz-adv-x="477" d="M 165 233 L 340 252 L 463 261" />
<glyph unicode="&#x2014;" glyph-name="emdash" horiz-adv-x="636" d="M 220 233 L 454 252 L 617 261" />
<glyph unicode="&#x201c;" glyph-name="quotedblleft" horiz-adv-x="364" d="M 4.25 658 L 34 610 M 146 658 L 176 610" />
<glyph unicode="&#x201d;" glyph-name="quotedblright" horiz-adv-x="364" d="M 137 635 L 119 516 M 279 635 L 261 516" />
<glyph unicode="&#x2039;" glyph-name="guilsinglleft" horiz-adv-x="202" d="M 185 353 L 106 227 L 78.1 179 L 107 134 L 156 93.2 L 175 78.1 L 190 63" />
<glyph unicode="&#x203a;" glyph-name="guilsinglright" horiz-adv-x="199" d="M 63 335 L 107 302 L 139 275 L 184 244 L 164 207 L 132 159 L 107 121 L 70.6 65.5" />
<glyph unicode="&#x20ac;" glyph-name="Euro" horiz-adv-x="747" d="M 580 646 L 542 680 L 447 693 L 328 655 L 220 580 L 154 485 L 120 403 L 104 312 L 101 217 L 151 129 L 214 63 L 290 28.4 L 391 15.8 L 513 34.6 L 611 85.1 L 696 151 L 756 202 M 132 204 L 272 227 L 370 238 M 132 355 L 272 378 L 370 389" />
<glyph unicode="&#x0178;" glyph-name="Ydieresis" horiz-adv-x="536" d="M 110 671 L 180 608 L 274 501 L 416 346 L 536 671 L 567 699 L 539 671 L 403 299 L 315 18.9 M 203 834 L 219 837 M 486 838 L 502 841" />
<glyph unicode="&#x102;" glyph-name="Abreve" horiz-adv-x="674" d="M 107 3.15 L 227 318 L 302 526 L 356 671 L 372 668 L 432 570 L 520 391 L 583 233 L 639 94.5 L 687 9.45 M 195 243 L 312 268 L 447 309 L 561 331 L 668 356 M238 942.002C242.709 892.293 260.542 828.006 351 828.002C441.458 827.998 472.338 898.45 474 936.002" />
<glyph unicode="&#x114;" glyph-name="Ebreve" horiz-adv-x="621" d="M 539 668 L 129 655 L 126 309 L 548 356 L 129 309 L 142 22.1 L 627 53.6 M221 944.88C225.709 895.171 243.542 830.885 334 830.88C424.458 830.876 455.338 901.328 457 938.88" />
<glyph unicode="&#x11E;" glyph-name="Gbreve" horiz-adv-x="747" d="M 548 680 L 457 671 L 359 624 L 287 561 L 230 501 L 170 394 L 129 280 L 123 176 L 142 101 L 189 47.2 L 280 9.45 L 375 25.2 L 488 78.8 L 561 132 L 617 186 L 630 211 L 636 403 L 331 350 L 743 419 L 639 400 L 639 -44.1 M301 949.989C305.709 900.28 323.542 835.994 414 835.989C504.458 835.985 535.338 906.437 537 943.989" />
<glyph unicode="&#x12C;" glyph-name="Ibreve" horiz-adv-x="107" d="M 129 671 L 126 410 L 123 277 L 126 164 L 126 22.1 M58 978.219C62.7085 928.51 80.5417 864.223 171 864.219C261.458 864.215 292.338 934.667 294 972.219" />
<glyph unicode="&#x14E;" glyph-name="Obreve" horiz-adv-x="693" d="M 403 677 L 321 662 L 233 605 L 164 520 L 110 410 L 104 280 L 148 145 L 217 78.8 L 293 37.8 L 400 28.4 L 532 40.9 L 639 113 L 706 230 L 709 350 L 693 466 L 630 564 L 592 617 L 532 652 L 460 677 L 403 677 M244 953.357C248.709 903.647 266.542 839.361 357 839.357C447.458 839.353 478.338 909.804 480 947.357" />
<glyph unicode="&#x16C;" glyph-name="Ubreve" horiz-adv-x="580" d="M 148 655 L 110 441 L 91.4 277 L 91.4 173 L 129 85.1 L 176 31.5 L 290 22.1 L 400 72.4 L 488 154 L 542 306 L 567 438 L 561 662 L 561 25.2 M208 929.772C212.709 880.063 230.542 815.776 321 815.772C411.458 815.768 442.338 886.22 444 923.772" />
<glyph unicode="&#x103;" glyph-name="abreve" horiz-adv-x="532" d="M 536 277 L 479 151 L 387 66.1 L 321 28.4 L 258 6.3 L 170 15.8 L 123 47.2 L 110 145 L 158 243 L 220 337 L 321 406 L 397 441 L 454 441 L 523 428 L 536 381 L 548 3.15 M253 747.274C257.709 697.564 275.542 633.278 366 633.274C456.458 633.27 487.338 703.721 489 741.274" />
<glyph unicode="&#x115;" glyph-name="ebreve" horiz-adv-x="532" d="M 139 296 L 265 299 L 410 302 L 504 318 L 520 353 L 507 387 L 425 460 L 321 460 L 227 425 L 161 365 L 113 243 L 97.6 170 L 94.5 120 L 148 50.4 L 236 6.3 L 337 12.6 L 444 37.8 L 520 75.6 L 548 110 M213 708.105C217.709 658.395 235.542 594.109 326 594.105C416.458 594.101 447.338 664.552 449 702.105" />
<glyph unicode="&#x11F;" glyph-name="gbreve" horiz-adv-x="551" d="M 554 261 L 488 148 L 369 53.6 L 239 6.3 L 148 6.3 L 120 53.6 L 158 173 L 252 315 L 359 403 L 428 438 L 498 428 L 554 384 L 570 -63 L 558 -214 L 523 -309 L 479 -372 L 438 -406 L 384 -416 L 343 -419 L 230 -416 M259 721.39C263.709 671.681 281.542 607.394 372 607.39C462.458 607.386 493.338 677.838 495 715.39" />
<glyph unicode="&#x12D;" glyph-name="ibreve" horiz-adv-x="252" d="M 205 447 L 214 44.1 L 233 25.2 M124 741.961C128.709 692.251 146.542 627.965 237 627.961C327.458 627.957 358.338 698.408 360 735.961" />
<glyph unicode="&#x14F;" glyph-name="obreve" horiz-adv-x="554" d="M 346 469 L 220 413 L 154 318 L 110 224 L 132 97.7 L 173 28.4 L 306 6.3 L 416 34.6 L 529 107 L 592 224 L 570 369 L 520 425 L 463 460 L 346 469 M220 727.641C224.709 677.931 242.542 613.645 333 613.641C423.458 613.637 454.338 684.088 456 721.641" />
<glyph unicode="&#x16D;" glyph-name="ubreve" horiz-adv-x="501" d="M 135 460 L 110 315 L 101 148 L 139 50.4 L 217 9.45 L 350 18.9 L 425 66.1 L 466 85.1 L 507 142 L 536 202 L 513 472 L 545 12.6 M203 720.932C207.709 671.222 225.542 606.936 316 606.932C406.458 606.928 437.338 677.379 439 714.932" />
<glyph unicode="&#xc7;" glyph-name="Ccedilla" horiz-adv-x="747" d="M391 15.8C384.028 -57.8813 455.971 -137.54 312.155 -123.184M580 646L542 680L447 693L328 655L220 580L154 485L120 403L104 312L101 217L151 129L214 63L290 28.4L391 15.8L513 34.6L611 85.1L696 151L756 202" />
<glyph unicode="&#x131;" glyph-name="dotlessi" horiz-adv-x="252" d="M205 447L214 44.1L233 25.2" />
<glyph unicode="&#xdf;" glyph-name="germandbls" horiz-adv-x="756" d="M184.314 -116.166C178.238 15.4225 133.853 482.062 138.119 626.998C141.257 733.605 602.824 713.634 602.824 559.676C602.824 405.717 176.22 359.329 265.951 363.376C355.683 367.422 746.397 384.567 746.397 227.785C746.397 71.0043 264.154 15.4648 264.154 15.4648" />
<glyph unicode="&#x130;" glyph-name="Idotaccent" horiz-adv-x="107" d="M122.458 782.136L140.458 782.136M129 671L126 410L123 277L126 164L126 22.1" />
<glyph unicode="&#xE6;" glyph-name="ae" horiz-adv-x="1010.0" d="M977.824 110C885.54 19.7191 776.808 -14.1459 662.064 11.9397C547.32 38.0253 506.185 102.847 540.944 240.18C575.703 377.513 670.488 460.195 786.207 460C901.925 459.804 965.176 376.37 933.824 318C824.215 299.343 686.971 302.203 624.403 296.127C561.834 290.051 561.632 278.183 543.06 277.507C481.009 66.8179 227.209 -41.8724 149.319 29.9565C71.4293 101.785 131.486 231.82 226.353 336.092C321.22 440.365 517.242 502.09 536 381C549.485 251.879 524.294 6.11332 524.294 6.11332" />
<glyph unicode="&#x15E;" glyph-name="Scedilla" horiz-adv-x="674" d="M391 15.8C384.028 -57.8813 455.971 -137.54 312.155 -123.184M630 665C484.185 626.4 297.759 632.478 198 532C185.585 519.604 178.503 511.323 173 501C167.497 490.677 162.547 485.417 164 472C165.453 458.583 164.568 448.079 189 428C337.224 363.118 505.451 343.604 639 252C672.168 232.261 688.816 211.491 677 183C640.796 114.189 566.966 84.2891 501 56.7C456.263 38.0406 398.528 17.4928 356 9.45C313.472 1.40721 279.612 2.15633 249 3.15C196.066 6.23796 130.659 7.89314 113 66.1" />
<glyph unicode="&#xe7;" glyph-name="ccedilla" horiz-adv-x="602" d="M376.887 0.944133C369.915 -72.7372 441.858 -152.396 298.042 -138.04M536 416L504 444L410 454L309 416L224 353L132 233L104 107L164 34.6L287 -3.15L419 3.15L513 25.2L614 78.8" />
<glyph unicode="&#x15F;" glyph-name="scedilla" horiz-adv-x="466" d="M348.923 44.6753C352.405 -29.0527 396.316 -68.7073 314.642 -98.7549M501 428C501 428 490.442 451.118 469 460C402.632 470.144 326.791 458.414 268 438C233.493 425.743 193.003 408.318 170 387C146.997 365.682 135.845 344.992 129 321C122.155 297.008 119.935 267.574 129 249C138.065 230.426 147.462 224.754 170 217C192.538 209.246 229.342 213.959 261 217C315.43 226.602 370.822 243.391 422 233C479.906 215.668 523.484 186.208 495 139C422.038 60.105 292.962 16.9439 198 -0C179.917 -2.45385 167 3.15 167 3.15" />
<glyph unicode="&#xC6;" glyph-name="AE" horiz-adv-x="1060.0" d="M937 668L529.125 655C529.125 655 549.306 336.895 549.453 231.295C549.6 125.695 540 22.1 540 22.1L1025 53.6M107 3.15002C161.669 64.8967 463.431 680.857 532 668M273.159 291.335C433.081 284.053 827.387 304.917 977.129 315.398" />
<glyph unicode="&#xa3;" glyph-name="sterling" horiz-adv-x="617" d="M85.0196 277.456C183.936 295.875 392.079 306.617 491.886 317.977M627 22.1C464.354 27.6354 301.708 28.4 139 28.4C148.308 152.57 151.032 283.459 151 391C165.212 664.821 312.896 685.291 439.17 674.709C540.018 661.326 601.649 605.062 601.649 521.601" />
<glyph unicode="&#xb8;" glyph-name="cedilla" horiz-adv-x="747" d="M391 15.8C384.028 -57.8813 455.971 -137.54 312.155 -123.184" />
<glyph unicode="&#x2D8;" glyph-name="breve" horiz-adv-x="293" d="M104 454C108.709 404.29 126.542 340.004 217 340C307.458 339.996 338.338 410.447 340 448" />
</font>
</defs>
</svg>
