<?xml version="1.0" encoding="UTF-8" ?>
<!DOCTYPE svg PUBLIC "-//W3C//DTD SVG 1.1//EN" "http://www.w3.org/Graphics/SVG/1.1/DTD/svg11.dtd" >

<svg xmlns="http://www.w3.org/2000/svg" xmlns:xlink="http://www.w3.org/1999/xlink" version="1.1">

<metadata>
Font name: Hershey Serif bold italic

Originally prepared in 2011 and converted to SVG fonts
in 2019 by Windell H. Oskay, www.evilmadscientist.com

Contents adapted from emergent.unpythonic.net/software/hershey
 by way of "Hershey Fonts in SVG" by Marty McGuire
 http://www.thingiverse.com/thing:6168
 
-------------------------------------------------------------------
The Hershey Fonts are a set of vector fonts with a liberal license.

USE RESTRICTION:
    This distribution of the Hershey Fonts may be used by anyone for
    any purpose, commercial or otherwise, providing that:
        1. The following acknowledgements must be distributed with
            the font data:
            - The Hershey Fonts were originally created by Dr.
                A. V. Hershey while working at the U. S.
                National Bureau of Standards.
            - The format of the Font data in this distribution
                was originally created by
                    James Hurt
                    Cognition, Inc.
                    900 Technology Park Drive
                    Billerica, MA 01821
                    (mit-eddie!ci-dandelion!hurt)
        2. The font data in this distribution may be converted into
            any other format *EXCEPT* the format distributed by
            the U.S. NTIS where each point is described
            in eight bytes as "xxx yyy:", where xxx and yyy are
            the coordinate values as ASCII numbers.

</metadata>
<defs>
<font id="HersheySerifBoldItalic" horiz-adv-x="378" >
<font-face
font-family="Hershey Serif bold italic"
units-per-em="1000"
ascent="800"
descent="-200"
cap-height="500"
x-height="300"
/>
<missing-glyph horiz-adv-x="378" />
<glyph unicode=" " glyph-name="space" horiz-adv-x="378" />
<glyph unicode="!" glyph-name="exclam" horiz-adv-x="346" d="M 353 662 L 321 662 L 290 630 L 227 220 M 353 630 L 321 630 L 227 220 M 353 630 L 353 598 L 227 220 M 353 662 L 384 630 L 384 598 L 227 220 M 164 94.5 L 132 63 L 132 31.5 L 164 0 L 195 0 L 227 31.5 L 227 63 L 195 94.5 L 164 94.5 M 164 63 L 164 31.5 L 195 31.5 L 195 63 L 164 63" />
<glyph unicode="&#x22;" glyph-name="quotedbl" horiz-adv-x="567" d="M 220 662 L 158 441 M 252 662 L 158 441 M 504 662 L 441 441 M 536 662 L 441 441" />
<glyph unicode="#" glyph-name="numbersign" horiz-adv-x="662" d="M 346 788 L 126 -220 M 536 788 L 315 -220 M 126 378 L 567 378 M 94.5 189 L 536 189" />
<glyph unicode="$" glyph-name="dollar" horiz-adv-x="662" d="M 378 788 L 126 -126 M 536 788 L 284 -126 M 567 504 L 567 536 L 536 536 L 536 472 L 598 472 L 598 536 L 567 598 L 536 630 L 441 662 L 315 662 L 220 630 L 158 567 L 158 472 L 189 410 L 252 346 L 441 252 L 472 189 L 472 94.5 L 441 31.5 M 189 472 L 220 410 L 441 284 L 472 220 M 220 630 L 189 567 L 189 504 L 220 441 L 410 346 L 472 284 L 504 220 L 504 126 L 472 63 L 441 31.5 L 346 0 L 220 0 L 126 31.5 L 94.5 63 L 63 126 L 63 189 L 126 189 L 126 126 L 94.5 126 L 94.5 158" />
<glyph unicode="%" glyph-name="percent" horiz-adv-x="756" d="M 662 662 L 94.5 0 M 252 662 L 315 598 L 315 536 L 284 472 L 220 441 L 158 441 L 94.5 504 L 94.5 567 L 126 630 L 189 662 L 252 662 L 315 630 L 410 598 L 504 598 L 598 630 L 662 662 M 536 220 L 472 189 L 441 126 L 441 63 L 504 0 L 567 0 L 630 31.5 L 662 94.5 L 662 158 L 598 220 L 536 220" />
<glyph unicode="&amp;" glyph-name="ampersand" horiz-adv-x="819" d="M 724 378 L 724 410 L 693 410 L 693 346 L 756 346 L 756 410 L 724 441 L 693 441 L 630 410 L 567 346 L 410 94.5 L 346 31.5 L 284 0 L 189 0 L 94.5 31.5 L 63 94.5 L 63 158 L 94.5 220 L 126 252 L 189 284 L 346 346 L 410 378 L 472 441 L 504 504 L 504 567 L 472 630 L 410 662 L 346 630 L 315 567 L 315 472 L 346 284 L 378 189 L 410 126 L 472 31.5 L 536 0 L 598 0 L 630 63 L 630 94.5 M 220 0 L 94.5 31.5 M 126 31.5 L 94.5 94.5 L 94.5 158 L 126 220 L 158 252 L 220 284 M 346 346 L 378 252 L 472 63 L 536 31.5 M 189 0 L 158 31.5 L 126 94.5 L 126 158 L 158 220 L 189 252 L 252 284 L 410 378 M 315 472 L 346 378 L 378 284 L 441 158 L 504 63 L 567 31.5 L 598 31.5 L 630 63" />
<glyph unicode="&apos;" glyph-name="quotesingle" horiz-adv-x="284" d="M 220 662 L 158 441 M 252 662 L 158 441" />
<glyph unicode="(" glyph-name="parenleft" horiz-adv-x="504" d="M 504 788 L 441 756 L 346 693 L 252 598 L 189 504 L 126 378 L 94.5 252 L 94.5 94.5 L 126 -31.5 L 158 -126 L 220 -220 M 284 598 L 220 504 L 158 378 L 126 220 L 126 -31.5 M 504 788 L 410 724 L 315 630 L 252 536 L 220 472 L 189 378 L 158 252 L 126 -31.5 M 126 220 L 158 -63 L 189 -158 L 220 -220" />
<glyph unicode=")" glyph-name="parenright" horiz-adv-x="504" d="M 284 788 L 346 693 L 378 598 L 410 472 L 410 315 L 378 189 L 315 63 L 252 -31.5 L 158 -126 L 63 -189 L 0 -220 M 378 598 L 378 346 L 346 189 L 284 63 L 220 -31.5 M 284 788 L 315 724 L 346 630 L 378 346 M 378 598 L 346 315 L 315 189 L 284 94.5 L 252 31.5 L 189 -63 L 94.5 -158 L 0 -220" />
<glyph unicode="*" glyph-name="asterisk" horiz-adv-x="536" d="M 315 662 L 284 630 L 346 315 L 315 284 M 315 662 L 315 284 M 315 662 L 346 630 L 284 315 L 315 284 M 158 567 L 189 567 L 441 378 L 472 378 M 158 567 L 472 378 M 158 567 L 158 536 L 472 410 L 472 378 M 472 567 L 441 567 L 189 378 L 158 378 M 472 567 L 158 378 M 472 567 L 472 536 L 158 410 L 158 378" />
<glyph unicode="+" glyph-name="plus" horiz-adv-x="788" d="M 378 567 L 378 31.5 L 410 31.5 M 378 567 L 410 567 L 410 31.5 M 126 315 L 662 315 L 662 284 M 126 315 L 126 284 L 662 284" />
<glyph unicode="," glyph-name="comma" horiz-adv-x="346" d="M 126 0 L 94.5 0 L 63 31.5 L 63 63 L 94.5 94.5 L 126 94.5 L 158 63 L 158 0 L 126 -63 L 94.5 -94.5 L 31.5 -126 M 94.5 63 L 94.5 31.5 L 126 31.5 L 126 63 L 94.5 63 M 126 0 L 126 -31.5 L 94.5 -94.5" />
<glyph unicode="-" glyph-name="hyphen" horiz-adv-x="819" d="M 126 284 L 693 284" />
<glyph unicode="." glyph-name="period" horiz-adv-x="346" d="M 94.5 94.5 L 63 63 L 63 31.5 L 94.5 0 L 126 0 L 158 31.5 L 158 63 L 126 94.5 L 94.5 94.5 M 94.5 63 L 94.5 31.5 L 126 31.5 L 126 63 L 94.5 63" />
<glyph unicode="/" glyph-name="slash" horiz-adv-x="724" d="M 630 788 L 63 -220 L 94.5 -220 M 630 788 L 662 788 L 94.5 -220" />
<glyph unicode="0" glyph-name="zero" horiz-adv-x="662" d="M 378 662 L 284 630 L 220 567 L 158 472 L 126 378 L 94.5 252 L 94.5 158 L 126 63 L 158 31.5 L 220 0 L 284 0 L 378 31.5 L 441 94.5 L 504 189 L 536 284 L 567 410 L 567 504 L 536 598 L 504 630 L 441 662 L 378 662 M 284 598 L 220 536 L 189 472 L 158 378 L 126 252 L 126 126 L 158 63 M 378 63 L 441 126 L 472 189 L 504 284 L 536 410 L 536 536 L 504 598 M 378 662 L 315 630 L 252 536 L 220 472 L 189 378 L 158 252 L 158 94.5 L 189 31.5 L 220 0 M 284 0 L 346 31.5 L 410 126 L 441 189 L 472 284 L 504 410 L 504 567 L 472 630 L 441 662" />
<glyph unicode="1" glyph-name="one" horiz-adv-x="662" d="M 378 536 L 220 0 L 284 0 M 472 662 L 410 536 L 252 0 M 472 662 L 284 0 M 472 662 L 378 567 L 284 504 L 220 472 M 378 536 L 315 504 L 220 472" />
<glyph unicode="2" glyph-name="two" horiz-adv-x="662" d="M 220 504 L 220 536 L 252 536 L 252 472 L 189 472 L 189 536 L 220 598 L 252 630 L 346 662 L 441 662 L 536 630 L 567 567 L 567 504 L 536 441 L 472 378 L 158 189 L 94.5 126 L 31.5 0 M 504 630 L 536 567 L 536 504 L 504 441 L 441 378 L 346 315 M 441 662 L 472 630 L 504 567 L 504 504 L 472 441 L 410 378 L 158 189 M 63 63 L 94.5 94.5 L 158 94.5 L 315 63 L 472 63 L 504 94.5 M 158 94.5 L 315 31.5 L 472 31.5 M 158 94.5 L 315 0 L 410 0 L 472 31.5 L 504 94.5 L 504 126" />
<glyph unicode="3" glyph-name="three" horiz-adv-x="662" d="M 220 504 L 220 536 L 252 536 L 252 472 L 189 472 L 189 536 L 220 598 L 252 630 L 346 662 L 441 662 L 536 630 L 567 567 L 567 504 L 536 441 L 504 410 L 441 378 L 346 346 M 504 630 L 536 567 L 536 504 L 504 441 L 472 410 M 441 662 L 472 630 L 504 567 L 504 504 L 472 441 L 410 378 L 346 346 M 284 346 L 346 346 L 441 315 L 472 284 L 504 220 L 504 126 L 472 63 L 410 31.5 L 315 0 L 220 0 L 126 31.5 L 94.5 63 L 63 126 L 63 189 L 126 189 L 126 126 L 94.5 126 L 94.5 158 M 441 284 L 472 220 L 472 126 L 441 63 M 346 346 L 410 315 L 441 252 L 441 126 L 410 63 L 378 31.5 L 315 0" />
<glyph unicode="4" glyph-name="four" horiz-adv-x="662" d="M 472 536 L 315 0 L 378 0 M 567 662 L 504 536 L 346 0 M 567 662 L 378 0 M 567 662 L 63 189 L 567 189" />
<glyph unicode="5" glyph-name="five" horiz-adv-x="662" d="M 284 662 L 126 346 M 284 662 L 598 662 M 284 630 L 536 630 M 252 598 L 410 598 L 536 630 L 598 662 M 126 346 L 158 378 L 252 410 L 346 410 L 441 378 L 472 346 L 504 284 L 504 189 L 472 94.5 L 410 31.5 L 284 0 L 189 0 L 126 31.5 L 94.5 63 L 63 126 L 63 189 L 126 189 L 126 126 L 94.5 126 L 94.5 158 M 441 346 L 472 284 L 472 189 L 441 94.5 L 378 31.5 M 346 410 L 410 378 L 441 315 L 441 189 L 410 94.5 L 346 31.5 L 284 0" />
<glyph unicode="6" glyph-name="six" horiz-adv-x="662" d="M 536 536 L 536 567 L 504 567 L 504 504 L 567 504 L 567 567 L 536 630 L 472 662 L 378 662 L 284 630 L 220 567 L 158 472 L 126 378 L 94.5 252 L 94.5 158 L 126 63 L 158 31.5 L 220 0 L 315 0 L 410 31.5 L 472 94.5 L 504 158 L 504 252 L 472 315 L 441 346 L 378 378 L 284 378 L 220 346 L 189 315 L 158 252 M 252 567 L 189 472 L 158 378 L 126 252 L 126 126 L 158 63 M 441 94.5 L 472 158 L 472 252 L 441 315 M 378 662 L 315 630 L 252 536 L 220 472 L 189 378 L 158 252 L 158 94.5 L 189 31.5 L 220 0 M 315 0 L 378 31.5 L 410 63 L 441 158 L 441 284 L 410 346 L 378 378" />
<glyph unicode="7" glyph-name="seven" horiz-adv-x="662" d="M 189 662 L 126 472 M 598 662 L 567 567 L 504 472 L 378 315 L 315 220 L 284 126 L 252 0 M 315 252 L 252 126 L 220 0 M 504 472 L 315 284 L 252 189 L 220 126 L 189 0 L 252 0 M 158 567 L 252 662 L 315 662 L 472 567 M 220 630 L 315 630 L 472 567 M 158 567 L 220 598 L 315 598 L 472 567 L 536 567 L 567 598 L 598 662" />
<glyph unicode="8" glyph-name="eight" horiz-adv-x="662" d="M 346 662 L 252 630 L 220 598 L 189 536 L 189 441 L 220 378 L 284 346 L 378 346 L 472 378 L 536 410 L 567 472 L 567 567 L 536 630 L 472 662 L 346 662 M 410 662 L 252 630 M 252 598 L 220 536 L 220 410 L 252 378 M 220 378 L 315 346 M 346 346 L 472 378 M 504 410 L 536 472 L 536 567 L 504 630 M 536 630 L 410 662 M 346 662 L 284 598 L 252 536 L 252 410 L 284 346 M 378 346 L 441 378 L 472 410 L 504 472 L 504 598 L 472 662 M 284 346 L 158 315 L 94.5 252 L 63 189 L 63 94.5 L 94.5 31.5 L 189 0 L 315 0 L 441 31.5 L 472 63 L 504 126 L 504 220 L 472 284 L 441 315 L 378 346 M 315 346 L 158 315 M 189 315 L 126 252 L 94.5 189 L 94.5 94.5 L 126 31.5 M 94.5 31.5 L 252 0 L 441 31.5 M 441 63 L 472 126 L 472 220 L 441 284 M 441 315 L 346 346 M 284 346 L 220 315 L 158 252 L 126 189 L 126 94.5 L 158 31.5 L 189 0 M 315 0 L 378 31.5 L 410 63 L 441 126 L 441 252 L 410 315 L 378 346" />
<glyph unicode="9" glyph-name="nine" horiz-adv-x="662" d="M 504 410 L 472 346 L 441 315 L 378 284 L 284 284 L 220 315 L 189 346 L 158 410 L 158 504 L 189 567 L 252 630 L 346 662 L 441 662 L 504 630 L 536 598 L 567 504 L 567 410 L 536 284 L 504 189 L 441 94.5 L 378 31.5 L 284 0 L 189 0 L 126 31.5 L 94.5 94.5 L 94.5 158 L 158 158 L 158 94.5 L 126 94.5 L 126 126 M 220 346 L 189 410 L 189 504 L 220 567 M 504 598 L 536 536 L 536 410 L 504 284 L 472 189 L 410 94.5 M 284 284 L 252 315 L 220 378 L 220 504 L 252 598 L 284 630 L 346 662 M 441 662 L 472 630 L 504 567 L 504 410 L 472 284 L 441 189 L 410 126 L 346 31.5 L 284 0" />
<glyph unicode=":" glyph-name="colon" horiz-adv-x="346" d="M 189 441 L 158 410 L 158 378 L 189 346 L 220 346 L 252 378 L 252 410 L 220 441 L 189 441 M 189 410 L 189 378 L 220 378 L 220 410 L 189 410 M 94.5 94.5 L 63 63 L 63 31.5 L 94.5 0 L 126 0 L 158 31.5 L 158 63 L 126 94.5 L 94.5 94.5 M 94.5 63 L 94.5 31.5 L 126 31.5 L 126 63 L 94.5 63" />
<glyph unicode=";" glyph-name="semicolon" horiz-adv-x="346" d="M 189 441 L 158 410 L 158 378 L 189 346 L 220 346 L 252 378 L 252 410 L 220 441 L 189 441 M 189 410 L 189 378 L 220 378 L 220 410 L 189 410 M 126 0 L 94.5 0 L 63 31.5 L 63 63 L 94.5 94.5 L 126 94.5 L 158 63 L 158 0 L 126 -63 L 94.5 -94.5 L 31.5 -126 M 94.5 63 L 94.5 31.5 L 126 31.5 L 126 63 L 94.5 63 M 126 0 L 126 -31.5 L 94.5 -94.5" />
<glyph unicode="&#x3c;" glyph-name="less" horiz-adv-x="756" d="M 630 567 L 126 284 L 630 0" />
<glyph unicode="=" glyph-name="equal" horiz-adv-x="788" d="M 126 441 L 662 441 L 662 410 M 126 441 L 126 410 L 662 410 M 126 189 L 662 189 L 662 158 M 126 189 L 126 158 L 662 158" />
<glyph unicode="&#x3e;" glyph-name="greater" horiz-adv-x="756" d="M 126 567 L 630 284 L 126 0" />
<glyph unicode="?" glyph-name="question" horiz-adv-x="662" d="M 220 504 L 220 536 L 252 536 L 252 472 L 189 472 L 189 536 L 220 598 L 252 630 L 346 662 L 472 662 L 567 630 L 598 567 L 598 504 L 567 441 L 536 410 L 472 378 L 346 346 L 284 315 L 284 252 L 346 220 L 378 220 M 410 662 L 567 630 M 536 630 L 567 567 L 567 504 L 536 441 L 504 410 L 441 378 M 472 662 L 504 630 L 536 567 L 536 504 L 504 441 L 472 410 L 346 346 L 315 315 L 315 252 L 346 220 M 252 94.5 L 220 63 L 220 31.5 L 252 0 L 284 0 L 315 31.5 L 315 63 L 284 94.5 L 252 94.5 M 252 63 L 252 31.5 L 284 31.5 L 284 63 L 252 63" />
<glyph unicode="@" glyph-name="at" horiz-adv-x="850" d="M 567 410 L 536 472 L 472 504 L 378 504 L 315 472 L 284 441 L 252 346 L 252 252 L 284 189 L 346 158 L 441 158 L 504 189 L 536 252 M 378 504 L 315 441 L 284 346 L 284 252 L 315 189 L 346 158 M 567 504 L 536 252 L 536 189 L 598 158 L 662 158 L 724 220 L 756 315 L 756 378 L 724 472 L 693 536 L 630 598 L 567 630 L 472 662 L 378 662 L 284 630 L 220 598 L 158 536 L 126 472 L 94.5 378 L 94.5 284 L 126 189 L 158 126 L 220 63 L 284 31.5 L 378 0 L 472 0 L 567 31.5 L 630 63 L 662 94.5 M 598 504 L 567 252 L 567 189 L 598 158" />
<glyph unicode="A" glyph-name="A" horiz-adv-x="630" d="M 410 662 L 31.5 31.5 M 346 536 L 378 0 M 378 598 L 410 31.5 M 410 662 L 410 598 L 441 63 L 441 0 M 126 189 L 378 189 M -63 0 L 126 0 M 284 0 L 504 0 M 31.5 31.5 L -31.5 0 M 31.5 31.5 L 94.5 0 M 378 31.5 L 315 0 M 378 63 L 346 0 M 441 63 L 472 0" />
<glyph unicode="B" glyph-name="B" horiz-adv-x="756" d="M 284 662 L 94.5 0 M 315 662 L 126 0 M 346 662 L 158 0 M 189 662 L 536 662 L 630 630 L 662 567 L 662 504 L 630 410 L 598 378 L 504 346 M 598 630 L 630 567 L 630 504 L 598 410 L 567 378 M 536 662 L 567 630 L 598 567 L 598 504 L 567 410 L 504 346 M 252 346 L 504 346 L 567 315 L 598 252 L 598 189 L 567 94.5 L 504 31.5 L 378 0 L 0 0 M 536 315 L 567 252 L 567 189 L 536 94.5 L 472 31.5 M 504 346 L 536 284 L 536 189 L 504 94.5 L 441 31.5 L 378 0 M 220 662 L 315 630 M 252 662 L 284 598 M 378 662 L 315 598 M 410 662 L 315 630 M 126 31.5 L 31.5 0 M 126 63 L 63 0 M 158 63 L 189 0 M 126 31.5 L 220 0" />
<glyph unicode="C" glyph-name="C" horiz-adv-x="662" d="M 567 598 L 598 598 L 630 662 L 598 472 L 598 536 L 567 598 L 536 630 L 472 662 L 378 662 L 284 630 L 220 567 L 158 472 L 126 378 L 94.5 252 L 94.5 158 L 126 63 L 158 31.5 L 252 0 L 346 0 L 410 31.5 L 472 94.5 L 504 158 M 284 598 L 220 536 L 189 472 L 158 378 L 126 252 L 126 126 L 158 63 M 378 662 L 315 630 L 252 536 L 220 472 L 189 378 L 158 252 L 158 94.5 L 189 31.5 L 252 0" />
<glyph unicode="D" glyph-name="D" horiz-adv-x="724" d="M 284 662 L 94.5 0 M 315 662 L 126 0 M 346 662 L 158 0 M 189 662 L 472 662 L 567 630 L 598 598 L 630 504 L 630 378 L 598 252 L 536 126 L 472 63 L 410 31.5 L 284 0 L 0 0 M 536 630 L 567 598 L 598 504 L 598 378 L 567 252 L 504 126 L 441 63 M 472 662 L 536 598 L 567 504 L 567 378 L 536 252 L 472 126 L 378 31.5 L 284 0 M 220 662 L 315 630 M 252 662 L 284 598 M 378 662 L 315 598 M 410 662 L 315 630 M 126 31.5 L 31.5 0 M 126 63 L 63 0 M 158 63 L 189 0 M 126 31.5 L 220 0" />
<glyph unicode="E" glyph-name="E" horiz-adv-x="724" d="M 284 662 L 94.5 0 M 315 662 L 126 0 M 346 662 L 158 0 M 472 472 L 410 220 M 189 662 L 662 662 L 630 472 M 252 346 L 441 346 M 0 0 L 472 0 L 536 158 M 220 662 L 315 630 M 252 662 L 284 598 M 378 662 L 315 598 M 410 662 L 315 630 M 536 662 L 630 630 M 567 662 L 630 598 M 598 662 L 630 567 M 630 662 L 630 472 M 472 472 L 410 346 L 410 220 M 441 410 L 378 346 L 410 284 M 441 378 L 346 346 L 410 315 M 126 31.5 L 31.5 0 M 126 63 L 63 0 M 158 63 L 189 0 M 126 31.5 L 220 0 M 315 0 L 472 31.5 M 378 0 L 472 63 M 472 63 L 536 158" />
<glyph unicode="F" glyph-name="F" horiz-adv-x="693" d="M 284 662 L 94.5 0 M 315 662 L 126 0 M 346 662 L 158 0 M 472 472 L 410 220 M 189 662 L 662 662 L 630 472 M 252 346 L 441 346 M 0 0 L 252 0 M 220 662 L 315 630 M 252 662 L 284 598 M 378 662 L 315 598 M 410 662 L 315 630 M 536 662 L 630 630 M 567 662 L 630 598 M 598 662 L 630 567 M 630 662 L 630 472 M 472 472 L 410 346 L 410 220 M 441 410 L 378 346 L 410 284 M 441 378 L 346 346 L 410 315 M 126 31.5 L 31.5 0 M 126 63 L 63 0 M 158 63 L 189 0 M 126 31.5 L 220 0" />
<glyph unicode="G" glyph-name="G" horiz-adv-x="693" d="M 567 598 L 598 598 L 630 662 L 598 472 L 598 536 L 567 598 L 536 630 L 472 662 L 378 662 L 284 630 L 220 567 L 158 472 L 126 378 L 94.5 252 L 94.5 158 L 126 63 L 158 31.5 L 252 0 L 315 0 L 410 31.5 L 472 94.5 L 536 220 M 284 598 L 220 536 L 189 472 L 158 378 L 126 252 L 126 126 L 158 63 M 441 94.5 L 472 126 L 504 220 M 378 662 L 315 630 L 252 536 L 220 472 L 189 378 L 158 252 L 158 94.5 L 189 31.5 L 252 0 M 315 0 L 378 31.5 L 441 126 L 472 220 M 378 220 L 630 220 M 410 220 L 472 189 M 441 220 L 472 126 M 567 220 L 504 158 M 598 220 L 504 189" />
<glyph unicode="H" glyph-name="H" horiz-adv-x="819" d="M 284 662 L 94.5 0 M 315 662 L 126 0 M 346 662 L 158 0 M 662 662 L 472 0 M 693 662 L 504 0 M 724 662 L 536 0 M 189 662 L 441 662 M 567 662 L 819 662 M 220 346 L 598 346 M 0 0 L 252 0 M 378 0 L 630 0 M 220 662 L 315 630 M 252 662 L 284 598 M 378 662 L 315 598 M 410 662 L 315 630 M 598 662 L 693 630 M 630 662 L 662 598 M 756 662 L 693 598 M 788 662 L 693 630 M 126 31.5 L 31.5 0 M 126 63 L 63 0 M 158 63 L 189 0 M 126 31.5 L 220 0 M 504 31.5 L 410 0 M 504 63 L 441 0 M 536 63 L 567 0 M 504 31.5 L 598 0" />
<glyph unicode="I" glyph-name="I" horiz-adv-x="441" d="M 284 662 L 94.5 0 M 315 662 L 126 0 M 346 662 L 158 0 M 189 662 L 441 662 M 0 0 L 252 0 M 220 662 L 315 630 M 252 662 L 284 598 M 378 662 L 315 598 M 410 662 L 315 630 M 126 31.5 L 31.5 0 M 126 63 L 63 0 M 158 63 L 189 0 M 126 31.5 L 220 0" />
<glyph unicode="J" glyph-name="J" horiz-adv-x="598" d="M 441 662 L 284 126 L 252 63 L 189 0 M 472 662 L 346 252 L 315 158 L 284 94.5 M 504 662 L 378 252 L 315 94.5 L 252 31.5 L 189 0 L 126 0 L 63 31.5 L 31.5 94.5 L 31.5 158 L 63 189 L 94.5 189 L 126 158 L 126 126 L 94.5 94.5 L 63 94.5 M 63 158 L 63 126 L 94.5 126 L 94.5 158 L 63 158 M 346 662 L 598 662 M 378 662 L 472 630 M 410 662 L 441 598 M 536 662 L 472 598 M 567 662 L 472 630" />
<glyph unicode="K" glyph-name="K" horiz-adv-x="724" d="M 284 662 L 94.5 0 M 315 662 L 126 0 M 346 662 L 158 0 M 693 630 L 220 284 M 346 378 L 472 0 M 378 378 L 504 0 M 410 410 L 536 31.5 M 189 662 L 441 662 M 598 662 L 788 662 M 0 0 L 252 0 M 378 0 L 598 0 M 220 662 L 315 630 M 252 662 L 284 598 M 378 662 L 315 598 M 410 662 L 315 630 M 630 662 L 693 630 M 756 662 L 693 630 M 126 31.5 L 31.5 0 M 126 63 L 63 0 M 158 63 L 189 0 M 126 31.5 L 220 0 M 472 31.5 L 410 0 M 472 63 L 441 0 M 504 63 L 567 0" />
<glyph unicode="L" glyph-name="L" horiz-adv-x="630" d="M 284 662 L 94.5 0 M 315 662 L 126 0 M 346 662 L 158 0 M 189 662 L 441 662 M 0 0 L 472 0 L 536 189 M 220 662 L 315 630 M 252 662 L 284 598 M 378 662 L 315 598 M 410 662 L 315 630 M 126 31.5 L 31.5 0 M 126 63 L 63 0 M 158 63 L 189 0 M 126 31.5 L 220 0 M 315 0 L 472 31.5 M 378 0 L 504 94.5 M 441 0 L 536 189" />
<glyph unicode="M" glyph-name="M" horiz-adv-x="882" d="M 284 662 L 94.5 31.5 M 284 630 L 315 63 L 315 0 M 315 662 L 346 63 M 346 662 L 378 94.5 M 724 662 L 378 94.5 L 315 0 M 724 662 L 536 0 M 756 662 L 567 0 M 788 662 L 598 0 M 189 662 L 346 662 M 724 662 L 882 662 M 0 0 L 189 0 M 441 0 L 693 0 M 220 662 L 284 630 M 252 662 L 284 598 M 819 662 L 756 598 M 850 662 L 756 630 M 94.5 31.5 L 31.5 0 M 94.5 31.5 L 158 0 M 567 31.5 L 472 0 M 567 63 L 504 0 M 598 63 L 630 0 M 567 31.5 L 662 0" />
<glyph unicode="N" glyph-name="N" horiz-adv-x="788" d="M 284 662 L 94.5 31.5 M 284 662 L 504 0 M 315 662 L 504 94.5 M 346 662 L 536 94.5 M 693 630 L 536 94.5 L 504 0 M 189 662 L 346 662 M 598 662 L 788 662 M 0 0 L 189 0 M 220 662 L 315 630 M 252 662 L 315 598 M 630 662 L 693 630 M 756 662 L 693 630 M 94.5 31.5 L 31.5 0 M 94.5 31.5 L 158 0" />
<glyph unicode="O" glyph-name="O" horiz-adv-x="693" d="M 378 662 L 284 630 L 220 567 L 158 472 L 126 378 L 94.5 252 L 94.5 158 L 126 63 L 158 31.5 L 220 0 L 315 0 L 410 31.5 L 472 94.5 L 536 189 L 567 284 L 598 410 L 598 504 L 567 598 L 536 630 L 472 662 L 378 662 M 252 567 L 189 472 L 158 378 L 126 252 L 126 126 L 158 63 M 441 94.5 L 504 189 L 536 284 L 567 410 L 567 536 L 536 598 M 378 662 L 315 630 L 252 536 L 220 472 L 189 378 L 158 252 L 158 94.5 L 189 31.5 L 220 0 M 315 0 L 378 31.5 L 441 126 L 472 189 L 504 284 L 536 410 L 536 567 L 504 630 L 472 662" />
<glyph unicode="P" glyph-name="P" horiz-adv-x="724" d="M 284 662 L 94.5 0 M 315 662 L 126 0 M 346 662 L 158 0 M 189 662 L 567 662 L 662 630 L 693 567 L 693 504 L 662 410 L 598 346 L 472 315 L 220 315 M 630 630 L 662 567 L 662 504 L 630 410 L 567 346 M 567 662 L 598 630 L 630 567 L 630 504 L 598 410 L 536 346 L 472 315 M 0 0 L 252 0 M 220 662 L 315 630 M 252 662 L 284 598 M 378 662 L 315 598 M 410 662 L 315 630 M 126 31.5 L 31.5 0 M 126 63 L 63 0 M 158 63 L 189 0 M 126 31.5 L 220 0" />
<glyph unicode="Q" glyph-name="Q" horiz-adv-x="693" d="M 378 662 L 284 630 L 220 567 L 158 472 L 126 378 L 94.5 252 L 94.5 158 L 126 63 L 158 31.5 L 220 0 L 315 0 L 410 31.5 L 472 94.5 L 536 189 L 567 284 L 598 410 L 598 504 L 567 598 L 536 630 L 472 662 L 378 662 M 252 567 L 189 472 L 158 378 L 126 252 L 126 126 L 158 63 M 441 94.5 L 504 189 L 536 284 L 567 410 L 567 536 L 536 598 M 378 662 L 315 630 L 252 536 L 220 472 L 189 378 L 158 252 L 158 94.5 L 189 31.5 L 220 0 M 315 0 L 378 31.5 L 441 126 L 472 189 L 504 284 L 536 410 L 536 567 L 504 630 L 472 662 M 158 94.5 L 189 158 L 252 189 L 284 189 L 346 158 L 378 94.5 L 410 -63 L 441 -94.5 L 472 -94.5 L 504 -63 M 410 -94.5 L 441 -126 L 472 -126 M 378 94.5 L 378 -126 L 410 -158 L 472 -158 L 504 -63 L 504 -31.5" />
<glyph unicode="R" glyph-name="R" horiz-adv-x="756" d="M 284 662 L 94.5 0 M 315 662 L 126 0 M 346 662 L 158 0 M 189 662 L 536 662 L 630 630 L 662 567 L 662 504 L 630 410 L 598 378 L 504 346 L 252 346 M 598 630 L 630 567 L 630 504 L 598 410 L 567 378 M 536 662 L 567 630 L 598 567 L 598 504 L 567 410 L 504 346 M 378 346 L 441 315 L 472 284 L 536 94.5 L 567 63 L 598 63 L 630 94.5 M 536 63 L 567 31.5 L 598 31.5 M 472 284 L 504 31.5 L 536 0 L 598 0 L 630 94.5 L 630 126 M 0 0 L 252 0 M 220 662 L 315 630 M 252 662 L 284 598 M 378 662 L 315 598 M 410 662 L 315 630 M 126 31.5 L 31.5 0 M 126 63 L 63 0 M 158 63 L 189 0 M 126 31.5 L 220 0" />
<glyph unicode="S" glyph-name="S" horiz-adv-x="724" d="M 598 598 L 630 598 L 662 662 L 630 472 L 630 536 L 598 598 L 567 630 L 472 662 L 346 662 L 252 630 L 189 567 L 189 472 L 220 410 L 284 346 L 472 252 L 504 189 L 504 94.5 L 472 31.5 M 220 472 L 252 410 L 472 284 L 504 220 M 252 630 L 220 567 L 220 504 L 252 441 L 441 346 L 504 284 L 536 220 L 536 126 L 504 63 L 472 31.5 L 378 0 L 252 0 L 158 31.5 L 126 63 L 94.5 126 L 94.5 189 L 63 0 L 94.5 63 L 126 63" />
<glyph unicode="T" glyph-name="T" horiz-adv-x="693" d="M 410 662 L 220 0 M 441 662 L 252 0 M 472 662 L 284 0 M 189 662 L 126 472 M 693 662 L 662 472 M 189 662 L 693 662 M 126 0 L 378 0 M 220 662 L 126 472 M 284 662 L 158 567 M 346 662 L 189 630 M 567 662 L 662 630 M 598 662 L 662 598 M 630 662 L 662 567 M 662 662 L 662 472 M 252 31.5 L 158 0 M 252 63 L 189 0 M 284 63 L 315 0 M 252 31.5 L 346 0" />
<glyph unicode="U" glyph-name="U" horiz-adv-x="788" d="M 252 662 L 158 315 L 126 189 L 126 94.5 L 158 31.5 L 252 0 L 378 0 L 472 31.5 L 536 94.5 L 567 189 L 693 630 M 284 662 L 189 315 L 158 189 L 158 63 L 189 31.5 M 315 662 L 220 315 L 189 189 L 189 63 L 252 0 M 158 662 L 410 662 M 598 662 L 788 662 M 189 662 L 284 630 M 220 662 L 252 598 M 346 662 L 284 598 M 378 662 L 284 630 M 630 662 L 693 630 M 756 662 L 693 630" />
<glyph unicode="V" glyph-name="V" horiz-adv-x="630" d="M 189 662 L 189 598 L 220 63 L 220 0 M 220 630 L 252 94.5 M 252 662 L 284 126 M 598 630 L 220 0 M 126 662 L 346 662 M 504 662 L 693 662 M 158 662 L 189 598 M 284 662 L 252 598 M 315 662 L 220 630 M 536 662 L 598 630 M 662 662 L 598 630" />
<glyph unicode="W" glyph-name="W" horiz-adv-x="819" d="M 252 662 L 252 598 L 189 63 L 189 0 M 284 630 L 220 94.5 M 315 662 L 252 126 M 504 662 L 252 126 L 189 0 M 504 662 L 504 598 L 441 63 L 441 0 M 536 630 L 472 94.5 M 567 662 L 504 126 M 756 630 L 504 126 L 441 0 M 158 662 L 410 662 M 504 662 L 567 662 M 662 662 L 850 662 M 189 662 L 284 630 M 220 662 L 252 598 M 346 662 L 284 567 M 378 662 L 284 630 M 693 662 L 756 630 M 819 662 L 756 630" />
<glyph unicode="X" glyph-name="X" horiz-adv-x="693" d="M 220 662 L 410 0 M 252 662 L 441 0 M 284 662 L 472 0 M 630 630 L 63 31.5 M 158 662 L 378 662 M 536 662 L 724 662 M -31.5 0 L 158 0 M 315 0 L 536 0 M 189 662 L 252 598 M 315 662 L 284 598 M 346 662 L 284 630 M 567 662 L 630 630 M 693 662 L 630 630 M 63 31.5 L 0 0 M 63 31.5 L 126 0 M 410 31.5 L 346 0 M 410 63 L 378 0 M 441 63 L 504 0" />
<glyph unicode="Y" glyph-name="Y" horiz-adv-x="693" d="M 189 662 L 315 346 L 220 0 M 220 662 L 346 346 L 252 0 M 252 662 L 378 346 L 284 0 M 662 630 L 378 346 M 126 662 L 346 662 M 567 662 L 756 662 M 126 0 L 378 0 M 158 662 L 220 630 M 284 662 L 252 598 M 315 662 L 220 630 M 598 662 L 662 630 M 724 662 L 662 630 M 252 31.5 L 158 0 M 252 63 L 189 0 M 284 63 L 315 0 M 252 31.5 L 346 0" />
<glyph unicode="Z" glyph-name="Z" horiz-adv-x="693" d="M 598 662 L 31.5 0 M 630 662 L 63 0 M 662 662 L 94.5 0 M 662 662 L 220 662 L 158 472 M 31.5 0 L 472 0 L 536 189 M 252 662 L 158 472 M 284 662 L 189 567 M 346 662 L 220 630 M 346 0 L 472 31.5 M 410 0 L 504 94.5 M 441 0 L 536 189" />
<glyph unicode="[" glyph-name="bracketleft" horiz-adv-x="441" d="M 126 788 L 126 -220 M 158 788 L 158 -220 M 126 788 L 346 788 M 126 -220 L 346 -220" />
<glyph unicode="\" glyph-name="backslash" horiz-adv-x="441" d="M 0 662 L 441 -94.5" />
<glyph unicode="]" glyph-name="bracketright" horiz-adv-x="441" d="M 284 788 L 284 -220 M 315 788 L 315 -220 M 94.5 788 L 315 788 M 94.5 -220 L 315 -220" />
<glyph unicode="^" glyph-name="asciicircum" horiz-adv-x="693" d="M 94.5 220 L 346 378 L 598 220 M 94.5 220 L 346 346 L 598 220" />
<glyph unicode="_" glyph-name="underscore" horiz-adv-x="630" d="M 0 -220 L 630 -220" />
<glyph unicode="`" glyph-name="grave" horiz-adv-x="378" d="M 126 662 L 284 472 M 126 662 L 94.5 630 L 284 472" />
<glyph unicode="a" glyph-name="a" horiz-adv-x="693" d="M 504 441 L 441 220 L 441 94.5 L 472 31.5 L 504 0 L 567 0 L 630 63 L 662 126 M 536 441 L 472 220 L 472 31.5 M 504 441 L 567 441 L 504 220 L 472 94.5 M 441 220 L 441 315 L 410 410 L 346 441 L 284 441 L 189 410 L 126 315 L 94.5 220 L 94.5 158 L 126 63 L 158 31.5 L 220 0 L 284 0 L 346 31.5 L 378 63 L 410 126 L 441 220 M 220 410 L 158 315 L 126 220 L 126 126 L 158 63 M 284 441 L 220 378 L 189 315 L 158 220 L 158 126 L 189 31.5 L 220 0" />
<glyph unicode="b" glyph-name="b" horiz-adv-x="598" d="M 220 662 L 158 441 L 126 252 L 126 126 L 158 63 L 189 31.5 L 252 0 L 315 0 L 410 31.5 L 472 126 L 504 220 L 504 284 L 472 378 L 441 410 L 378 441 L 315 441 L 252 410 L 220 378 L 189 315 L 158 220 M 252 662 L 189 441 L 158 315 L 158 126 L 189 31.5 M 410 63 L 441 126 L 472 220 L 472 315 L 441 378 M 126 662 L 284 662 L 220 441 L 158 220 M 315 0 L 378 63 L 410 126 L 441 220 L 441 315 L 410 410 L 378 441 M 158 662 L 252 630 M 189 662 L 220 598" />
<glyph unicode="c" glyph-name="c" horiz-adv-x="567" d="M 441 315 L 441 346 L 410 346 L 410 284 L 472 284 L 472 346 L 441 410 L 378 441 L 284 441 L 189 410 L 126 315 L 94.5 220 L 94.5 158 L 126 63 L 158 31.5 L 220 0 L 284 0 L 378 31.5 L 441 126 M 189 378 L 158 315 L 126 220 L 126 126 L 158 63 M 284 441 L 220 378 L 189 315 L 158 220 L 158 126 L 189 31.5 L 220 0" />
<glyph unicode="d" glyph-name="d" horiz-adv-x="693" d="M 567 662 L 472 315 L 441 189 L 441 94.5 L 472 31.5 L 504 0 L 567 0 L 630 63 L 662 126 M 598 662 L 504 315 L 472 189 L 472 31.5 M 472 662 L 630 662 L 504 220 L 472 94.5 M 441 220 L 441 315 L 410 410 L 346 441 L 284 441 L 189 410 L 126 315 L 94.5 220 L 94.5 158 L 126 63 L 158 31.5 L 220 0 L 284 0 L 346 31.5 L 378 63 L 410 126 L 441 220 M 189 378 L 158 315 L 126 220 L 126 126 L 158 63 M 284 441 L 220 378 L 189 315 L 158 220 L 158 126 L 189 31.5 L 220 0 M 504 662 L 598 630 M 536 662 L 567 598" />
<glyph unicode="e" glyph-name="e" horiz-adv-x="567" d="M 126 158 L 252 189 L 346 220 L 441 284 L 472 346 L 441 410 L 378 441 L 284 441 L 189 410 L 126 315 L 94.5 220 L 94.5 158 L 126 63 L 158 31.5 L 220 0 L 284 0 L 378 31.5 L 441 94.5 M 189 378 L 158 315 L 126 220 L 126 126 L 158 63 M 284 441 L 220 378 L 189 315 L 158 220 L 158 126 L 189 31.5 L 220 0" />
<glyph unicode="f" glyph-name="f" horiz-adv-x="504" d="M 504 598 L 504 630 L 472 630 L 472 567 L 536 567 L 536 630 L 504 662 L 441 662 L 378 630 L 315 567 L 284 504 L 252 410 L 220 284 L 158 0 L 126 -94.5 L 94.5 -158 L 31.5 -220 M 315 536 L 284 441 L 252 284 L 189 0 L 158 -94.5 M 441 662 L 378 598 L 346 536 L 315 441 L 284 284 L 220 31.5 L 189 -63 L 158 -126 L 94.5 -189 L 31.5 -220 L -31.5 -220 L -63 -189 L -63 -126 L 0 -126 L 0 -189 L -31.5 -189 L -31.5 -158 M 126 441 L 472 441" />
<glyph unicode="g" glyph-name="g" horiz-adv-x="662" d="M 504 441 L 378 0 L 346 -94.5 L 284 -189 L 220 -220 M 536 441 L 410 0 L 346 -126 M 504 441 L 567 441 L 441 0 L 378 -126 L 315 -189 L 220 -220 L 126 -220 L 63 -189 L 31.5 -158 L 31.5 -94.5 L 94.5 -94.5 L 94.5 -158 L 63 -158 L 63 -126 M 441 220 L 441 315 L 410 410 L 346 441 L 284 441 L 189 410 L 126 315 L 94.5 220 L 94.5 158 L 126 63 L 158 31.5 L 220 0 L 284 0 L 346 31.5 L 378 63 L 410 126 L 441 220 M 189 378 L 158 315 L 126 220 L 126 126 L 158 63 M 284 441 L 220 378 L 189 315 L 158 220 L 158 126 L 189 31.5 L 220 0" />
<glyph unicode="h" glyph-name="h" horiz-adv-x="693" d="M 252 662 L 63 0 L 126 0 M 284 662 L 94.5 0 M 158 662 L 315 662 L 126 0 M 189 220 L 252 346 L 315 410 L 378 441 L 441 441 L 504 410 L 536 346 L 536 252 L 472 94.5 M 504 410 L 504 284 L 472 158 L 472 31.5 M 504 346 L 441 189 L 441 94.5 L 472 31.5 L 504 0 L 567 0 L 630 63 L 662 126 M 189 662 L 284 630 M 220 662 L 252 598" />
<glyph unicode="i" glyph-name="i" horiz-adv-x="410" d="M 252 662 L 252 598 L 315 598 L 315 662 L 252 662 M 284 662 L 284 598 M 252 630 L 315 630 M 31.5 315 L 63 378 L 126 441 L 189 441 L 220 410 L 252 346 L 252 252 L 189 94.5 M 220 410 L 220 284 L 189 158 L 189 31.5 M 220 346 L 158 189 L 158 94.5 L 189 31.5 L 220 0 L 284 0 L 346 63 L 378 126" />
<glyph unicode="j" glyph-name="j" horiz-adv-x="410" d="M 315 662 L 315 598 L 378 598 L 378 662 L 315 662 M 346 662 L 346 598 M 315 630 L 378 630 M 63 315 L 94.5 378 L 158 441 L 220 441 L 252 410 L 284 346 L 284 252 L 220 31.5 L 189 -63 L 158 -126 L 94.5 -189 L 31.5 -220 L -31.5 -220 L -63 -189 L -63 -126 L 0 -126 L 0 -189 L -31.5 -189 L -31.5 -158 M 252 410 L 252 252 L 189 31.5 L 158 -63 L 126 -126 M 252 346 L 220 220 L 158 0 L 126 -94.5 L 94.5 -158 L 31.5 -220" />
<glyph unicode="k" glyph-name="k" horiz-adv-x="693" d="M 252 662 L 63 0 L 126 0 M 284 662 L 94.5 0 M 158 662 L 315 662 L 126 0 M 567 378 L 567 410 L 536 410 L 536 346 L 598 346 L 598 410 L 567 441 L 504 441 L 441 410 L 315 284 L 252 252 M 189 252 L 252 252 L 315 220 L 346 189 L 410 63 L 441 31.5 L 504 31.5 M 315 189 L 378 63 L 410 31.5 M 252 252 L 284 220 L 346 31.5 L 378 0 L 441 0 L 504 31.5 L 567 126 M 189 662 L 284 630 M 220 662 L 252 598" />
<glyph unicode="l" glyph-name="l" horiz-adv-x="378" d="M 252 662 L 158 315 L 126 189 L 126 94.5 L 158 31.5 L 189 0 L 252 0 L 315 63 L 346 126 M 284 662 L 189 315 L 158 189 L 158 31.5 M 158 662 L 315 662 L 189 220 L 158 94.5 M 189 662 L 284 630 M 220 662 L 252 598" />
<glyph unicode="m" glyph-name="m" horiz-adv-x="1102.5" d="M 31.5 315 L 63 378 L 126 441 L 189 441 L 220 410 L 252 346 L 252 252 L 189 0 M 220 410 L 220 252 L 158 0 M 220 346 L 189 220 L 126 0 L 189 0 M 252 252 L 315 346 L 378 410 L 441 441 L 504 441 L 567 410 L 598 346 L 598 252 L 536 0 M 567 410 L 567 252 L 504 0 M 567 346 L 536 220 L 472 0 L 536 0 M 598 252 L 662 346 L 724 410 L 788 441 L 850 441 L 914 410 L 945 346 L 945 252 L 882 94.5 M 914 410 L 914 284 L 882 158 L 882 31.5 M 914 346 L 850 189 L 850 94.5 L 882 31.5 L 914 0 L 976 0 L 1039.5 63 L 1071.0 126" />
<glyph unicode="n" glyph-name="n" horiz-adv-x="756" d="M 31.5 315 L 63 378 L 126 441 L 189 441 L 220 410 L 252 346 L 252 252 L 189 0 M 220 410 L 220 252 L 158 0 M 220 346 L 189 220 L 126 0 L 189 0 M 252 252 L 315 346 L 378 410 L 441 441 L 504 441 L 567 410 L 598 346 L 598 252 L 536 94.5 M 567 410 L 567 284 L 536 158 L 536 31.5 M 567 346 L 504 189 L 504 94.5 L 536 31.5 L 567 0 L 630 0 L 693 63 L 724 126" />
<glyph unicode="o" glyph-name="o" horiz-adv-x="630" d="M 284 441 L 189 410 L 126 315 L 94.5 220 L 94.5 158 L 126 63 L 158 31.5 L 252 0 L 346 0 L 441 31.5 L 504 126 L 536 220 L 536 284 L 504 378 L 472 410 L 378 441 L 284 441 M 189 378 L 158 315 L 126 220 L 126 126 L 158 63 M 441 63 L 472 126 L 504 220 L 504 315 L 472 378 M 284 441 L 220 378 L 189 315 L 158 220 L 158 126 L 189 31.5 L 252 0 M 346 0 L 410 63 L 441 126 L 472 220 L 472 315 L 441 410 L 378 441" />
<glyph unicode="p" glyph-name="p" horiz-adv-x="693" d="M 31.5 315 L 63 378 L 126 441 L 189 441 L 220 410 L 252 346 L 252 252 L 220 126 L 126 -220 M 220 410 L 220 252 L 189 126 L 94.5 -220 M 220 346 L 189 220 L 63 -220 M 252 220 L 284 315 L 315 378 L 346 410 L 410 441 L 472 441 L 536 410 L 567 378 L 598 284 L 598 220 L 567 126 L 504 31.5 L 410 0 L 346 0 L 284 31.5 L 252 126 L 252 220 M 536 378 L 567 315 L 567 220 L 536 126 L 504 63 M 472 441 L 504 410 L 536 315 L 536 220 L 504 126 L 472 63 L 410 0 M -31.5 -220 L 220 -220 M 94.5 -189 L 0 -220 M 94.5 -158 L 31.5 -220 M 126 -158 L 158 -220 M 94.5 -189 L 189 -220" />
<glyph unicode="q" glyph-name="q" horiz-adv-x="662" d="M 504 441 L 315 -220 M 536 441 L 346 -220 M 504 441 L 567 441 L 378 -220 M 441 220 L 441 315 L 410 410 L 346 441 L 284 441 L 189 410 L 126 315 L 94.5 220 L 94.5 158 L 126 63 L 158 31.5 L 220 0 L 284 0 L 346 31.5 L 378 63 L 410 126 L 441 220 M 189 378 L 158 315 L 126 220 L 126 126 L 158 63 M 284 441 L 220 378 L 189 315 L 158 220 L 158 126 L 189 31.5 L 220 0 M 220 -220 L 472 -220 M 346 -189 L 252 -220 M 346 -158 L 284 -220 M 378 -158 L 410 -220 M 346 -189 L 441 -220" />
<glyph unicode="r" glyph-name="r" horiz-adv-x="567" d="M 31.5 315 L 63 378 L 126 441 L 189 441 L 220 410 L 252 346 L 252 220 L 189 0 M 220 410 L 220 220 L 158 0 M 220 346 L 189 220 L 126 0 L 189 0 M 504 378 L 504 410 L 472 410 L 472 346 L 536 346 L 536 410 L 504 441 L 441 441 L 378 410 L 315 346 L 252 220" />
<glyph unicode="s" glyph-name="s" horiz-adv-x="536" d="M 441 346 L 441 378 L 410 378 L 410 315 L 472 315 L 472 378 L 441 410 L 346 441 L 252 441 L 158 410 L 126 378 L 126 315 L 158 252 L 220 220 L 315 189 L 378 158 L 410 94.5 M 158 410 L 126 315 M 158 284 L 220 252 L 315 220 L 378 189 M 410 158 L 378 31.5 M 126 378 L 158 315 L 220 284 L 315 252 L 378 220 L 410 158 L 410 94.5 L 378 31.5 L 284 0 L 189 0 L 94.5 31.5 L 63 63 L 63 126 L 126 126 L 126 63 L 94.5 63 L 94.5 94.5" />
<glyph unicode="t" glyph-name="t" horiz-adv-x="441" d="M 284 662 L 189 315 L 158 189 L 158 94.5 L 189 31.5 L 220 0 L 284 0 L 346 63 L 378 126 M 315 662 L 220 315 L 189 189 L 189 31.5 M 284 662 L 346 662 L 220 220 L 189 94.5 M 94.5 441 L 410 441" />
<glyph unicode="u" glyph-name="u" horiz-adv-x="756" d="M 31.5 315 L 63 378 L 126 441 L 189 441 L 220 410 L 252 346 L 252 252 L 189 94.5 M 220 410 L 220 284 L 189 158 L 189 31.5 M 220 346 L 158 189 L 158 94.5 L 189 31.5 L 252 0 L 315 0 L 378 31.5 L 441 94.5 L 504 189 M 567 441 L 504 189 L 504 94.5 L 536 31.5 L 567 0 L 630 0 L 693 63 L 724 126 M 598 441 L 536 189 L 536 31.5 M 567 441 L 630 441 L 567 220 L 536 94.5" />
<glyph unicode="v" glyph-name="v" horiz-adv-x="630" d="M 31.5 315 L 63 378 L 126 441 L 189 441 L 220 410 L 252 346 L 252 252 L 189 94.5 M 220 410 L 220 284 L 189 158 L 189 31.5 M 220 346 L 158 189 L 158 94.5 L 189 31.5 L 252 0 L 315 0 L 378 31.5 L 441 94.5 L 504 189 L 536 315 L 536 441 L 504 441 L 504 410 L 536 346" />
<glyph unicode="w" glyph-name="w" horiz-adv-x="945" d="M 31.5 315 L 63 378 L 126 441 L 189 441 L 220 410 L 252 346 L 252 252 L 189 94.5 M 220 410 L 220 284 L 189 158 L 189 31.5 M 220 346 L 158 189 L 158 94.5 L 189 31.5 L 252 0 L 315 0 L 378 31.5 L 441 94.5 L 472 189 M 536 441 L 472 189 L 472 94.5 L 504 31.5 L 567 0 L 630 0 L 693 31.5 L 756 94.5 L 819 189 L 850 315 L 850 441 L 819 441 L 819 410 L 850 346 M 567 441 L 504 189 L 504 31.5 M 536 441 L 598 441 L 536 220 L 504 94.5" />
<glyph unicode="x" glyph-name="x" horiz-adv-x="693" d="M 94.5 315 L 158 410 L 220 441 L 284 441 L 346 410 L 378 346 L 378 284 M 284 441 L 315 410 L 315 284 L 284 158 L 252 94.5 L 189 31.5 L 126 0 L 63 0 L 31.5 31.5 L 31.5 94.5 L 94.5 94.5 L 94.5 31.5 L 63 31.5 L 63 63 M 346 378 L 346 284 L 315 158 L 315 63 M 598 378 L 598 410 L 567 410 L 567 346 L 630 346 L 630 410 L 598 441 L 536 441 L 472 410 L 410 346 L 378 284 L 346 158 L 346 31.5 L 378 0 M 284 158 L 284 94.5 L 315 31.5 L 378 0 L 441 0 L 504 31.5 L 567 126" />
<glyph unicode="y" glyph-name="y" horiz-adv-x="693" d="M 31.5 315 L 63 378 L 126 441 L 189 441 L 220 410 L 252 346 L 252 252 L 189 94.5 M 220 410 L 220 284 L 189 158 L 189 31.5 M 220 346 L 158 189 L 158 94.5 L 189 31.5 L 252 0 L 315 0 L 378 31.5 L 441 94.5 L 504 220 M 567 441 L 441 0 L 410 -94.5 L 346 -189 L 284 -220 M 598 441 L 472 0 L 410 -126 M 567 441 L 630 441 L 504 0 L 441 -126 L 378 -189 L 284 -220 L 189 -220 L 126 -189 L 94.5 -158 L 94.5 -94.5 L 158 -94.5 L 158 -158 L 126 -158 L 126 -126" />
<glyph unicode="z" glyph-name="z" horiz-adv-x="630" d="M 536 441 L 504 378 L 441 315 L 189 126 L 126 63 L 94.5 0 M 504 378 L 220 378 L 158 346 L 126 284 M 441 378 L 315 410 L 220 410 L 189 378 M 441 378 L 315 441 L 220 441 L 158 378 L 126 284 M 126 63 L 410 63 L 472 94.5 L 504 158 M 189 63 L 315 31.5 L 410 31.5 L 441 63 M 189 63 L 315 0 L 410 0 L 472 63 L 504 158" />
<glyph unicode="{" glyph-name="braceleft" horiz-adv-x="441" d="M 284 788 L 220 756 L 189 724 L 158 662 L 158 598 L 189 536 L 220 504 L 252 441 L 252 378 L 189 315 M 220 756 L 189 693 L 189 630 L 220 567 L 252 536 L 284 472 L 284 410 L 252 346 L 126 284 L 252 220 L 284 158 L 284 94.5 L 252 31.5 L 220 0 L 189 -63 L 189 -126 L 220 -189 M 189 252 L 252 189 L 252 126 L 220 63 L 189 31.5 L 158 -31.5 L 158 -94.5 L 189 -158 L 220 -189 L 284 -220" />
<glyph unicode="|" glyph-name="bar" horiz-adv-x="252" d="M 126 788 L 126 -220" />
<glyph unicode="}" glyph-name="braceright" horiz-adv-x="441" d="M 158 788 L 220 756 L 252 724 L 284 662 L 284 598 L 252 536 L 220 504 L 189 441 L 189 378 L 252 315 M 220 756 L 252 693 L 252 630 L 220 567 L 189 536 L 158 472 L 158 410 L 189 346 L 315 284 L 189 220 L 158 158 L 158 94.5 L 189 31.5 L 220 0 L 252 -63 L 252 -126 L 220 -189 M 252 252 L 189 189 L 189 126 L 220 63 L 252 31.5 L 284 -31.5 L 284 -94.5 L 252 -158 L 220 -189 L 158 -220" />
<glyph unicode="~" glyph-name="asciitilde" horiz-adv-x="756" d="M 94.5 189 L 94.5 252 L 126 346 L 189 378 L 252 378 L 315 346 L 441 252 L 504 220 L 567 220 L 630 252 L 662 315 M 94.5 252 L 126 315 L 189 346 L 252 346 L 315 315 L 441 220 L 504 189 L 567 189 L 630 220 L 662 315 L 662 378" />
<glyph unicode="&#xa0;" glyph-name="nbspace" horiz-adv-x="378" />
<glyph unicode="&#xa1;" glyph-name="exclamdown" horiz-adv-x="346" d="M 63 0 L 94.5 0 L 126 31.5 L 189 441 M 63 31.5 L 94.5 31.5 L 189 441 M 63 31.5 L 63 63 L 189 441 M 63 0 L 31.5 31.5 L 31.5 63 L 189 441 M 252 567 L 284 598 L 284 630 L 252 662 L 220 662 L 189 630 L 189 598 L 220 567 L 252 567 M 252 598 L 252 630 L 220 630 L 220 598 L 252 598" />
<glyph unicode="&#xa2;" glyph-name="cent" horiz-adv-x="176" d="M 441 315 L 441 346 L 410 346 L 410 284 L 472 284 L 472 346 L 441 410 L 378 441 L 284 441 L 189 410 L 126 315 L 94.5 220 L 94.5 158 L 126 63 L 158 31.5 L 220 0 L 284 0 L 378 31.5 L 441 126 M 189 378 L 158 315 L 126 220 L 126 126 L 158 63 M 284 441 L 220 378 L 189 315 L 158 220 L 158 126 L 189 31.5 L 220 0 M 265 551 L 265 -154" />
<glyph unicode="&#xa5;" glyph-name="yen" horiz-adv-x="693" d="M 189 662 L 315 346 L 220 0 M 220 662 L 346 346 L 252 0 M 252 662 L 378 346 L 284 0 M 662 630 L 378 346 M 126 662 L 346 662 M 567 662 L 756 662 M 126 0 L 378 0 M 158 662 L 220 630 M 284 662 L 252 598 M 315 662 L 220 630 M 598 662 L 662 630 M 724 662 L 662 630 M 252 31.5 L 158 0 M 252 63 L 189 0 M 284 63 L 315 0 M 252 31.5 L 346 0 M 132 189 L 472 189 M 132 265 L 472 265" />
<glyph unicode="&#xa6;" glyph-name="brokenbar" horiz-adv-x="75.6" d="M 208 236 L 208 -66.1 M 208 709 L 208 406" />
<glyph unicode="&#xa8;" glyph-name="dieresis" horiz-adv-x="567" d=" M 227 724 L 196 693 L 196 662 L 227 630 L 259 630 L 290 662 L 290 693 L 259 724 L 227 724 M 227 693 L 227 662 L 259 662 L 259 693 L 227 693 M 466 724 L 434 693 L 434 662 L 466 630 L 497 630 L 529 662 L 529 693 L 497 724 L 466 724 M 466 693 L 466 662 L 497 662 L 497 693 L 466 693" />
<glyph unicode="&#xa9;" glyph-name="copyright" horiz-adv-x="693" d="M 378 662 L 315 630 L 252 567 L 220 504 L 189 410 L 189 252 L 220 158 L 252 94.5 L 315 31.5 L 378 0 L 504 0 L 567 31.5 L 630 94.5 L 662 158 L 693 252 L 693 410 L 662 504 L 630 567 L 567 630 L 504 662 L 378 662 M 410 630 L 315 598 L 252 504 L 220 410 L 220 252 L 252 158 L 315 63 L 410 31.5 L 472 31.5 L 567 63 L 630 158 L 662 252 L 662 410 L 630 504 L 567 598 L 472 630 L 410 630 M 551 410 L 536 441 L 504 472 L 472 488 L 410 488 L 378 472 L 346 441 L 331 410 L 315 362 L 315 284 L 331 236 L 346 205 L 378 173 L 410 158 L 472 158 L 504 173 L 536 205 L 551 236 M 551 410 L 536 410 L 520 441 L 504 457 L 472 472 L 410 472 L 378 457 L 346 410 L 331 362 L 331 284 L 346 236 L 378 189 L 410 173 L 472 173 L 504 189 L 520 205 L 536 236 L 551 236" />
<glyph unicode="&#xaa;" glyph-name="ordfeminine" horiz-adv-x="346" d="M 378 850 L 346 740 L 346 677 L 362 646 L 378 630 L 410 630 L 441 662 L 457 693 M 394 850 L 362 740 L 362 646 M 378 850 L 410 850 L 378 740 L 362 677 M 346 740 L 346 788 L 331 835 L 299 850 L 268 850 L 220 835 L 189 788 L 173 740 L 173 709 L 189 662 L 205 646 L 236 630 L 268 630 L 299 646 L 315 662 L 331 693 L 346 740 M 236 835 L 205 788 L 189 740 L 189 693 L 205 662 M 268 850 L 236 819 L 220 788 L 205 740 L 205 693 L 220 646 L 236 630" />
<glyph unicode="&#xab;" glyph-name="guillemotleft" horiz-adv-x="454" d="M 252 454 L 50.4 227 L 252 0 M 378 454 L 176 227 L 378 0" />
<glyph unicode="&#xae;" glyph-name="registered" horiz-adv-x="693" d="M 378 662 L 315 630 L 252 567 L 220 504 L 189 410 L 189 252 L 220 158 L 252 94.5 L 315 31.5 L 378 0 L 504 0 L 567 31.5 L 630 94.5 L 662 158 L 693 252 L 693 410 L 662 504 L 630 567 L 567 630 L 504 662 L 378 662 M 410 630 L 315 598 L 252 504 L 220 410 L 220 252 L 252 158 L 315 63 L 410 31.5 L 472 31.5 L 567 63 L 630 158 L 662 252 L 662 410 L 630 504 L 567 598 L 472 630 L 410 630 M 331 488 L 331 158 M 346 472 L 346 158 L 331 158 M 331 488 L 457 488 L 504 472 L 520 457 L 536 425 L 536 378 L 520 346 L 504 331 L 457 315 L 346 315 M 346 472 L 457 472 L 504 457 L 520 425 L 520 378 L 504 346 L 457 331 L 346 331 M 425 315 L 520 158 L 536 158 M 441 315 L 536 158" />
<glyph unicode="&#xb0;" glyph-name="degree" horiz-adv-x="249" d="M 236 765 L 208 756 L 189 737 L 170 709 L 161 680 L 151 643 L 151 614 L 161 586 L 170 576 L 189 567 L 217 567 L 246 576 L 265 595 L 284 624 L 293 652 L 302 690 L 302 718 L 293 747 L 284 756 L 265 765 L 236 765 M 198 737 L 180 709 L 170 680 L 161 643 L 161 605 L 170 586 M 255 595 L 274 624 L 284 652 L 293 690 L 293 728 L 284 747 M 236 765 L 217 756 L 198 728 L 189 709 L 180 680 L 170 643 L 170 595 L 180 576 L 189 567 M 217 567 L 236 576 L 255 605 L 265 624 L 274 652 L 284 690 L 284 737 L 274 756 L 265 765" />
<glyph unicode="&#xb1;" glyph-name="plusminus" horiz-adv-x="630" d="M 554 37.8 L 1008.0 37.8 M 756 643 L 756 214 L 781 214 M 756 643 L 781 643 L 781 214 M 554 441 L 983 441 L 983 416 M 554 441 L 554 416 L 983 416" />
<glyph unicode="&#xb2;" glyph-name="twosuperior" horiz-adv-x="331" d="M 236 882 L 236 898 L 252 898 L 252 866 L 220 866 L 220 898 L 236 929 L 252 945 L 299 961 L 346 961 L 394 945 L 410 914 L 410 882 L 394 850 L 362 819 L 205 724 L 173 693 L 142 630 M 378 945 L 394 914 L 394 882 L 378 850 L 346 819 L 299 788 M 346 961 L 362 945 L 378 914 L 378 882 L 362 850 L 331 819 L 205 724 M 158 662 L 173 677 L 205 677 L 284 662 L 362 662 L 378 677 M 205 677 L 284 646 L 362 646 M 205 677 L 284 630 L 331 630 L 362 646 L 378 677 L 378 693" />
<glyph unicode="&#xb3;" glyph-name="threesuperior" horiz-adv-x="331" d="M 236 882 L 236 898 L 252 898 L 252 866 L 220 866 L 220 898 L 236 929 L 252 945 L 299 961 L 346 961 L 394 945 L 410 914 L 410 882 L 394 850 L 378 835 L 346 819 L 299 803 M 378 945 L 394 914 L 394 882 L 378 850 L 362 835 M 346 961 L 362 945 L 378 914 L 378 882 L 362 850 L 331 819 L 299 803 M 268 803 L 299 803 L 346 788 L 362 772 L 378 740 L 378 693 L 362 662 L 331 646 L 284 630 L 236 630 L 189 646 L 173 662 L 158 693 L 158 724 L 189 724 L 189 693 L 173 693 L 173 709 M 346 772 L 362 740 L 362 693 L 346 662 M 299 803 L 331 788 L 346 756 L 346 693 L 331 662 L 315 646 L 284 630" />
<glyph unicode="&#xb4;" glyph-name="acute" horiz-adv-x="378" d=" M 378 788 L 220 598 M 378 788 L 410 756 L 220 598" />
<glyph unicode="&#xb7;" glyph-name="middot" horiz-adv-x="333" d="M 189 416 L 151 378 L 151 340 L 189 302 L 227 302 L 265 340 L 265 378 L 227 416 L 189 416 M 189 378 L 189 340 L 227 340 L 227 378 L 189 378" />
<glyph unicode="&#xb9;" glyph-name="onesuperior" horiz-adv-x="331" d="M 315 898 L 236 630 L 268 630 M 362 961 L 331 898 L 252 630 M 362 961 L 268 630 M 362 961 L 315 914 L 268 882 L 236 866 M 315 898 L 284 882 L 236 866" />
<glyph unicode="&#xba;" glyph-name="ordmasculine" horiz-adv-x="249" d="M 236 765 L 208 756 L 189 737 L 170 709 L 161 680 L 151 643 L 151 614 L 161 586 L 170 576 L 189 567 L 217 567 L 246 576 L 265 595 L 284 624 L 293 652 L 302 690 L 302 718 L 293 747 L 284 756 L 265 765 L 236 765 M 198 737 L 180 709 L 170 680 L 161 643 L 161 605 L 170 586 M 255 595 L 274 624 L 284 652 L 293 690 L 293 728 L 284 747 M 236 765 L 217 756 L 198 728 L 189 709 L 180 680 L 170 643 L 170 595 L 180 576 L 189 567 M 217 567 L 236 576 L 255 605 L 265 624 L 274 652 L 284 690 L 284 737 L 274 756 L 265 765" />
<glyph unicode="&#xbb;" glyph-name="guillemotright" horiz-adv-x="454" d="M 50.4 454 L 252 227 L 50.4 0 M 176 454 L 378 227 L 176 0" />
<glyph unicode="&#xbc;" glyph-name="onequarter" horiz-adv-x="714" d="M 227 699 L 132 378 L 170 378 M 284 775 L 246 699 L 151 378 M 284 775 L 170 378 M 284 775 L 227 718 L 170 680 L 132 662 M 227 699 L 189 680 L 132 662 M 662 788 L 94.5 -220 L 126 -220 M 662 788 L 693 788 L 126 -220 M 756 302 L 662 -18.9 L 699 -18.9 M 813 378 L 775 302 L 680 -18.9 M 813 378 L 699 -18.9 M 813 378 L 510 94.5 L 813 94.5" />
<glyph unicode="&#xbd;" glyph-name="onehalf" horiz-adv-x="714" d="M 227 699 L 132 378 L 170 378 M 284 775 L 246 699 L 151 378 M 284 775 L 170 378 M 284 775 L 227 718 L 170 680 L 132 662 M 227 699 L 189 680 L 132 662 M 662 788 L 94.5 -220 L 126 -220 M 662 788 L 693 788 L 126 -220 M 605 284 L 605 302 L 624 302 L 624 265 L 586 265 L 586 302 L 605 340 L 624 359 L 680 378 L 737 378 L 794 359 L 813 321 L 813 284 L 794 246 L 756 208 L 567 94.5 L 529 56.7 L 491 -18.9 M 775 359 L 794 321 L 794 284 L 775 246 L 737 208 L 680 170 M 737 378 L 756 359 L 775 321 L 775 284 L 756 246 L 718 208 L 567 94.5 M 510 18.9 L 529 37.8 L 567 37.8 L 662 18.9 L 756 18.9 L 775 37.8 M 567 37.8 L 662 0 L 756 0 M 567 37.8 L 662 -18.9 L 718 -18.9 L 756 0 L 775 37.8 L 775 56.7" />
<glyph unicode="&#xbe;" glyph-name="threequarters" horiz-adv-x="714" d="M 132 680 L 132 699 L 151 699 L 151 662 L 113 662 L 113 699 L 132 737 L 151 756 L 208 775 L 265 775 L 321 756 L 340 718 L 340 680 L 321 643 L 302 624 L 265 605 L 208 586 M 302 756 L 321 718 L 321 680 L 302 643 L 284 624 M 265 775 L 284 756 L 302 718 L 302 680 L 284 643 L 246 605 L 208 586 M 170 586 L 208 586 L 265 567 L 284 548 L 302 510 L 302 454 L 284 416 L 246 397 L 189 378 L 132 378 L 75.6 397 L 56.7 416 L 37.8 454 L 37.8 491 L 75.6 491 L 75.6 454 L 56.7 454 L 56.7 472 M 265 548 L 284 510 L 284 454 L 265 416 M 208 586 L 246 567 L 265 529 L 265 454 L 246 416 L 227 397 L 189 378 M 662 788 L 94.5 -220 L 126 -220 M 662 788 L 693 788 L 126 -220 M 756 302 L 662 -18.9 L 699 -18.9 M 813 378 L 775 302 L 680 -18.9 M 813 378 L 699 -18.9 M 813 378 L 510 94.5 L 813 94.5" />
<glyph unicode="&#xbf;" glyph-name="questiondown" horiz-adv-x="662" d="M 441 158 L 441 126 L 410 126 L 410 189 L 472 189 L 472 126 L 441 63 L 410 31.5 L 315 0 L 189 0 L 94.5 31.5 L 63 94.5 L 63 158 L 94.5 220 L 126 252 L 189 284 L 315 315 L 378 346 L 378 410 L 315 441 L 284 441 M 252 0 L 94.5 31.5 M 126 31.5 L 94.5 94.5 L 94.5 158 L 126 220 L 158 252 L 220 284 M 189 0 L 158 31.5 L 126 94.5 L 126 158 L 158 220 L 189 252 L 315 315 L 346 346 L 346 410 L 315 441 M 410 567 L 441 598 L 441 630 L 410 662 L 378 662 L 346 630 L 346 598 L 378 567 L 410 567 M 410 598 L 410 630 L 378 630 L 378 598 L 410 598" />
<glyph unicode="&#xc0;" glyph-name="Agrave" horiz-adv-x="630" d="M 410 662 L 31.5 31.5 M 346 536 L 378 0 M 378 598 L 410 31.5 M 410 662 L 410 598 L 441 63 L 441 0 M 126 189 L 378 189 M -63 0 L 126 0 M 284 0 L 504 0 M 31.5 31.5 L -31.5 0 M 31.5 31.5 L 94.5 0 M 378 31.5 L 315 0 M 378 63 L 346 0 M 441 63 L 472 0 M 284 1039.5 L 441 850 M 284 1039.5 L 252 1008.0 L 441 850" />
<glyph unicode="&#xc1;" glyph-name="Aacute" horiz-adv-x="630" d="M 410 662 L 31.5 31.5 M 346 536 L 378 0 M 378 598 L 410 31.5 M 410 662 L 410 598 L 441 63 L 441 0 M 126 189 L 378 189 M -63 0 L 126 0 M 284 0 L 504 0 M 31.5 31.5 L -31.5 0 M 31.5 31.5 L 94.5 0 M 378 31.5 L 315 0 M 378 63 L 346 0 M 441 63 L 472 0 M 504 1071.0 L 346 882 M 504 1071.0 L 536 1039.5 L 346 882" />
<glyph unicode="&#xc2;" glyph-name="Acircumflex" horiz-adv-x="630" d="M 410 662 L 31.5 31.5 M 346 536 L 378 0 M 378 598 L 410 31.5 M 410 662 L 410 598 L 441 63 L 441 0 M 126 189 L 378 189 M -63 0 L 126 0 M 284 0 L 504 0 M 31.5 31.5 L -31.5 0 M 31.5 31.5 L 94.5 0 M 378 31.5 L 315 0 M 378 63 L 346 0 M 441 63 L 472 0 M 246 775 L 397 869 L 548 775 M 246 775 L 397 850 L 548 775" />
<glyph unicode="&#xc3;" glyph-name="Atilde" horiz-adv-x="630" d="M 410 662 L 31.5 31.5 M 346 536 L 378 0 M 378 598 L 410 31.5 M 410 662 L 410 598 L 441 63 L 441 0 M 126 189 L 378 189 M -63 0 L 126 0 M 284 0 L 504 0 M 31.5 31.5 L -31.5 0 M 31.5 31.5 L 94.5 0 M 378 31.5 L 315 0 M 378 63 L 346 0 M 441 63 L 472 0 M 239 813 L 239 850 L 258 907 L 296 926 L 334 926 L 372 907 L 447 850 L 485 832 L 523 832 L 561 850 L 580 888 M 239 850 L 258 888 L 296 907 L 334 907 L 372 888 L 447 832 L 485 813 L 523 813 L 561 832 L 580 888 L 580 926" />
<glyph unicode="&#xc4;" glyph-name="Adieresis" horiz-adv-x="630" d="M 410 662 L 31.5 31.5 M 346 536 L 378 0 M 378 598 L 410 31.5 M 410 662 L 410 598 L 441 63 L 441 0 M 126 189 L 378 189 M -63 0 L 126 0 M 284 0 L 504 0 M 31.5 31.5 L -31.5 0 M 31.5 31.5 L 94.5 0 M 378 31.5 L 315 0 M 378 63 L 346 0 M 441 63 L 472 0 M 346 945 L 315 914 L 315 882 L 346 850 L 378 850 L 409 882 L 409 914 L 378 945 L 346 945 M 346 914 L 346 882 L 378 882 L 378 914 L 346 914 M 599 945 L 567 914 L 567 882 L 599 850 L 630 850 L 662 882 L 662 914 L 630 945 L 599 945 M 599 914 L 599 882 L 630 882 L 630 914 L 599 914" />
<glyph unicode="&#xc5;" glyph-name="Aring" horiz-adv-x="630" d="M 410 662 L 31.5 31.5 M 346 536 L 378 0 M 378 598 L 410 31.5 M 410 662 L 410 598 L 441 63 L 441 0 M 126 189 L 378 189 M -63 0 L 126 0 M 284 0 L 504 0 M 31.5 31.5 L -31.5 0 M 31.5 31.5 L 94.5 0 M 378 31.5 L 315 0 M 378 63 L 346 0 M 441 63 L 472 0 M 444 1048.9 L 416 1039.5 L 397 1020.6 L 378 992 L 369 964 L 359 926 L 359 898 L 369 869 L 378 860 L 397 850 L 425 850 L 454 860 L 472 879 L 491 907 L 501 936 L 510 973 L 510 1001.7 L 501 1030.0 L 491 1039.5 L 472 1048.9 L 444 1048.9 M 406 1020.6 L 387 992 L 378 964 L 369 926 L 369 888 L 378 869 M 463 879 L 482 907 L 491 936 L 501 973 L 501 1011.1 L 491 1030.0 M 444 1048.9 L 425 1039.5 L 406 1011.1 L 397 992 L 387 964 L 378 926 L 378 879 L 387 860 L 397 850 M 425 850 L 444 860 L 463 888 L 472 907 L 482 936 L 491 973 L 491 1020.6 L 482 1039.5 L 472 1048.9" />
<glyph unicode="&#xc8;" glyph-name="Egrave" horiz-adv-x="724" d="M 284 662 L 94.5 0 M 315 662 L 126 0 M 346 662 L 158 0 M 472 472 L 410 220 M 189 662 L 662 662 L 630 472 M 252 346 L 441 346 M 0 0 L 472 0 L 536 158 M 220 662 L 315 630 M 252 662 L 284 598 M 378 662 L 315 598 M 410 662 L 315 630 M 536 662 L 630 630 M 567 662 L 630 598 M 598 662 L 630 567 M 630 662 L 630 472 M 472 472 L 410 346 L 410 220 M 441 410 L 378 346 L 410 284 M 441 378 L 346 346 L 410 315 M 126 31.5 L 31.5 0 M 126 63 L 63 0 M 158 63 L 189 0 M 126 31.5 L 220 0 M 315 0 L 472 31.5 M 378 0 L 472 63 M 472 63 L 536 158 M 331 1039.5 L 488 850 M 331 1039.5 L 299 1008.0 L 488 850" />
<glyph unicode="&#xc9;" glyph-name="Eacute" horiz-adv-x="724" d="M 284 662 L 94.5 0 M 315 662 L 126 0 M 346 662 L 158 0 M 472 472 L 410 220 M 189 662 L 662 662 L 630 472 M 252 346 L 441 346 M 0 0 L 472 0 L 536 158 M 220 662 L 315 630 M 252 662 L 284 598 M 378 662 L 315 598 M 410 662 L 315 630 M 536 662 L 630 630 M 567 662 L 630 598 M 598 662 L 630 567 M 630 662 L 630 472 M 472 472 L 410 346 L 410 220 M 441 410 L 378 346 L 410 284 M 441 378 L 346 346 L 410 315 M 126 31.5 L 31.5 0 M 126 63 L 63 0 M 158 63 L 189 0 M 126 31.5 L 220 0 M 315 0 L 472 31.5 M 378 0 L 472 63 M 472 63 L 536 158 M 551 1071.0 L 394 882 M 551 1071.0 L 583 1039.5 L 394 882" />
<glyph unicode="&#xca;" glyph-name="Ecircumflex" horiz-adv-x="724" d="M 284 662 L 94.5 0 M 315 662 L 126 0 M 346 662 L 158 0 M 472 472 L 410 220 M 189 662 L 662 662 L 630 472 M 252 346 L 441 346 M 0 0 L 472 0 L 536 158 M 220 662 L 315 630 M 252 662 L 284 598 M 378 662 L 315 598 M 410 662 L 315 630 M 536 662 L 630 630 M 567 662 L 630 598 M 598 662 L 630 567 M 630 662 L 630 472 M 472 472 L 410 346 L 410 220 M 441 410 L 378 346 L 410 284 M 441 378 L 346 346 L 410 315 M 126 31.5 L 31.5 0 M 126 63 L 63 0 M 158 63 L 189 0 M 126 31.5 L 220 0 M 315 0 L 472 31.5 M 378 0 L 472 63 M 472 63 L 536 158 M 274 775 L 425 869 L 576 775 M 274 775 L 425 850 L 576 775" />
<glyph unicode="&#xcb;" glyph-name="Edieresis" horiz-adv-x="724" d="M 284 662 L 94.5 0 M 315 662 L 126 0 M 346 662 L 158 0 M 472 472 L 410 220 M 189 662 L 662 662 L 630 472 M 252 346 L 441 346 M 0 0 L 472 0 L 536 158 M 220 662 L 315 630 M 252 662 L 284 598 M 378 662 L 315 598 M 410 662 L 315 630 M 536 662 L 630 630 M 567 662 L 630 598 M 598 662 L 630 567 M 630 662 L 630 472 M 472 472 L 410 346 L 410 220 M 441 410 L 378 346 L 410 284 M 441 378 L 346 346 L 410 315 M 126 31.5 L 31.5 0 M 126 63 L 63 0 M 158 63 L 189 0 M 126 31.5 L 220 0 M 315 0 L 472 31.5 M 378 0 L 472 63 M 472 63 L 536 158 M 396 945 L 365 914 L 365 882 L 396 850 L 428 850 L 459 882 L 459 914 L 428 945 L 396 945 M 396 914 L 396 882 L 428 882 L 428 914 L 396 914 M 643 945 L 612 914 L 612 882 L 643 850 L 675 850 L 706 882 L 706 914 L 675 945 L 643 945 M 643 914 L 643 882 L 675 882 L 675 914 L 643 914" />
<glyph unicode="&#xcc;" glyph-name="Igrave" horiz-adv-x="441" d="M 284 662 L 94.5 0 M 315 662 L 126 0 M 346 662 L 158 0 M 189 662 L 441 662 M 0 0 L 252 0 M 220 662 L 315 630 M 252 662 L 284 598 M 378 662 L 315 598 M 410 662 L 315 630 M 126 31.5 L 31.5 0 M 126 63 L 63 0 M 158 63 L 189 0 M 126 31.5 L 220 0 M 189 1039.5 L 346 850 M 189 1039.5 L 158 1008.0 L 346 850" />
<glyph unicode="&#xcd;" glyph-name="Iacute" horiz-adv-x="441" d="M 284 662 L 94.5 0 M 315 662 L 126 0 M 346 662 L 158 0 M 189 662 L 441 662 M 0 0 L 252 0 M 220 662 L 315 630 M 252 662 L 284 598 M 378 662 L 315 598 M 410 662 L 315 630 M 126 31.5 L 31.5 0 M 126 63 L 63 0 M 158 63 L 189 0 M 126 31.5 L 220 0 M 410 1071.0 L 252 882 M 410 1071.0 L 441 1039.5 L 252 882" />
<glyph unicode="&#xce;" glyph-name="Icircumflex" horiz-adv-x="441" d="M 284 662 L 94.5 0 M 315 662 L 126 0 M 346 662 L 158 0 M 189 662 L 441 662 M 0 0 L 252 0 M 220 662 L 315 630 M 252 662 L 284 598 M 378 662 L 315 598 M 410 662 L 315 630 M 126 31.5 L 31.5 0 M 126 63 L 63 0 M 158 63 L 189 0 M 126 31.5 L 220 0 M 189 775 L 340 869 L 491 775 M 189 775 L 340 850 L 491 775" />
<glyph unicode="&#xcf;" glyph-name="Idieresis" horiz-adv-x="441" d="M 284 662 L 94.5 0 M 315 662 L 126 0 M 346 662 L 158 0 M 189 662 L 441 662 M 0 0 L 252 0 M 220 662 L 315 630 M 252 662 L 284 598 M 378 662 L 315 598 M 410 662 L 315 630 M 126 31.5 L 31.5 0 M 126 63 L 63 0 M 158 63 L 189 0 M 126 31.5 L 220 0 M 249 945 L 218 914 L 218 882 L 249 850 L 281 850 L 312 882 L 312 914 L 281 945 L 249 945 M 249 914 L 249 882 L 281 882 L 281 914 L 249 914 M 507 945 L 475 914 L 475 882 L 507 850 L 538 850 L 570 882 L 570 914 L 538 945 L 507 945 M 507 914 L 507 882 L 538 882 L 538 914 L 507 914" />
<glyph unicode="&#xd0;" glyph-name="Eth" horiz-adv-x="724" d="M 78.8 252 L 362 252 M 284 662 L 94.5 0 M 315 662 L 126 0 M 346 662 L 158 0 M 189 662 L 472 662 L 567 630 L 598 598 L 630 504 L 630 378 L 598 252 L 536 126 L 472 63 L 410 31.5 L 284 0 L 0 0 M 536 630 L 567 598 L 598 504 L 598 378 L 567 252 L 504 126 L 441 63 M 472 662 L 536 598 L 567 504 L 567 378 L 536 252 L 472 126 L 378 31.5 L 284 0 M 220 662 L 315 630 M 252 662 L 284 598 M 378 662 L 315 598 M 410 662 L 315 630 M 126 31.5 L 31.5 0 M 126 63 L 63 0 M 158 63 L 189 0 M 126 31.5 L 220 0" />
<glyph unicode="&#xd1;" glyph-name="Ntilde" horiz-adv-x="788" d="M 284 662 L 94.5 31.5 M 284 662 L 504 0 M 315 662 L 504 94.5 M 346 662 L 536 94.5 M 693 630 L 536 94.5 L 504 0 M 189 662 L 346 662 M 598 662 L 788 662 M 0 0 L 189 0 M 220 662 L 315 630 M 252 662 L 315 598 M 630 662 L 693 630 M 756 662 L 693 630 M 94.5 31.5 L 31.5 0 M 94.5 31.5 L 158 0 M 271 813 L 271 850 L 290 907 L 328 926 L 365 926 L 403 907 L 479 850 L 517 832 L 554 832 L 592 850 L 611 888 M 271 850 L 290 888 L 328 907 L 365 907 L 403 888 L 479 832 L 517 813 L 554 813 L 592 832 L 611 888 L 611 926" />
<glyph unicode="&#xd2;" glyph-name="Ograve" horiz-adv-x="693" d="M 378 662 L 284 630 L 220 567 L 158 472 L 126 378 L 94.5 252 L 94.5 158 L 126 63 L 158 31.5 L 220 0 L 315 0 L 410 31.5 L 472 94.5 L 536 189 L 567 284 L 598 410 L 598 504 L 567 598 L 536 630 L 472 662 L 378 662 M 252 567 L 189 472 L 158 378 L 126 252 L 126 126 L 158 63 M 441 94.5 L 504 189 L 536 284 L 567 410 L 567 536 L 536 598 M 378 662 L 315 630 L 252 536 L 220 472 L 189 378 L 158 252 L 158 94.5 L 189 31.5 L 220 0 M 315 0 L 378 31.5 L 441 126 L 472 189 L 504 284 L 536 410 L 536 567 L 504 630 L 472 662 M 315 1039.5 L 472 850 M 315 1039.5 L 284 1008.0 L 472 850" />
<glyph unicode="&#xd3;" glyph-name="Oacute" horiz-adv-x="693" d="M 378 662 L 284 630 L 220 567 L 158 472 L 126 378 L 94.5 252 L 94.5 158 L 126 63 L 158 31.5 L 220 0 L 315 0 L 410 31.5 L 472 94.5 L 536 189 L 567 284 L 598 410 L 598 504 L 567 598 L 536 630 L 472 662 L 378 662 M 252 567 L 189 472 L 158 378 L 126 252 L 126 126 L 158 63 M 441 94.5 L 504 189 L 536 284 L 567 410 L 567 536 L 536 598 M 378 662 L 315 630 L 252 536 L 220 472 L 189 378 L 158 252 L 158 94.5 L 189 31.5 L 220 0 M 315 0 L 378 31.5 L 441 126 L 472 189 L 504 284 L 536 410 L 536 567 L 504 630 L 472 662 M 536 1071.0 L 378 882 M 536 1071.0 L 567 1039.5 L 378 882" />
<glyph unicode="&#xd4;" glyph-name="Ocircumflex" horiz-adv-x="693" d="M 378 662 L 284 630 L 220 567 L 158 472 L 126 378 L 94.5 252 L 94.5 158 L 126 63 L 158 31.5 L 220 0 L 315 0 L 410 31.5 L 472 94.5 L 536 189 L 567 284 L 598 410 L 598 504 L 567 598 L 536 630 L 472 662 L 378 662 M 252 567 L 189 472 L 158 378 L 126 252 L 126 126 L 158 63 M 441 94.5 L 504 189 L 536 284 L 567 410 L 567 536 L 536 598 M 378 662 L 315 630 L 252 536 L 220 472 L 189 378 L 158 252 L 158 94.5 L 189 31.5 L 220 0 M 315 0 L 378 31.5 L 441 126 L 472 189 L 504 284 L 536 410 L 536 567 L 504 630 L 472 662 M 265 775 L 416 869 L 567 775 M 265 775 L 416 850 L 567 775" />
<glyph unicode="&#xd5;" glyph-name="Otilde" horiz-adv-x="693" d="M 378 662 L 284 630 L 220 567 L 158 472 L 126 378 L 94.5 252 L 94.5 158 L 126 63 L 158 31.5 L 220 0 L 315 0 L 410 31.5 L 472 94.5 L 536 189 L 567 284 L 598 410 L 598 504 L 567 598 L 536 630 L 472 662 L 378 662 M 252 567 L 189 472 L 158 378 L 126 252 L 126 126 L 158 63 M 441 94.5 L 504 189 L 536 284 L 567 410 L 567 536 L 536 598 M 378 662 L 315 630 L 252 536 L 220 472 L 189 378 L 158 252 L 158 94.5 L 189 31.5 L 220 0 M 315 0 L 378 31.5 L 441 126 L 472 189 L 504 284 L 536 410 L 536 567 L 504 630 L 472 662 M 252 813 L 252 850 L 271 907 L 309 926 L 346 926 L 384 907 L 460 850 L 498 832 L 535 832 L 573 850 L 592 888 M 252 850 L 271 888 L 309 907 L 346 907 L 384 888 L 460 832 L 498 813 L 535 813 L 573 832 L 592 888 L 592 926" />
<glyph unicode="&#xd6;" glyph-name="Odieresis" horiz-adv-x="693" d="M 378 662 L 284 630 L 220 567 L 158 472 L 126 378 L 94.5 252 L 94.5 158 L 126 63 L 158 31.5 L 220 0 L 315 0 L 410 31.5 L 472 94.5 L 536 189 L 567 284 L 598 410 L 598 504 L 567 598 L 536 630 L 472 662 L 378 662 M 252 567 L 189 472 L 158 378 L 126 252 L 126 126 L 158 63 M 441 94.5 L 504 189 L 536 284 L 567 410 L 567 536 L 536 598 M 378 662 L 315 630 L 252 536 L 220 472 L 189 378 L 158 252 L 158 94.5 L 189 31.5 L 220 0 M 315 0 L 378 31.5 L 441 126 L 472 189 L 504 284 L 536 410 L 536 567 L 504 630 L 472 662 M 319 945 L 287 914 L 287 882 L 319 850 L 350 850 L 382 882 L 382 914 L 350 945 L 319 945 M 319 914 L 319 882 L 350 882 L 350 914 L 319 914 M 563 945 L 532 914 L 532 882 L 563 850 L 595 850 L 626 882 L 626 914 L 595 945 L 563 945 M 563 914 L 563 882 L 595 882 L 595 914 L 563 914" />
<glyph unicode="&#xd7;" glyph-name="multiply" horiz-adv-x="567" d="M 189 441 L 536 0 L 567 0 M 189 441 L 220 441 L 567 0 M 567 441 L 536 441 L 189 0 M 567 441 L 220 0 L 189 0" />
<glyph unicode="&#xd8;" glyph-name="Oslash" horiz-adv-x="693" d="M 378 662 L 284 630 L 220 567 L 158 472 L 126 378 L 94.5 252 L 94.5 158 L 126 63 L 158 31.5 L 220 0 L 315 0 L 410 31.5 L 472 94.5 L 536 189 L 567 284 L 598 410 L 598 504 L 567 598 L 536 630 L 472 662 L 378 662 M 252 567 L 189 472 L 158 378 L 126 252 L 126 126 L 158 63 M 441 94.5 L 504 189 L 536 284 L 567 410 L 567 536 L 536 598 M 378 662 L 315 630 L 252 536 L 220 472 L 189 378 L 158 252 L 158 94.5 L 189 31.5 L 220 0 M 315 0 L 378 31.5 L 441 126 L 472 189 L 504 284 L 536 410 L 536 567 L 504 630 L 472 662 M 567 765 L 56.7 -142 L 85.1 -142 M 567 765 L 595 765 L 85.1 -142" />
<glyph unicode="&#xd9;" glyph-name="Ugrave" horiz-adv-x="788" d="M 252 662 L 158 315 L 126 189 L 126 94.5 L 158 31.5 L 252 0 L 378 0 L 472 31.5 L 536 94.5 L 567 189 L 693 630 M 284 662 L 189 315 L 158 189 L 158 63 L 189 31.5 M 315 662 L 220 315 L 189 189 L 189 63 L 252 0 M 158 662 L 410 662 M 598 662 L 788 662 M 189 662 L 284 630 M 220 662 L 252 598 M 346 662 L 284 598 M 378 662 L 284 630 M 630 662 L 693 630 M 756 662 L 693 630 M 362 1039.5 L 520 850 M 362 1039.5 L 331 1008.0 L 520 850" />
<glyph unicode="&#xda;" glyph-name="Uacute" horiz-adv-x="788" d="M 252 662 L 158 315 L 126 189 L 126 94.5 L 158 31.5 L 252 0 L 378 0 L 472 31.5 L 536 94.5 L 567 189 L 693 630 M 284 662 L 189 315 L 158 189 L 158 63 L 189 31.5 M 315 662 L 220 315 L 189 189 L 189 63 L 252 0 M 158 662 L 410 662 M 598 662 L 788 662 M 189 662 L 284 630 M 220 662 L 252 598 M 346 662 L 284 598 M 378 662 L 284 630 M 630 662 L 693 630 M 756 662 L 693 630 M 583 1071.0 L 425 882 M 583 1071.0 L 614 1039.5 L 425 882" />
<glyph unicode="&#xdb;" glyph-name="Ucircumflex" horiz-adv-x="788" d="M 252 662 L 158 315 L 126 189 L 126 94.5 L 158 31.5 L 252 0 L 378 0 L 472 31.5 L 536 94.5 L 567 189 L 693 630 M 284 662 L 189 315 L 158 189 L 158 63 L 189 31.5 M 315 662 L 220 315 L 189 189 L 189 63 L 252 0 M 158 662 L 410 662 M 598 662 L 788 662 M 189 662 L 284 630 M 220 662 L 252 598 M 346 662 L 284 598 M 378 662 L 284 630 M 630 662 L 693 630 M 756 662 L 693 630 M 293 775 L 444 869 L 595 775 M 293 775 L 444 850 L 595 775" />
<glyph unicode="&#xdc;" glyph-name="Udieresis" horiz-adv-x="788" d="M 252 662 L 158 315 L 126 189 L 126 94.5 L 158 31.5 L 252 0 L 378 0 L 472 31.5 L 536 94.5 L 567 189 L 693 630 M 284 662 L 189 315 L 158 189 L 158 63 L 189 31.5 M 315 662 L 220 315 L 189 189 L 189 63 L 252 0 M 158 662 L 410 662 M 598 662 L 788 662 M 189 662 L 284 630 M 220 662 L 252 598 M 346 662 L 284 598 M 378 662 L 284 630 M 630 662 L 693 630 M 756 662 L 693 630 M 391 945 L 359 914 L 359 882 L 391 850 L 422 850 L 454 882 L 454 914 L 422 945 L 391 945 M 391 914 L 391 882 L 422 882 L 422 914 L 391 914 M 649 945 L 617 914 L 617 882 L 649 850 L 680 850 L 712 882 L 712 914 L 680 945 L 649 945 M 649 914 L 649 882 L 680 882 L 680 914 L 649 914" />
<glyph unicode="&#xdd;" glyph-name="Yacute" horiz-adv-x="693" d="M 189 662 L 315 346 L 220 0 M 220 662 L 346 346 L 252 0 M 252 662 L 378 346 L 284 0 M 662 630 L 378 346 M 126 662 L 346 662 M 567 662 L 756 662 M 126 0 L 378 0 M 158 662 L 220 630 M 284 662 L 252 598 M 315 662 L 220 630 M 598 662 L 662 630 M 724 662 L 662 630 M 252 31.5 L 158 0 M 252 63 L 189 0 M 284 63 L 315 0 M 252 31.5 L 346 0 M 536 1071.0 L 378 882 M 536 1071.0 L 567 1039.5 L 378 882" />
<glyph unicode="&#xe0;" glyph-name="agrave" horiz-adv-x="693" d="M 504 441 L 441 220 L 441 94.5 L 472 31.5 L 504 0 L 567 0 L 630 63 L 662 126 M 536 441 L 472 220 L 472 31.5 M 504 441 L 567 441 L 504 220 L 472 94.5 M 441 220 L 441 315 L 410 410 L 346 441 L 284 441 L 189 410 L 126 315 L 94.5 220 L 94.5 158 L 126 63 L 158 31.5 L 220 0 L 284 0 L 346 31.5 L 378 63 L 410 126 L 441 220 M 220 410 L 158 315 L 126 220 L 126 126 L 158 63 M 284 441 L 220 378 L 189 315 L 158 220 L 158 126 L 189 31.5 L 220 0 M 220 819 L 378 630 M 220 819 L 189 788 L 378 630" />
<glyph unicode="&#xe1;" glyph-name="aacute" horiz-adv-x="693" d="M 504 441 L 441 220 L 441 94.5 L 472 31.5 L 504 0 L 567 0 L 630 63 L 662 126 M 536 441 L 472 220 L 472 31.5 M 504 441 L 567 441 L 504 220 L 472 94.5 M 441 220 L 441 315 L 410 410 L 346 441 L 284 441 L 189 410 L 126 315 L 94.5 220 L 94.5 158 L 126 63 L 158 31.5 L 220 0 L 284 0 L 346 31.5 L 378 63 L 410 126 L 441 220 M 220 410 L 158 315 L 126 220 L 126 126 L 158 63 M 284 441 L 220 378 L 189 315 L 158 220 L 158 126 L 189 31.5 L 220 0 M 536 788 L 378 598 M 536 788 L 567 756 L 378 598" />
<glyph unicode="&#xe2;" glyph-name="acircumflex" horiz-adv-x="693" d="M 504 441 L 441 220 L 441 94.5 L 472 31.5 L 504 0 L 567 0 L 630 63 L 662 126 M 536 441 L 472 220 L 472 31.5 M 504 441 L 567 441 L 504 220 L 472 94.5 M 441 220 L 441 315 L 410 410 L 346 441 L 284 441 L 189 410 L 126 315 L 94.5 220 L 94.5 158 L 126 63 L 158 31.5 L 220 0 L 284 0 L 346 31.5 L 378 63 L 410 126 L 441 220 M 220 410 L 158 315 L 126 220 L 126 126 L 158 63 M 284 441 L 220 378 L 189 315 L 158 220 L 158 126 L 189 31.5 L 220 0 M 208 567 L 359 662 L 510 567 M 208 567 L 359 643 L 510 567" />
<glyph unicode="&#xe3;" glyph-name="atilde" horiz-adv-x="693" d="M 504 441 L 441 220 L 441 94.5 L 472 31.5 L 504 0 L 567 0 L 630 63 L 662 126 M 536 441 L 472 220 L 472 31.5 M 504 441 L 567 441 L 504 220 L 472 94.5 M 441 220 L 441 315 L 410 410 L 346 441 L 284 441 L 189 410 L 126 315 L 94.5 220 L 94.5 158 L 126 63 L 158 31.5 L 220 0 L 284 0 L 346 31.5 L 378 63 L 410 126 L 441 220 M 220 410 L 158 315 L 126 220 L 126 126 L 158 63 M 284 441 L 220 378 L 189 315 L 158 220 L 158 126 L 189 31.5 L 220 0 M 195 624 L 195 662 L 214 718 L 252 737 L 290 737 L 328 718 L 403 662 L 441 643 L 479 643 L 517 662 L 535 699 M 195 662 L 214 699 L 252 718 L 290 718 L 328 699 L 403 643 L 441 624 L 479 624 L 517 643 L 535 699 L 535 737" />
<glyph unicode="&#xe4;" glyph-name="adieresis" horiz-adv-x="693" d="M 504 441 L 441 220 L 441 94.5 L 472 31.5 L 504 0 L 567 0 L 630 63 L 662 126 M 536 441 L 472 220 L 472 31.5 M 504 441 L 567 441 L 504 220 L 472 94.5 M 441 220 L 441 315 L 410 410 L 346 441 L 284 441 L 189 410 L 126 315 L 94.5 220 L 94.5 158 L 126 63 L 158 31.5 L 220 0 L 284 0 L 346 31.5 L 378 63 L 410 126 L 441 220 M 220 410 L 158 315 L 126 220 L 126 126 L 158 63 M 284 441 L 220 378 L 189 315 L 158 220 L 158 126 L 189 31.5 L 220 0 M 281 724 L 250 693 L 250 662 L 281 630 L 313 630 L 344 662 L 344 693 L 313 724 L 281 724 M 281 693 L 281 662 L 313 662 L 313 693 L 281 693 M 538 724 L 506 693 L 506 662 L 538 630 L 569 630 L 601 662 L 601 693 L 569 724 L 538 724 M 538 693 L 538 662 L 569 662 L 569 693 L 538 693" />
<glyph unicode="&#xe5;" glyph-name="aring" horiz-adv-x="693" d="M 504 441 L 441 220 L 441 94.5 L 472 31.5 L 504 0 L 567 0 L 630 63 L 662 126 M 536 441 L 472 220 L 472 31.5 M 504 441 L 567 441 L 504 220 L 472 94.5 M 441 220 L 441 315 L 410 410 L 346 441 L 284 441 L 189 410 L 126 315 L 94.5 220 L 94.5 158 L 126 63 L 158 31.5 L 220 0 L 284 0 L 346 31.5 L 378 63 L 410 126 L 441 220 M 220 410 L 158 315 L 126 220 L 126 126 L 158 63 M 284 441 L 220 378 L 189 315 L 158 220 L 158 126 L 189 31.5 L 220 0 M 350 813 L 321 803 L 302 784 L 284 756 L 274 728 L 265 690 L 265 662 L 274 633 L 284 624 L 302 614 L 331 614 L 359 624 L 378 643 L 397 671 L 406 699 L 416 737 L 416 765 L 406 794 L 397 803 L 378 813 L 350 813 M 312 784 L 293 756 L 284 728 L 274 690 L 274 652 L 284 633 M 369 643 L 387 671 L 397 699 L 406 737 L 406 775 L 397 794 M 350 813 L 331 803 L 312 775 L 302 756 L 293 728 L 284 690 L 284 643 L 293 624 L 302 614 M 331 614 L 350 624 L 369 652 L 378 671 L 387 699 L 397 737 L 397 784 L 387 803 L 378 813" />
<glyph unicode="&#xe8;" glyph-name="egrave" horiz-adv-x="567" d="M 126 158 L 252 189 L 346 220 L 441 284 L 472 346 L 441 410 L 378 441 L 284 441 L 189 410 L 126 315 L 94.5 220 L 94.5 158 L 126 63 L 158 31.5 L 220 0 L 284 0 L 378 31.5 L 441 94.5 M 189 378 L 158 315 L 126 220 L 126 126 L 158 63 M 284 441 L 220 378 L 189 315 L 158 220 L 158 126 L 189 31.5 L 220 0 M 158 819 L 315 630 M 158 819 L 126 788 L 315 630" />
<glyph unicode="&#xe9;" glyph-name="eacute" horiz-adv-x="567" d="M 126 158 L 252 189 L 346 220 L 441 284 L 472 346 L 441 410 L 378 441 L 284 441 L 189 410 L 126 315 L 94.5 220 L 94.5 158 L 126 63 L 158 31.5 L 220 0 L 284 0 L 378 31.5 L 441 94.5 M 189 378 L 158 315 L 126 220 L 126 126 L 158 63 M 284 441 L 220 378 L 189 315 L 158 220 L 158 126 L 189 31.5 L 220 0 M 472 788 L 315 598 M 472 788 L 504 756 L 315 598" />
<glyph unicode="&#xea;" glyph-name="ecircumflex" horiz-adv-x="567" d="M 126 158 L 252 189 L 346 220 L 441 284 L 472 346 L 441 410 L 378 441 L 284 441 L 189 410 L 126 315 L 94.5 220 L 94.5 158 L 126 63 L 158 31.5 L 220 0 L 284 0 L 378 31.5 L 441 94.5 M 189 378 L 158 315 L 126 220 L 126 126 L 158 63 M 284 441 L 220 378 L 189 315 L 158 220 L 158 126 L 189 31.5 L 220 0 M 170 567 L 321 662 L 472 567 M 170 567 L 321 643 L 472 567" />
<glyph unicode="&#xeb;" glyph-name="edieresis" horiz-adv-x="567" d="M 126 158 L 252 189 L 346 220 L 441 284 L 472 346 L 441 410 L 378 441 L 284 441 L 189 410 L 126 315 L 94.5 220 L 94.5 158 L 126 63 L 158 31.5 L 220 0 L 284 0 L 378 31.5 L 441 94.5 M 189 378 L 158 315 L 126 220 L 126 126 L 158 63 M 284 441 L 220 378 L 189 315 L 158 220 L 158 126 L 189 31.5 L 220 0 M 219 724 L 187 693 L 187 662 L 219 630 L 250 630 L 282 662 L 282 693 L 250 724 L 219 724 M 219 693 L 219 662 L 250 662 L 250 693 L 219 693 M 474 724 L 443 693 L 443 662 L 474 630 L 506 630 L 537 662 L 537 693 L 506 724 L 474 724 M 474 693 L 474 662 L 506 662 L 506 693 L 474 693" />
<glyph unicode="&#xec;" glyph-name="igrave" horiz-adv-x="410" d="M 31.5 315 L 63 378 L 126 441 L 189 441 L 220 410 L 252 346 L 252 252 L 189 94.5 M 220 410 L 220 284 L 189 158 L 189 31.5 M 220 346 L 158 189 L 158 94.5 L 189 31.5 L 220 0 L 284 0 L 346 63 L 378 126 M 78.8 819 L 236 630 M 78.8 819 L 47.2 788 L 236 630" />
<glyph unicode="&#xed;" glyph-name="iacute" horiz-adv-x="410" d="M 31.5 315 L 63 378 L 126 441 L 189 441 L 220 410 L 252 346 L 252 252 L 189 94.5 M 220 410 L 220 284 L 189 158 L 189 31.5 M 220 346 L 158 189 L 158 94.5 L 189 31.5 L 220 0 L 284 0 L 346 63 L 378 126 M 394 788 L 236 598 M 394 788 L 425 756 L 236 598" />
<glyph unicode="&#xee;" glyph-name="icircumflex" horiz-adv-x="410" d="M 31.5 315 L 63 378 L 126 441 L 189 441 L 220 410 L 252 346 L 252 252 L 189 94.5 M 220 410 L 220 284 L 189 158 L 189 31.5 M 220 346 L 158 189 L 158 94.5 L 189 31.5 L 220 0 L 284 0 L 346 63 L 378 126 M 123 567 L 274 662 L 425 567 M 123 567 L 274 643 L 425 567" />
<glyph unicode="&#xef;" glyph-name="idieresis" horiz-adv-x="410" d="M 31.5 315 L 63 378 L 126 441 L 189 441 L 220 410 L 252 346 L 252 252 L 189 94.5 M 220 410 L 220 284 L 189 158 L 189 31.5 M 220 346 L 158 189 L 158 94.5 L 189 31.5 L 220 0 L 284 0 L 346 63 L 378 126 M 144 724 L 112 693 L 112 662 L 144 630 L 175 630 L 207 662 L 207 693 L 175 724 L 144 724 M 144 693 L 144 662 L 175 662 L 175 693 L 144 693 M 392 724 L 360 693 L 360 662 L 392 630 L 423 630 L 455 662 L 455 693 L 423 724 L 392 724 M 392 693 L 392 662 L 423 662 L 423 693 L 392 693" />
<glyph unicode="&#xf1;" glyph-name="ntilde" horiz-adv-x="756" d="M 31.5 315 L 63 378 L 126 441 L 189 441 L 220 410 L 252 346 L 252 252 L 189 0 M 220 410 L 220 252 L 158 0 M 220 346 L 189 220 L 126 0 L 189 0 M 252 252 L 315 346 L 378 410 L 441 441 L 504 441 L 567 410 L 598 346 L 598 252 L 536 94.5 M 567 410 L 567 284 L 536 158 L 536 31.5 M 567 346 L 504 189 L 504 94.5 L 536 31.5 L 567 0 L 630 0 L 693 63 L 724 126 M 208 624 L 208 662 L 227 718 L 265 737 L 302 737 L 340 718 L 416 662 L 454 643 L 491 643 L 529 662 L 548 699 M 208 662 L 227 699 L 265 718 L 302 718 L 340 699 L 416 643 L 454 624 L 491 624 L 529 643 L 548 699 L 548 737" />
<glyph unicode="&#xf2;" glyph-name="ograve" horiz-adv-x="630" d="M 284 441 L 189 410 L 126 315 L 94.5 220 L 94.5 158 L 126 63 L 158 31.5 L 252 0 L 346 0 L 441 31.5 L 504 126 L 536 220 L 536 284 L 504 378 L 472 410 L 378 441 L 284 441 M 189 378 L 158 315 L 126 220 L 126 126 L 158 63 M 441 63 L 472 126 L 504 220 L 504 315 L 472 378 M 284 441 L 220 378 L 189 315 L 158 220 L 158 126 L 189 31.5 L 252 0 M 346 0 L 410 63 L 441 126 L 472 220 L 472 315 L 441 410 L 378 441 M 189 819 L 346 630 M 189 819 L 158 788 L 346 630" />
<glyph unicode="&#xf3;" glyph-name="oacute" horiz-adv-x="630" d="M 284 441 L 189 410 L 126 315 L 94.5 220 L 94.5 158 L 126 63 L 158 31.5 L 252 0 L 346 0 L 441 31.5 L 504 126 L 536 220 L 536 284 L 504 378 L 472 410 L 378 441 L 284 441 M 189 378 L 158 315 L 126 220 L 126 126 L 158 63 M 441 63 L 472 126 L 504 220 L 504 315 L 472 378 M 284 441 L 220 378 L 189 315 L 158 220 L 158 126 L 189 31.5 L 252 0 M 346 0 L 410 63 L 441 126 L 472 220 L 472 315 L 441 410 L 378 441 M 504 788 L 346 598 M 504 788 L 536 756 L 346 598" />
<glyph unicode="&#xf4;" glyph-name="ocircumflex" horiz-adv-x="630" d="M 284 441 L 189 410 L 126 315 L 94.5 220 L 94.5 158 L 126 63 L 158 31.5 L 252 0 L 346 0 L 441 31.5 L 504 126 L 536 220 L 536 284 L 504 378 L 472 410 L 378 441 L 284 441 M 189 378 L 158 315 L 126 220 L 126 126 L 158 63 M 441 63 L 472 126 L 504 220 L 504 315 L 472 378 M 284 441 L 220 378 L 189 315 L 158 220 L 158 126 L 189 31.5 L 252 0 M 346 0 L 410 63 L 441 126 L 472 220 L 472 315 L 441 410 L 378 441 M 189 567 L 340 662 L 491 567 M 189 567 L 340 643 L 491 567" />
<glyph unicode="&#xf5;" glyph-name="otilde" horiz-adv-x="630" d="M 284 441 L 189 410 L 126 315 L 94.5 220 L 94.5 158 L 126 63 L 158 31.5 L 252 0 L 346 0 L 441 31.5 L 504 126 L 536 220 L 536 284 L 504 378 L 472 410 L 378 441 L 284 441 M 189 378 L 158 315 L 126 220 L 126 126 L 158 63 M 441 63 L 472 126 L 504 220 L 504 315 L 472 378 M 284 441 L 220 378 L 189 315 L 158 220 L 158 126 L 189 31.5 L 252 0 M 346 0 L 410 63 L 441 126 L 472 220 L 472 315 L 441 410 L 378 441 M 183 624 L 183 662 L 202 718 L 239 737 L 277 737 L 315 718 L 391 662 L 428 643 L 466 643 L 504 662 L 523 699 M 183 662 L 202 699 L 239 718 L 277 718 L 315 699 L 391 643 L 428 624 L 466 624 L 504 643 L 523 699 L 523 737" />
<glyph unicode="&#xf6;" glyph-name="odieresis" horiz-adv-x="630" d="M 284 441 L 189 410 L 126 315 L 94.5 220 L 94.5 158 L 126 63 L 158 31.5 L 252 0 L 346 0 L 441 31.5 L 504 126 L 536 220 L 536 284 L 504 378 L 472 410 L 378 441 L 284 441 M 189 378 L 158 315 L 126 220 L 126 126 L 158 63 M 441 63 L 472 126 L 504 220 L 504 315 L 472 378 M 284 441 L 220 378 L 189 315 L 158 220 L 158 126 L 189 31.5 L 252 0 M 346 0 L 410 63 L 441 126 L 472 220 L 472 315 L 441 410 L 378 441 M 259 724 L 227 693 L 227 662 L 259 630 L 290 630 L 322 662 L 322 693 L 290 724 L 259 724 M 259 693 L 259 662 L 290 662 L 290 693 L 259 693 M 497 724 L 466 693 L 466 662 L 497 630 L 529 630 L 560 662 L 560 693 L 529 724 L 497 724 M 497 693 L 497 662 L 529 662 L 529 693 L 497 693" />
<glyph unicode="&#xf7;" glyph-name="divide" horiz-adv-x="614" d="M 284 598 L 252 567 L 252 536 L 284 504 L 315 504 L 346 536 L 346 567 L 315 598 L 284 598 M 284 567 L 284 536 L 315 536 L 315 567 L 284 567 M 284 252 L 252 220 L 252 189 L 284 158 L 315 158 L 346 189 L 346 220 L 315 252 L 284 252 M 284 220 L 284 189 L 315 189 L 315 220 L 284 220 M 94.5 378 L 520 378" />
<glyph unicode="&#xf8;" glyph-name="oslash" horiz-adv-x="630" d="M 284 441 L 189 410 L 126 315 L 94.5 220 L 94.5 158 L 126 63 L 158 31.5 L 252 0 L 346 0 L 441 31.5 L 504 126 L 536 220 L 536 284 L 504 378 L 472 410 L 378 441 L 284 441 M 189 378 L 158 315 L 126 220 L 126 126 L 158 63 M 441 63 L 472 126 L 504 220 L 504 315 L 472 378 M 284 441 L 220 378 L 189 315 L 158 220 L 158 126 L 189 31.5 L 252 0 M 346 0 L 410 63 L 441 126 L 472 220 L 472 315 L 441 410 L 378 441 M 485 551 L 88.2 -154 L 110 -154 M 485 551 L 507 551 L 110 -154" />
<glyph unicode="&#xf9;" glyph-name="ugrave" horiz-adv-x="756" d="M 31.5 315 L 63 378 L 126 441 L 189 441 L 220 410 L 252 346 L 252 252 L 189 94.5 M 220 410 L 220 284 L 189 158 L 189 31.5 M 220 346 L 158 189 L 158 94.5 L 189 31.5 L 252 0 L 315 0 L 378 31.5 L 441 94.5 L 504 189 M 567 441 L 504 189 L 504 94.5 L 536 31.5 L 567 0 L 630 0 L 693 63 L 724 126 M 598 441 L 536 189 L 536 31.5 M 567 441 L 630 441 L 567 220 L 536 94.5 M 252 819 L 410 630 M 252 819 L 220 788 L 410 630" />
<glyph unicode="&#xfa;" glyph-name="uacute" horiz-adv-x="756" d="M 31.5 315 L 63 378 L 126 441 L 189 441 L 220 410 L 252 346 L 252 252 L 189 94.5 M 220 410 L 220 284 L 189 158 L 189 31.5 M 220 346 L 158 189 L 158 94.5 L 189 31.5 L 252 0 L 315 0 L 378 31.5 L 441 94.5 L 504 189 M 567 441 L 504 189 L 504 94.5 L 536 31.5 L 567 0 L 630 0 L 693 63 L 724 126 M 598 441 L 536 189 L 536 31.5 M 567 441 L 630 441 L 567 220 L 536 94.5 M 567 788 L 410 598 M 567 788 L 598 756 L 410 598" />
<glyph unicode="&#xfb;" glyph-name="ucircumflex" horiz-adv-x="756" d="M 31.5 315 L 63 378 L 126 441 L 189 441 L 220 410 L 252 346 L 252 252 L 189 94.5 M 220 410 L 220 284 L 189 158 L 189 31.5 M 220 346 L 158 189 L 158 94.5 L 189 31.5 L 252 0 L 315 0 L 378 31.5 L 441 94.5 L 504 189 M 567 441 L 504 189 L 504 94.5 L 536 31.5 L 567 0 L 630 0 L 693 63 L 724 126 M 598 441 L 536 189 L 536 31.5 M 567 441 L 630 441 L 567 220 L 536 94.5 M 227 567 L 378 662 L 529 567 M 227 567 L 378 643 L 529 567" />
<glyph unicode="&#xfc;" glyph-name="udieresis" horiz-adv-x="756" d="M 31.5 315 L 63 378 L 126 441 L 189 441 L 220 410 L 252 346 L 252 252 L 189 94.5 M 220 410 L 220 284 L 189 158 L 189 31.5 M 220 346 L 158 189 L 158 94.5 L 189 31.5 L 252 0 L 315 0 L 378 31.5 L 441 94.5 L 504 189 M 567 441 L 504 189 L 504 94.5 L 536 31.5 L 567 0 L 630 0 L 693 63 L 724 126 M 598 441 L 536 189 L 536 31.5 M 567 441 L 630 441 L 567 220 L 536 94.5 M 311 724 L 280 693 L 280 662 L 311 630 L 343 630 L 374 662 L 374 693 L 343 724 L 311 724 M 311 693 L 311 662 L 343 662 L 343 693 L 311 693 M 571 724 L 539 693 L 539 662 L 571 630 L 602 630 L 634 662 L 634 693 L 602 724 L 571 724 M 571 693 L 571 662 L 602 662 L 602 693 L 571 693" />
<glyph unicode="&#xfd;" glyph-name="yacute" horiz-adv-x="693" d="M 31.5 315 L 63 378 L 126 441 L 189 441 L 220 410 L 252 346 L 252 252 L 189 94.5 M 220 410 L 220 284 L 189 158 L 189 31.5 M 220 346 L 158 189 L 158 94.5 L 189 31.5 L 252 0 L 315 0 L 378 31.5 L 441 94.5 L 504 220 M 567 441 L 441 0 L 410 -94.5 L 346 -189 L 284 -220 M 598 441 L 472 0 L 410 -126 M 567 441 L 630 441 L 504 0 L 441 -126 L 378 -189 L 284 -220 L 189 -220 L 126 -189 L 94.5 -158 L 94.5 -94.5 L 158 -94.5 L 158 -158 L 126 -158 L 126 -126 M 536 788 L 378 598 M 536 788 L 567 756 L 378 598" />
<glyph unicode="&#xff;" glyph-name="ydieresis" horiz-adv-x="693" d="M 31.5 315 L 63 378 L 126 441 L 189 441 L 220 410 L 252 346 L 252 252 L 189 94.5 M 220 410 L 220 284 L 189 158 L 189 31.5 M 220 346 L 158 189 L 158 94.5 L 189 31.5 L 252 0 L 315 0 L 378 31.5 L 441 94.5 L 504 220 M 567 441 L 441 0 L 410 -94.5 L 346 -189 L 284 -220 M 598 441 L 472 0 L 410 -126 M 567 441 L 630 441 L 504 0 L 441 -126 L 378 -189 L 284 -220 L 189 -220 L 126 -189 L 94.5 -158 L 94.5 -94.5 L 158 -94.5 L 158 -158 L 126 -158 L 126 -126 M 280 724 L 249 693 L 249 662 L 280 630 L 312 630 L 343 662 L 343 693 L 312 724 L 280 724 M 280 693 L 280 662 L 312 662 L 312 693 L 280 693 M 539 724 L 507 693 L 507 662 L 539 630 L 570 630 L 602 662 L 602 693 L 570 724 L 539 724 M 539 693 L 539 662 L 570 662 L 570 693 L 539 693" />
<glyph unicode="&#x2013;" glyph-name="endash" horiz-adv-x="614" d="M 94.5 284 L 520 284" />
<glyph unicode="&#x2014;" glyph-name="emdash" horiz-adv-x="819" d="M 126 284 L 693 284" />
<glyph unicode="&#x201c;" glyph-name="quotedblleft" horiz-adv-x="520" d="M 170 737 L 241 567 M 170 737 L 156 709 L 241 567 M 312 737 L 383 567 M 312 737 L 298 709 L 383 567" />
<glyph unicode="&#x201d;" glyph-name="quotedblright" horiz-adv-x="520" d="M 184 680 L 113 510 M 184 680 L 198 652 L 113 510 M 326 680 L 255 510 M 326 680 L 340 652 L 255 510" />
<glyph unicode="&#x2039;" glyph-name="guilsinglleft" horiz-adv-x="302" d="M 252 454 L 50.4 227 L 252 0" />
<glyph unicode="&#x203a;" glyph-name="guilsinglright" horiz-adv-x="302" d="M 50.4 454 L 252 227 L 50.4 0" />
<glyph unicode="&#x20ac;" glyph-name="Euro" horiz-adv-x="662" d="M 567 598 L 598 598 L 630 662 L 598 472 L 598 536 L 567 598 L 536 630 L 472 662 L 378 662 L 284 630 L 220 567 L 158 472 L 126 378 L 94.5 252 L 94.5 158 L 126 63 L 158 31.5 L 252 0 L 346 0 L 410 31.5 L 472 94.5 L 504 158 M 284 598 L 220 536 L 189 472 L 158 378 L 126 252 L 126 126 L 158 63 M 378 662 L 315 630 L 252 536 L 220 472 L 189 378 L 158 252 L 158 94.5 L 189 31.5 L 252 0 M 37.8 227 L 378 227 M 37.8 302 L 378 302" />
<glyph unicode="&#x0178;" glyph-name="Ydieresis" horiz-adv-x="693" d="M 189 662 L 315 346 L 220 0 M 220 662 L 346 346 L 252 0 M 252 662 L 378 346 L 284 0 M 662 630 L 378 346 M 126 662 L 346 662 M 567 662 L 756 662 M 126 0 L 378 0 M 158 662 L 220 630 M 284 662 L 252 598 M 315 662 L 220 630 M 598 662 L 662 630 M 724 662 L 662 630 M 252 31.5 L 158 0 M 252 63 L 189 0 M 284 63 L 315 0 M 252 31.5 L 346 0 M 339 945 L 308 914 L 308 882 L 339 850 L 371 850 L 402 882 L 402 914 L 371 945 L 339 945 M 339 914 L 339 882 L 371 882 L 371 914 L 339 914 M 606 945 L 574 914 L 574 882 L 606 850 L 637 850 L 669 882 L 669 914 L 637 945 L 606 945 M 606 914 L 606 882 L 637 882 L 637 914 L 606 914" />
<glyph unicode="&#x102;" glyph-name="Abreve" horiz-adv-x="630" d="M 410 662 L 31.5 31.5 M 346 536 L 378 0 M 378 598 L 410 31.5 M 410 662 L 410 598 L 441 63 L 441 0 M 126 189 L 378 189 M -63 0 L 126 0 M 284 0 L 504 0 M 31.5 31.5 L -31.5 0 M 31.5 31.5 L 94.5 0 M 378 31.5 L 315 0 M 378 63 L 346 0 M 441 63 L 472 0 M338.86 982.168C338.86 982.168 407.051 880 451.281 880C495.511 880 563.702 982.168 563.702 982.168M338.86 982.168C338.86 982.168 409.384 900.692 451.281 900.692C493.178 900.692 563.702 982.168 563.702 982.168" />
<glyph unicode="&#x114;" glyph-name="Ebreve" horiz-adv-x="724" d="M 284 662 L 94.5 0 M 315 662 L 126 0 M 346 662 L 158 0 M 472 472 L 410 220 M 189 662 L 662 662 L 630 472 M 252 346 L 441 346 M 0 0 L 472 0 L 536 158 M 220 662 L 315 630 M 252 662 L 284 598 M 378 662 L 315 598 M 410 662 L 315 630 M 536 662 L 630 630 M 567 662 L 630 598 M 598 662 L 630 567 M 630 662 L 630 472 M 472 472 L 410 346 L 410 220 M 441 410 L 378 346 L 410 284 M 441 378 L 346 346 L 410 315 M 126 31.5 L 31.5 0 M 126 63 L 63 0 M 158 63 L 189 0 M 126 31.5 L 220 0 M 315 0 L 472 31.5 M 378 0 L 472 63 M 472 63 L 536 158 M368.86 982.168C368.86 982.168 437.051 880 481.281 880C525.511 880 593.702 982.168 593.702 982.168M368.86 982.168C368.86 982.168 439.384 900.692 481.281 900.692C523.178 900.692 593.702 982.168 593.702 982.168" />
<glyph unicode="&#x11E;" glyph-name="Gbreve" horiz-adv-x="693" d="M 567 598 L 598 598 L 630 662 L 598 472 L 598 536 L 567 598 L 536 630 L 472 662 L 378 662 L 284 630 L 220 567 L 158 472 L 126 378 L 94.5 252 L 94.5 158 L 126 63 L 158 31.5 L 252 0 L 315 0 L 410 31.5 L 472 94.5 L 536 220 M 284 598 L 220 536 L 189 472 L 158 378 L 126 252 L 126 126 L 158 63 M 441 94.5 L 472 126 L 504 220 M 378 662 L 315 630 L 252 536 L 220 472 L 189 378 L 158 252 L 158 94.5 L 189 31.5 L 252 0 M 315 0 L 378 31.5 L 441 126 L 472 220 M 378 220 L 630 220 M 410 220 L 472 189 M 441 220 L 472 126 M 567 220 L 504 158 M 598 220 L 504 189 M358.86 982.168C358.86 982.168 427.051 880 471.281 880C515.511 880 583.702 982.168 583.702 982.168M358.86 982.168C358.86 982.168 429.384 900.692 471.281 900.692C513.178 900.692 583.702 982.168 583.702 982.168" />
<glyph unicode="&#x12C;" glyph-name="Ibreve" horiz-adv-x="441" d="M 284 662 L 94.5 0 M 315 662 L 126 0 M 346 662 L 158 0 M 189 662 L 441 662 M 0 0 L 252 0 M 220 662 L 315 630 M 252 662 L 284 598 M 378 662 L 315 598 M 410 662 L 315 630 M 126 31.5 L 31.5 0 M 126 63 L 63 0 M 158 63 L 189 0 M 126 31.5 L 220 0 M278.86 982.168C278.86 982.168 347.051 880 391.281 880C435.511 880 503.702 982.168 503.702 982.168M278.86 982.168C278.86 982.168 349.384 900.692 391.281 900.692C433.178 900.692 503.702 982.168 503.702 982.168" />
<glyph unicode="&#x14E;" glyph-name="Obreve" horiz-adv-x="693" d="M 378 662 L 284 630 L 220 567 L 158 472 L 126 378 L 94.5 252 L 94.5 158 L 126 63 L 158 31.5 L 220 0 L 315 0 L 410 31.5 L 472 94.5 L 536 189 L 567 284 L 598 410 L 598 504 L 567 598 L 536 630 L 472 662 L 378 662 M 252 567 L 189 472 L 158 378 L 126 252 L 126 126 L 158 63 M 441 94.5 L 504 189 L 536 284 L 567 410 L 567 536 L 536 598 M 378 662 L 315 630 L 252 536 L 220 472 L 189 378 L 158 252 L 158 94.5 L 189 31.5 L 220 0 M 315 0 L 378 31.5 L 441 126 L 472 189 L 504 284 L 536 410 L 536 567 L 504 630 L 472 662 M358.86 982.168C358.86 982.168 427.051 880 471.281 880C515.511 880 583.702 982.168 583.702 982.168M358.86 982.168C358.86 982.168 429.384 900.692 471.281 900.692C513.178 900.692 583.702 982.168 583.702 982.168" />
<glyph unicode="&#x16C;" glyph-name="Ubreve" horiz-adv-x="788" d="M 252 662 L 158 315 L 126 189 L 126 94.5 L 158 31.5 L 252 0 L 378 0 L 472 31.5 L 536 94.5 L 567 189 L 693 630 M 284 662 L 189 315 L 158 189 L 158 63 L 189 31.5 M 315 662 L 220 315 L 189 189 L 189 63 L 252 0 M 158 662 L 410 662 M 598 662 L 788 662 M 189 662 L 284 630 M 220 662 L 252 598 M 346 662 L 284 598 M 378 662 L 284 630 M 630 662 L 693 630 M 756 662 L 693 630 M388.86 982.168C388.86 982.168 457.051 880 501.281 880C545.511 880 613.702 982.168 613.702 982.168M388.86 982.168C388.86 982.168 459.384 900.692 501.281 900.692C543.178 900.692 613.702 982.168 613.702 982.168" />
<glyph unicode="&#x103;" glyph-name="abreve" horiz-adv-x="693" d="M 504 441 L 441 220 L 441 94.5 L 472 31.5 L 504 0 L 567 0 L 630 63 L 662 126 M 536 441 L 472 220 L 472 31.5 M 504 441 L 567 441 L 504 220 L 472 94.5 M 441 220 L 441 315 L 410 410 L 346 441 L 284 441 L 189 410 L 126 315 L 94.5 220 L 94.5 158 L 126 63 L 158 31.5 L 220 0 L 284 0 L 346 31.5 L 378 63 L 410 126 L 441 220 M 220 410 L 158 315 L 126 220 L 126 126 L 158 63 M 284 441 L 220 378 L 189 315 L 158 220 L 158 126 L 189 31.5 L 220 0 M318.86 782.168C318.86 782.168 387.051 680 431.281 680C475.511 680 543.702 782.168 543.702 782.168M318.86 782.168C318.86 782.168 389.384 700.692 431.281 700.692C473.178 700.692 543.702 782.168 543.702 782.168" />
<glyph unicode="&#x115;" glyph-name="ebreve" horiz-adv-x="567" d="M 126 158 L 252 189 L 346 220 L 441 284 L 472 346 L 441 410 L 378 441 L 284 441 L 189 410 L 126 315 L 94.5 220 L 94.5 158 L 126 63 L 158 31.5 L 220 0 L 284 0 L 378 31.5 L 441 94.5 M 189 378 L 158 315 L 126 220 L 126 126 L 158 63 M 284 441 L 220 378 L 189 315 L 158 220 L 158 126 L 189 31.5 L 220 0 M278.86 782.168C278.86 782.168 347.051 680 391.281 680C435.511 680 503.702 782.168 503.702 782.168M278.86 782.168C278.86 782.168 349.384 700.692 391.281 700.692C433.178 700.692 503.702 782.168 503.702 782.168" />
<glyph unicode="&#x11F;" glyph-name="gbreve" horiz-adv-x="662" d="M 504 441 L 378 0 L 346 -94.5 L 284 -189 L 220 -220 M 536 441 L 410 0 L 346 -126 M 504 441 L 567 441 L 441 0 L 378 -126 L 315 -189 L 220 -220 L 126 -220 L 63 -189 L 31.5 -158 L 31.5 -94.5 L 94.5 -94.5 L 94.5 -158 L 63 -158 L 63 -126 M 441 220 L 441 315 L 410 410 L 346 441 L 284 441 L 189 410 L 126 315 L 94.5 220 L 94.5 158 L 126 63 L 158 31.5 L 220 0 L 284 0 L 346 31.5 L 378 63 L 410 126 L 441 220 M 189 378 L 158 315 L 126 220 L 126 126 L 158 63 M 284 441 L 220 378 L 189 315 L 158 220 L 158 126 L 189 31.5 L 220 0 M308.86 782.168C308.86 782.168 377.051 680 421.281 680C465.511 680 533.702 782.168 533.702 782.168M308.86 782.168C308.86 782.168 379.384 700.692 421.281 700.692C463.178 700.692 533.702 782.168 533.702 782.168" />
<glyph unicode="&#x12D;" glyph-name="ibreve" horiz-adv-x="410" d="M 31.5 315 L 63 378 L 126 441 L 189 441 L 220 410 L 252 346 L 252 252 L 189 94.5 M 220 410 L 220 284 L 189 158 L 189 31.5 M 220 346 L 158 189 L 158 94.5 L 189 31.5 L 220 0 L 284 0 L 346 63 L 378 126 M228.86 782.168C228.86 782.168 297.051 680 341.281 680C385.511 680 453.702 782.168 453.702 782.168M228.86 782.168C228.86 782.168 299.384 700.692 341.281 700.692C383.178 700.692 453.702 782.168 453.702 782.168" />
<glyph unicode="&#x14F;" glyph-name="obreve" horiz-adv-x="630" d="M 284 441 L 189 410 L 126 315 L 94.5 220 L 94.5 158 L 126 63 L 158 31.5 L 252 0 L 346 0 L 441 31.5 L 504 126 L 536 220 L 536 284 L 504 378 L 472 410 L 378 441 L 284 441 M 189 378 L 158 315 L 126 220 L 126 126 L 158 63 M 441 63 L 472 126 L 504 220 L 504 315 L 472 378 M 284 441 L 220 378 L 189 315 L 158 220 L 158 126 L 189 31.5 L 252 0 M 346 0 L 410 63 L 441 126 L 472 220 L 472 315 L 441 410 L 378 441 M298.86 782.168C298.86 782.168 367.051 680 411.281 680C455.511 680 523.702 782.168 523.702 782.168M298.86 782.168C298.86 782.168 369.384 700.692 411.281 700.692C453.178 700.692 523.702 782.168 523.702 782.168" />
<glyph unicode="&#x16D;" glyph-name="ubreve" horiz-adv-x="756" d="M 31.5 315 L 63 378 L 126 441 L 189 441 L 220 410 L 252 346 L 252 252 L 189 94.5 M 220 410 L 220 284 L 189 158 L 189 31.5 M 220 346 L 158 189 L 158 94.5 L 189 31.5 L 252 0 L 315 0 L 378 31.5 L 441 94.5 L 504 189 M 567 441 L 504 189 L 504 94.5 L 536 31.5 L 567 0 L 630 0 L 693 63 L 724 126 M 598 441 L 536 189 L 536 31.5 M 567 441 L 630 441 L 567 220 L 536 94.5 M338.86 782.168C338.86 782.168 407.051 680 451.281 680C495.511 680 563.702 782.168 563.702 782.168M338.86 782.168C338.86 782.168 409.384 700.692 451.281 700.692C493.178 700.692 563.702 782.168 563.702 782.168" />
<glyph unicode="&#x15E;" glyph-name="Scedilla" horiz-adv-x="724" d="M323.479 -44.3699C323.621 -123.145 354.402 -138.965 298.947 -138.751M337.531 -12.3073C344.124 -31.3636 338.642 -48.3368 342.208 -63.3533C371.24 -185.639 315.232 -178.166 232.344 -109.172L261.567 -117.792C335.841 -149.185 311.546 -105.065 298.951 -61.6907C293.879 -44.2251 296.981 -23.1146 299.496 -12.9135M598 598L630 598L662 662L630 472L630 536L598 598L567 630L472 662L346 662L252 630L189 567L189 472L220 410L284 346L472 252L504 189L504 94.5L472 31.5M220 472L252 410L472 284L504 220M252 630L220 567L220 504L252 441L441 346L504 284L536 220L536 126L504 63L472 31.5L378 -0L252 -0L158 31.5L126 63L94.5 126L94.5 189L63 -0L94.5 63L126 63" />
<glyph unicode="&#x130;" glyph-name="Idotaccent" horiz-adv-x="441" d="M284 662L94.5 0M315 662L126 0M346 662L158 0M189 662L441 662M0 0L252 0M220 662L315 630M252 662L284 598M378 662L315 598M410 662L315 630M126 31.5L31.5 0M126 63L63 0M158 63L189 0M126 31.5L220 0" />
<glyph unicode="&#x130;" glyph-name="Idotaccent" horiz-adv-x="441" d="M315.958 835.898L315.958 771.898L378.958 771.898L378.958 835.898L315.958 835.898M347.958 835.898L347.958 771.898M315.958 803.898L378.958 803.898" />
<glyph unicode="&#x2D8;" glyph-name="breve" horiz-adv-x="693" d="M218.86 362.168C218.86 362.168 287.051 260 331.281 260C375.511 260 443.702 362.168 443.702 362.168M218.86 362.168C218.86 362.168 289.384 280.692 331.281 280.692C373.178 280.692 443.702 362.168 443.702 362.168" />
<glyph unicode="&#xdf;" glyph-name="germandbls" horiz-adv-x="756" d="M663.974 598L677.196 536L658.844 472L610.066 410M583.325 662L638.15 630L651.085 567L614.955 441L565.89 378L492.714 346M205.125 -0L48 -0M601.936 284L614.584 220L587.63 126L538.565 63M524.714 346L579.825 315L592.76 252L547.597 94.5L498.532 31.5L425.5 -0M151.532 31.5L79.5 -0M160.565 63L111.5 -0M424.714 346L524.714 346L610.825 315L632.936 284L646.584 220L619.63 126L569.565 63L529.532 31.5L425.5 -0L325.125 -0L342.832 61.7522M496.714 346L600.89 378L641.066 410L690.844 472L709.196 536L694.974 598L673.15 630L587.325 662L491.032 662.013L386.157 630.026L345.981 598.026L296.203 536.026L273.546 457.013L142.5 -0M376.981 598.026L328.203 536.026L306.193 461.013L182.532 31.5M490.333 662.026L417.157 630.026L368.092 567.026L323.499 411.513L205.5 -0" />
<glyph unicode="&#xE6;" glyph-name="ae" horiz-adv-x="870" d="M628.89 441L564.89 378L533.89 315M502.89 220L502.89 126L533.89 31.5L564.89 4.99992e-05M470.89 126L502.89 63.0001M470.89 158L596.89 189L690.89 220L785.89 284L816.89 346L785.89 410L722.89 441L628.89 441L563.8 419.76M470.89 63L502.89 31.5L564.89 4.99992e-05L628.89 4.99992e-05L722.89 31.5L785.89 94.5M504 441L441 220L441 30.5L472 -0.5M536 441L472 220L472 -0.5M504 441L567 441L504 220M441 220L441 315L410 410L346 441L284 441L189 410L126 315L94.5 220L94.5 158L126 63L158 31.5L220 -0L284 -0L346 31.5L378 63L410 126L441 220M220 410L158 315L126 220L126 126L158 63M284 441L220 378L189 315L158 220L158 126L189 31.5L220 -0" />
<glyph unicode="&#xb8;" glyph-name="cedilla" horiz-adv-x="662" d="M297.017 1.33817C303.61 -17.7181 298.129 -34.6913 301.694 -49.7078C330.726 -171.994 274.718 -164.521 191.83 -95.5261L221.053 -104.146C295.328 -135.539 271.032 -91.4199 258.437 -48.0452C253.366 -30.5796 256.467 -9.46905 258.982 0.732005Z" />
<glyph unicode="&#xb8;" glyph-name="cedilla" horiz-adv-x="662" d="M282.966 -30.7244C283.107 -109.499 313.888 -125.319 258.434 -125.105" />
<glyph unicode="&#xa3;" glyph-name="sterling" horiz-adv-x="630" d="M232.714 261.29L305.461 261.29M69.8795 237.505L286.369 237.505L411.161 286.112L206.376 286.112ZM5.87406 2.00065e-05L478.374 2.00065e-05L529.016 189M108.814 31.5L37.3741 2.00065e-05M117.255 63L69.3741 2.00065e-05M180.255 63L195.374 2.00065e-05M171.814 31.5L226.374 2.00065e-05M321.374 2.00065e-05L486.814 31.5M383.374 2.00065e-05L495.255 63M415.374 2.00065e-05L503.695 94.5M447.374 2.00065e-05L529.016 189M550.47 597.487L564.857 535.487L558.427 511.487L534.115 472.758M468.619 661.487L524.045 629.487L538.164 566.487L499.043 420.487M502.775 419.487L542.35 451.487L590.962 513.487L596.857 535.487L581.47 597.487L559.045 629.487L472.619 661.487L436.325 661.5L332.052 629.513L292.477 597.513L243.864 535.513L210.032 409.25L100.374 2.00065e-05M323.477 597.513L275.864 535.513L240.21 405.25L139.814 31.5M435.626 661.513L363.052 629.513L315.171 566.513L272.295 406.5L163.374 2.00065e-05" />
<glyph unicode="&#xc7;" glyph-name="Ccedilla" horiz-adv-x="662" d="M297.017 1.33817C303.61 -17.7181 298.129 -34.6913 301.694 -49.7078C330.726 -171.994 274.718 -164.521 191.83 -95.5261L221.053 -104.146C295.328 -135.539 271.032 -91.4199 258.437 -48.0452C253.366 -30.5796 256.467 -9.46905 258.982 0.732005ZM282.966 -30.7244C283.107 -109.499 313.888 -125.319 258.434 -125.105M567 598L598 598L630 662L598 472L598 536L567 598L536 630L472 662L378 662L284 630L220 567L158 472L126 378L94.5 252L94.5 158L126 63L158 31.5L252 -0L346 -0L410 31.5L472 94.5L504 158M284 598L220 536L189 472L158 378L126 252L126 126L158 63M378 662L315 630L252 536L220 472L189 378L158 252L158 94.5L189 31.5L252 -0" />
<glyph unicode="&#x131;" glyph-name="dotlessi" horiz-adv-x="410" d="M31.5 315L63 378L126 441L189 441L220 410L252 346L252 252L189 94.5M220 410L220 284L189 158L189 31.5M220 346L158 189L158 94.5L189 31.5L220 -0L284 -0L346 63L378 126" />
<glyph unicode="&#xC6;" glyph-name="AE" horiz-adv-x="940" d="M754 63L818 158M660 -0L754 63M597 -0L754 31.5M408 31.5L502 -0M440 63L471 -0M408 63L345 -0M408 31.5L313.5 -0M723 378L628 346L692 315M723 410L660 346L692 284M754 472L692 346L692 220M912 662L912 472M880 662L912 567M849 662L912 598M818 662L912 630M692 662L597 630M660 662L597 598M494 662L546 598M462 662L557 630M282 -0L754 -0L818 158M534 346L723 346M431 662L944 662L912 472M754 472L692 220M628 662L440 -0M597 662L408 -0M566 662L376.5 -0M61.5 31.5L124.5 -0M61.5 31.5L-1.5 -0M-33 -0L156 -0M190 189L430 189M560 662L61.5 31.5" />
<glyph unicode="&#x15F;" glyph-name="scedilla" horiz-adv-x="536" d="M243.479 -46.3699C243.621 -125.145 274.402 -140.965 218.947 -140.751M257.531 -14.3073C264.124 -33.3636 258.642 -50.3368 262.208 -65.3533C291.24 -187.639 235.232 -180.166 152.344 -111.172L181.567 -119.792C255.841 -151.185 231.546 -107.065 218.951 -63.6907C213.879 -46.2251 216.981 -25.1146 219.496 -14.9135M441 346L441 378L410 378L410 315L472 315L472 378L441 410L346 441L252 441L158 410L126 378L126 315L158 252L220 220L315 189L378 158L410 94.5M158 410L126 315M158 284L220 252L315 220L378 189M410 158L378 31.5M126 378L158 315L220 284L315 252L378 220L410 158L410 94.5L378 31.5L284 -0L189 -0L94.5 31.5L63 63L63 126L126 126L126 63L94.5 63L94.5 94.5" />
<glyph unicode="&#xe7;" glyph-name="ccedilla" horiz-adv-x="567" d="M279.121 -68.7441C279.121 -68.7441 276.994 -102.487 263.984 -116.125C250.975 -129.764 243.344 -123.877 243.344 -123.877M250.352 -0L265.046 -34.4565L287.959 -52.4338L289.656 -127.339L239.588 -140.667L170.727 -105.568L229.404 -110.86C261.49 -117.488 273.137 -81.9681 249.504 -61.4224L250.352 -0M441 315L441 346L410 346L410 284L472 284L472 346L441 410L378 441L284 441L189 410L126 315L94.5 220L94.5 158L126 63L158 31.5L220 -0L284 -0L378 31.5L441 126M189 378L158 315L126 220L126 126L158 63M284 441L220 378L189 315L158 220L158 126L189 31.5L220 -0" />
</font>
</defs>
</svg>
