<?xml version="1.0" encoding="UTF-8"?><!DOCTYPE svg  PUBLIC '-//W3C//DTD SVG 1.1//EN'  'http://www.w3.org/Graphics/SVG/1.1/DTD/svg11.dtd'><svg version="1.1" xmlns="http://www.w3.org/2000/svg" xmlns:xlink="http://www.w3.org/1999/xlink"><defs><font horiz-adv-x="500.0" id="Custom-Square Italic"><font-face ascent="800.0" cap-height="500.0" descent="-200.0" font-family="Custom-Square Italic" units-per-em="1000" x-height="300.0"/><missing-glyph horiz-adv-x="500.0"/><glyph glyph-name="space" horiz-adv-x="500.0" unicode=" "/><glyph d="M587.8 682.0C587.8 682.0 354.6 696.2 354.6 696.2C354.6 696.2 255.7 710.3 220.4 629.1C220.4 629.1 187.8 440.8 187.8 440.8C187.5 441.4 181.8 369.2 281.7 366.5C281.7 366.5 461.8 358.5 461.8 358.5C461.8 358.5 542.9 343.2 533.9 270.9C533.9 270.9 505.7 122.5 505.7 122.5C500.0 97.5 459.9 32.6 379.4 35.7C379.4 35.7 128.6 56.9 128.6 56.9M435.1 807.0C435.1 807.0 414.9 692.1 414.9 692.1M279.8 44.3C279.8 44.3 258.4 -76.9 258.4 -76.9" glyph-name="$" horiz-adv-x="587.8" unicode="$"/><glyph d="M432.1 833.9C432.1 833.9 -19.6 255.4 223.2 -180.4" glyph-name="(" horiz-adv-x="432.1" unicode="("/><glyph d="M128.1 27.2C128.1 27.2 104.9 22.1 107.6 36.2C107.6 36.2 112.4 66.1 118.3 82.6C121.1 90.5 125.8 99.2 135.7 99.6C135.7 99.6 161.6 104.7 173.5 99.1C180.5 95.7 186.0 86.5 184.2 78.1C184.2 78.1 170.2 -6.7 162.3 -23.7C147.5 -55.3 144.2 -81.7 77.2 -76.3" glyph-name="," horiz-adv-x="184.5" unicode=","/><glyph d="M555.6 143.0C540.8 40.6 445.2 -1.8 426.8 -0.0C426.8 -0.0 239.4 -0.0 239.4 -0.0C121.2 4.4 127.4 92.4 127.4 92.4C127.4 92.4 219.4 559.6 219.4 559.6C246.0 659.2 392.2 659.4 392.2 659.4C392.2 659.4 564.6 658.4 564.6 658.4C579.6 660.2 645.6 633.8 630.2 567.8C630.2 567.8 555.6 143.0 555.6 143.0" glyph-name="0" horiz-adv-x="632.6" unicode="0"/><glyph d="M501.2 677.0C501.2 677.0 125.4 202.0 125.4 202.0C125.4 202.0 619.2 205.8 619.2 205.8M566.4 467.2C566.4 467.2 471.0 -0.0 471.0 -0.0" glyph-name="4" horiz-adv-x="619.2" unicode="4"/><glyph d="M532.4 370.6C546.8 363.8 600.6 418.4 596.4 432.2C596.4 432.2 620.4 599.4 620.4 599.4C619.0 656.0 539.8 666.0 539.8 666.0C539.8 666.0 366.4 666.0 366.4 666.0C366.4 666.0 253.4 669.8 232.0 580.6C232.0 580.6 208.2 424.8 208.2 424.8C208.2 424.8 206.8 361.8 253.4 354.4C334.4 353.2 461.0 337.8 482.0 330.4C512.0 320.0 567.4 318.6 563.2 258.2C563.2 258.2 534.8 101.8 534.8 101.8C534.8 101.8 501.0 6.2 431.8 -0.0C431.8 -0.0 232.0 -0.0 232.0 -0.0C232.0 -0.0 132.8 1.2 134.0 86.8C134.0 86.8 164.2 236.2 164.2 236.2C211.2 364.8 368.4 316.8 532.4 370.6C532.4 370.6 532.4 370.6 532.4 370.6" glyph-name="8" horiz-adv-x="620.4" unicode="8"/><glyph d="M492.0 472.0C492.0 472.0 147.6 323.6 147.6 323.6C147.6 323.6 432.8 170.4 432.8 170.4" glyph-name="&lt;" horiz-adv-x="492.0" unicode="&lt;"/><glyph d="M352.2 620.8C352.2 620.8 390.4 631.0 410.0 633.2C500.8 643.4 684.0 635.8 684.0 635.8C684.0 635.8 870.0 640.8 832.2 467.4C832.2 467.4 714.2 -85.4 714.2 -85.4C701.4 -110.2 672.0 -159.2 583.4 -176.0C583.4 -176.0 216.6 -176.0 216.6 -176.0C216.6 -176.0 78.4 -178.4 93.4 -60.4C93.4 -60.4 171.2 311.6 171.2 311.6C171.2 311.6 199.0 457.4 314.6 444.8C314.6 444.8 545.8 442.2 545.8 442.2C583.2 446.0 656.6 422.4 636.2 336.8C636.2 336.8 581.0 70.4 581.0 70.4C581.0 70.4 568.4 7.6 576.0 -0.0M611.2 236.2C525.6 243.0 319.8 251.4 304.4 148.2C304.4 148.2 297.0 50.2 297.0 50.2C296.0 45.6 315.6 -14.2 390.0 10.0C390.0 10.0 554.4 63.0 579.4 75.6" glyph-name="@" horiz-adv-x="837.4" unicode="@"/><glyph d="M260.4 664.0C260.4 664.0 128.2 -0.0 128.2 -0.0M260.4 664.0C260.4 664.0 445.2 680.8 520.0 664.0C597.2 646.4 652.2 613.2 659.6 460.2C659.6 460.2 638.2 158.2 531.6 65.8C454.2 -1.0 393.0 -0.0 393.0 -0.0C393.0 -0.0 128.2 -0.0 128.2 -0.0" glyph-name="D" horiz-adv-x="659.6" unicode="D"/><glyph d="M254.4 672.6C254.4 672.6 121.0 -0.0 121.0 -0.0M677.4 672.6C677.4 672.6 545.2 -0.0 545.2 -0.0M191.6 319.6C191.6 319.6 605.8 319.6 605.8 319.6" glyph-name="H" horiz-adv-x="677.4" unicode="H"/><glyph d="M258.6 665.2C258.6 665.2 147.0 77.4 147.0 77.4C147.0 77.4 125.6 -2.6 221.6 -6.2C221.6 -6.2 495.2 -6.2 495.2 -6.2" glyph-name="L" horiz-adv-x="495.2" unicode="L"/><glyph d="M239.0 657.8C239.0 657.8 106.0 -0.0 106.0 -0.0M239.0 657.8C239.0 657.8 496.8 659.6 496.8 659.6C500.2 659.6 615.8 651.8 608.0 564.2C604.4 522.2 605.8 428.0 557.4 359.6C557.4 359.6 519.8 305.2 451.4 306.8C451.4 306.8 171.4 313.0 171.4 313.0" glyph-name="P" horiz-adv-x="608.4" unicode="P"/><glyph d="M427.0 654.0C427.0 654.0 302.8 -0.0 302.8 -0.0M206.8 654.0C206.8 654.0 654.6 654.0 654.6 654.0" glyph-name="T" horiz-adv-x="654.6" unicode="T"/><glyph d="M245.2 686.2C245.2 686.2 526.8 -0.0 526.8 -0.0M660.0 686.2C660.0 686.2 107.0 -0.0 107.0 -0.0" glyph-name="X" horiz-adv-x="660.0" unicode="X"/><glyph d="M218.4 710.0C218.4 710.0 331.4 -74.0 331.4 -74.0" glyph-name="\" horiz-adv-x="331.4" unicode="\"/><glyph d="M591.4 622.9C591.4 622.9 601.0 498.1 410.7 380.0C346.8 340.4 350.0 256.8 471.4 235.4C522.9 226.3 544.6 213.9 537.5 158.6C533.2 125.1 513.9 -3.2 403.6 8.6C403.6 8.6 253.6 24.6 253.6 24.6M101.5 0.4C101.5 0.4 175.5 403.6 215.2 576.1C230.5 643.1 276.8 706.8 371.4 710.4C440.0 712.9 593.6 737.2 591.4 622.9" glyph-name="ß" horiz-adv-x="591.5" unicode="ß"/><glyph d="M214.4 612.4C214.4 612.4 274.8 527.0 274.8 527.0" glyph-name="`" horiz-adv-x="274.8" unicode="`"/><glyph d="M602.6 737.4C602.6 737.4 467.4 -0.0 467.4 -0.0M544.8 425.8C550.4 434.4 373.4 496.2 299.6 473.6C192.0 440.4 106.2 299.0 147.6 56.4C148.8 50.0 175.8 -16.8 291.6 4.8C291.6 4.8 480.6 80.2 480.6 80.2" glyph-name="d" horiz-adv-x="602.6" unicode="d"/><glyph d="M251.8 746.8C251.8 746.8 103.4 -0.0 103.4 -0.0M182.6 390.0C182.6 390.0 396.2 472.8 432.6 479.2C469.2 485.4 554.6 466.6 525.6 329.6C525.6 329.6 464.4 -0.0 464.4 -0.0" glyph-name="h" horiz-adv-x="531.6" unicode="h"/><glyph d="M249.0 741.0C249.0 741.0 183.2 365.0 129.6 85.0C119.4 31.6 148.4 11.0 267.8 -1.6" glyph-name="l" horiz-adv-x="267.8" unicode="l"/><glyph d="M193.2 487.2C193.2 487.2 48.8 -292.0 48.8 -292.0M177.0 398.0C177.0 398.0 387.2 470.4 428.2 474.6C484.8 480.4 537.0 450.0 515.0 287.4C506.2 222.0 477.2 90.8 454.6 60.0C426.8 22.0 389.2 -39.4 111.6 42.4" glyph-name="p" horiz-adv-x="520.0" unicode="p"/><glyph d="M298.6 641.0C298.6 641.0 191.6 122.0 189.4 86.8C186.8 48.2 200.8 -6.8 330.0 -0.0M126.4 460.0C126.4 460.0 430.6 460.0 430.6 460.0" glyph-name="t" horiz-adv-x="430.6" unicode="t"/><glyph d="M187.8 488.2C187.8 488.2 443.0 -0.0 443.0 -0.0M544.8 489.4C544.8 489.4 98.6 -0.0 98.6 -0.0" glyph-name="x" horiz-adv-x="544.8" unicode="x"/><glyph d="M428.7 716.1C428.7 716.1 174.9 6.5 174.9 6.5M645.8 716.1C645.8 716.1 392.0 6.5 392.0 6.5M166.0 474.9C166.0 474.9 754.4 474.9 754.4 474.9M89.0 256.5C89.0 256.5 677.4 256.5 677.4 256.5" glyph-name="#" horiz-adv-x="754.4" unicode="#"/><glyph d="M220.1 709.7C220.1 709.7 266.8 709.7 266.8 709.7C266.8 709.7 227.7 558.2 227.7 558.2C227.7 558.2 193.6 558.2 193.6 558.2C193.6 558.2 196.1 675.6 220.1 709.7C220.1 709.7 220.1 709.7 220.1 709.7" glyph-name="'" horiz-adv-x="266.8" unicode="'"/><glyph d="M131.3 352.7C131.3 352.7 515.2 352.7 515.2 352.7M354.5 545.5C354.5 545.5 279.5 161.6 279.5 161.6" glyph-name="+" horiz-adv-x="515.2" unicode="+"/><glyph d="M480.9 745.5C480.9 745.5 56.5 -58.8 56.5 -58.8" glyph-name="/" horiz-adv-x="480.9" unicode="/"/><glyph d="M247.8 645.4C247.8 645.4 443.2 663.6 529.2 653.0C578.6 646.8 639.8 627.8 627.2 539.8C620.2 490.6 589.8 404.0 579.4 386.6C533.2 308.0 249.6 333.2 245.2 323.8C245.2 323.8 513.0 325.6 541.8 291.0C588.0 235.6 544.2 74.6 495.8 39.8C471.6 22.2 378.4 0.8 289.2 -0.0C195.6 -0.8 106.4 7.2 106.4 7.2" glyph-name="3" horiz-adv-x="628.8" unicode="3"/><glyph d="M235.6 663.6C235.6 663.6 644.0 663.6 644.0 663.6C644.0 663.6 259.0 -0.0 259.0 -0.0" glyph-name="7" horiz-adv-x="644.0" unicode="7"/><glyph d="M226.6 477.8C226.6 477.8 247.4 477.8 247.4 477.8C256.0 477.8 261.6 471.0 260.0 462.4C260.0 462.4 255.0 435.0 255.0 435.0C253.4 426.4 245.2 419.4 236.6 419.4C236.6 419.4 215.8 419.4 215.8 419.4C207.2 419.4 201.6 426.4 203.2 435.0C203.2 435.0 208.2 462.4 208.2 462.4C209.8 471.0 218.0 477.8 226.6 477.8C226.6 477.8 226.6 477.8 226.6 477.8M144.4 -5.4C139.4 -6.6 127.6 -3.2 127.6 -3.2C119.0 -3.2 113.0 11.6 114.6 20.2C114.6 20.2 120.0 47.6 120.0 47.6C121.6 56.2 129.8 63.0 138.4 63.0C138.4 63.0 159.2 63.0 159.2 63.0C167.8 63.0 173.4 56.2 171.8 47.6C171.8 47.6 166.4 20.2 166.4 20.2C165.2 13.2 147.8 -71.2 138.0 -79.8C122.8 -93.6 107.4 -97.6 100.4 -96.2" glyph-name=";" horiz-adv-x="260.2" unicode=";"/><glyph d="M200.0 661.0C200.0 661.0 287.2 674.0 303.0 673.6C303.0 673.6 461.4 671.0 461.4 671.0C477.8 671.0 579.4 648.2 564.4 565.4C564.4 565.4 539.2 417.2 539.2 417.2C538.0 409.4 516.8 312.2 426.2 296.6C418.2 295.2 324.6 303.6 293.0 304.0C293.0 304.0 265.4 188.4 265.4 188.4M232.0 56.6C232.0 56.6 252.8 56.6 252.8 56.6C261.4 56.6 266.6 50.0 264.4 41.6C264.4 41.6 257.4 15.2 257.4 15.2C255.2 6.8 246.6 -0.0 238.0 -0.0C238.0 -0.0 217.2 -0.0 217.2 -0.0C208.6 -0.0 203.4 6.8 205.6 15.2C205.6 15.2 212.6 41.6 212.6 41.6C214.8 50.0 223.4 56.6 232.0 56.6C232.0 56.6 232.0 56.6 232.0 56.6" glyph-name="?" horiz-adv-x="566.0" unicode="?"/><glyph d="M628.0 655.4C628.0 655.4 467.6 670.6 433.0 671.2C433.0 671.2 298.6 683.0 240.8 560.0C240.8 560.0 93.0 212.4 167.0 76.6C205.8 5.6 275.4 -1.4 345.8 -0.0C420.8 1.6 523.4 13.2 526.8 20.2" glyph-name="C" horiz-adv-x="628.0" unicode="C"/><glyph d="M102.4 -1.5C102.4 -1.5 463.2 673.9 463.2 673.9C463.2 673.9 502.5 673.9 502.5 673.9C502.5 673.9 598.9 -1.5 598.9 -1.5M219.3 210.9C219.3 210.9 567.0 212.6 567.0 212.6M677.8 830.6C676.2 824.3 671.9 818.3 665.8 813.8C659.8 809.4 652.5 806.9 645.6 806.9C631.2 806.9 622.2 817.5 625.6 830.6C627.2 836.9 631.5 842.9 637.6 847.3C643.6 851.7 650.9 854.2 657.8 854.2C664.7 854.2 670.7 851.7 674.5 847.3C678.2 842.9 679.4 836.9 677.8 830.6C677.8 830.6 677.8 830.6 677.8 830.6M421.5 830.6C419.9 824.3 415.6 818.3 409.5 813.8C403.5 809.4 396.2 806.9 389.3 806.9C374.8 806.9 365.9 817.5 369.3 830.6C370.9 836.9 375.2 842.9 381.2 847.3C387.3 851.7 394.6 854.2 401.5 854.2C408.4 854.2 414.4 851.7 418.2 847.3C421.9 842.9 423.1 836.9 421.5 830.6C421.5 830.6 421.5 830.6 421.5 830.6" glyph-name="Ä" horiz-adv-x="678.5" unicode="Ä"/><glyph d="M637.4 655.4C637.4 655.4 470.4 671.4 470.4 671.4C470.4 671.4 269.6 696.2 226.8 532.8C226.8 532.8 147.0 330.2 157.6 152.4C157.6 152.4 161.0 -5.8 287.4 -0.0C371.6 3.8 462.0 48.8 543.6 77.0M413.4 312.4C413.4 312.4 578.8 326.6 578.8 326.6C578.8 326.6 532.8 -0.0 532.8 -0.0" glyph-name="G" horiz-adv-x="637.4" unicode="G"/><glyph d="M258.6 676.0C258.6 676.0 124.8 -6.2 124.8 -6.2M634.0 676.0C634.0 676.0 339.8 332.8 339.8 332.8C339.8 332.8 195.4 332.8 195.4 332.8M338.6 334.2C338.6 334.2 495.6 -6.2 495.6 -6.2" glyph-name="K" horiz-adv-x="634.0" unicode="K"/><glyph d="M680.2 541.0C695.4 388.4 635.6 178.0 604.8 127.4C549.6 37.0 536.8 40.8 467.8 14.4C443.4 5.0 397.0 0.2 352.2 -0.0C313.0 -0.2 274.8 3.0 253.0 9.4C163.8 35.8 161.2 122.4 161.2 122.4C128.6 255.6 222.8 505.8 222.8 505.8C274.4 652.8 407.6 659.0 407.6 659.0C407.6 659.0 514.4 670.4 550.8 660.2C550.8 660.2 670.0 643.8 680.2 541.0C680.2 541.0 680.2 541.0 680.2 541.0" glyph-name="O" horiz-adv-x="682.6" unicode="O"/><glyph d="M602.8 650.4C602.8 650.4 368.2 664.6 368.2 664.6C368.2 664.6 268.6 678.8 233.0 597.2C233.0 597.2 200.2 407.6 200.2 407.6C200.0 408.2 194.2 335.6 294.8 332.8C294.8 332.8 476.0 325.0 476.0 325.0C476.0 325.0 557.6 309.4 548.6 236.6C548.6 236.6 520.2 87.4 520.2 87.4C514.4 62.2 474.0 -3.0 393.0 -0.0C393.0 -0.0 140.6 21.4 140.6 21.4" glyph-name="S" horiz-adv-x="602.8" unicode="S"/><glyph d="M234.2 675.2C234.2 675.2 326.6 -0.0 326.6 -0.0C326.6 -0.0 365.8 -0.0 365.8 -0.0C365.8 -0.0 689.2 678.8 689.2 678.8M587.6 465.6C587.6 465.6 669.6 -0.0 669.6 -0.0C669.6 -0.0 705.2 -0.0 705.2 -0.0C705.2 -0.0 1030.4 675.2 1030.4 675.2" glyph-name="W" horiz-adv-x="1030.4" unicode="W"/><glyph d="M427.6 766.6C427.6 766.6 310.4 796.8 267.8 665.4C267.8 665.4 111.4 -89.8 111.4 -89.8C109.8 -97.6 99.2 -209.4 232.2 -200.0" glyph-name="[" horiz-adv-x="427.6" unicode="["/><glyph d="M259.3 687.5C259.3 687.5 166.3 161.0 166.3 161.0C162.6 132.1 166.4 34.1 244.2 10.2C244.2 10.2 447.8 10.2 447.8 10.2C477.4 13.2 584.9 49.8 608.2 162.7C608.2 162.7 714.9 687.5 714.9 687.5M415.4 830.0C412.0 816.9 397.6 806.3 383.2 806.3C376.3 806.3 370.3 808.8 366.5 813.3C362.8 817.7 361.6 823.7 363.2 830.0C364.8 836.3 369.1 842.3 375.1 846.7C381.2 851.2 388.5 853.7 395.4 853.7C409.8 853.7 418.8 843.1 415.4 830.0C415.4 830.0 415.4 830.0 415.4 830.0M672.5 830.0C669.2 816.9 654.7 806.3 640.3 806.3C633.4 806.3 627.4 808.8 623.6 813.3C619.9 817.7 618.7 823.7 620.3 830.0C621.9 836.3 626.2 842.3 632.3 846.7C638.3 851.2 645.6 853.7 652.5 853.7C667.0 853.7 675.9 843.1 672.5 830.0C672.5 830.0 672.5 830.0 672.5 830.0" glyph-name="Ü" horiz-adv-x="714.9" unicode="Ü"/><glyph d="M-1.4 -0.0C-1.4 -0.0 574.4 -0.0 574.4 -0.0" glyph-name="_" horiz-adv-x="574.4" unicode="_"/><glyph d="M532.8 452.6C532.8 452.6 326.2 478.4 285.0 469.6C260.6 464.4 210.2 440.2 195.2 395.8C182.8 359.2 101.2 179.6 139.2 52.8C148.2 23.2 182.8 -6.0 243.2 0.4C243.2 0.4 456.4 23.6 456.4 23.6" glyph-name="c" horiz-adv-x="532.8" unicode="c"/><glyph d="M479.0 276.7C479.0 276.7 224.8 267.8 224.8 267.8C224.8 267.8 127.1 253.6 121.8 177.2C121.8 177.2 107.5 79.4 107.5 79.4C102.2 55.1 123.9 -5.0 191.1 11.9C233.9 22.2 235.1 16.0 448.7 93.6M176.8 457.9C176.8 457.9 420.3 482.8 420.3 482.8C454.1 487.9 511.8 461.2 500.3 390.4C500.3 390.4 435.0 9.1 435.0 9.1M294.5 635.7C291.2 622.6 276.7 612.0 262.3 612.0C255.4 612.0 249.4 614.5 245.6 619.0C241.9 623.4 240.7 629.4 242.3 635.7C243.9 642.0 248.2 648.0 254.3 652.4C260.3 656.9 267.6 659.4 274.5 659.4C288.9 659.4 297.9 648.8 294.5 635.7C294.5 635.7 294.5 635.7 294.5 635.7M549.0 635.7C545.6 622.6 531.2 612.0 516.8 612.0C509.9 612.0 503.9 614.5 500.1 619.0C496.3 623.4 495.2 629.4 496.8 635.7C498.4 642.0 502.7 648.0 508.7 652.4C514.8 656.9 522.1 659.4 529.0 659.4C543.4 659.4 552.4 648.8 549.0 635.7C549.0 635.7 549.0 635.7 549.0 635.7" glyph-name="ä" horiz-adv-x="549.7" unicode="ä"/><glyph d="M616.0 470.4C616.0 470.4 313.0 470.4 313.0 470.4C313.0 470.4 196.2 467.8 168.6 359.8C168.6 359.8 110.8 181.4 247.8 163.8C247.8 163.8 414.8 141.0 460.2 192.6C507.2 246.4 544.4 374.8 491.6 467.8M212.6 173.8C212.6 173.8 98.2 143.6 105.8 85.8C111.8 40.0 80.6 8.0 192.4 10.4C192.4 10.4 318.2 16.2 378.4 13.0C410.0 11.2 458.2 18.6 441.2 -95.2C436.6 -126.8 437.8 -161.6 411.2 -215.8C392.4 -253.6 363.4 -264.8 300.6 -264.8C300.6 -264.8 130.8 -264.8 130.8 -264.8C130.8 -264.8 46.6 -261.0 55.4 -179.4C55.4 -179.4 90.6 -4.6 130.8 15.4" glyph-name="g" horiz-adv-x="616.0" unicode="g"/><glyph d="M248.6 741.8C248.6 741.8 106.8 -0.0 106.8 -0.0M520.0 490.4C520.0 490.4 372.8 364.4 297.6 300.6C265.8 273.8 223.4 271.8 160.6 278.0M266.2 281.8C266.2 281.8 430.8 -0.0 430.8 -0.0" glyph-name="k" horiz-adv-x="520.0" unicode="k"/><glyph d="M326.2 473.4C253.4 466.2 213.2 463.4 171.8 355.2C149.2 296.6 53.6 5.0 223.2 -0.0C340.8 -3.4 428.2 -15.0 494.6 121.6C522.0 177.8 539.8 381.6 534.8 405.6C530.2 428.6 493.4 489.6 326.2 473.4C326.2 473.4 326.2 473.4 326.2 473.4" glyph-name="o" horiz-adv-x="535.6" unicode="o"/><glyph d="M522.0 456.2C378.4 468.8 206.2 518.2 164.0 399.8C155.4 355.6 146.4 316.8 148.8 272.8C151.8 220.8 216.8 233.8 299.6 232.6C351.6 231.8 462.8 245.0 453.0 153.4C447.2 98.8 443.8 -10.0 313.4 -0.0C313.4 -0.0 83.6 17.8 83.6 17.8" glyph-name="s" horiz-adv-x="522.0" unicode="s"/><glyph d="M170.0 489.4C170.0 489.4 243.0 -0.0 243.0 -0.0C243.0 -0.0 272.0 -0.0 272.0 -0.0C272.0 -0.0 530.6 490.8 530.6 490.8M446.6 333.6C446.6 333.6 541.4 -0.0 541.4 -0.0C541.4 -0.0 570.4 -0.0 570.4 -0.0C570.4 -0.0 838.6 489.4 838.6 489.4" glyph-name="w" horiz-adv-x="838.6" unicode="w"/><glyph d="M193.8 488.9C193.8 488.9 128.7 210.0 123.4 98.1C121.0 46.7 151.1 -12.5 241.6 -1.2C292.6 5.2 416.2 54.1 474.0 90.6M548.2 490.2C548.2 490.2 458.8 -1.3 458.8 -1.3M297.4 629.2C294.0 616.1 279.6 605.5 265.2 605.5C250.8 605.5 241.8 616.1 245.2 629.2C248.6 642.2 263.0 652.8 277.4 652.8C291.8 652.8 300.8 642.2 297.4 629.2C297.4 629.2 297.4 629.2 297.4 629.2M551.9 629.2C548.5 616.1 534.1 605.5 519.7 605.5C505.3 605.5 496.3 616.1 499.7 629.2C503.0 642.2 517.5 652.8 531.9 652.8C546.3 652.8 555.3 642.2 551.9 629.2C551.9 629.2 551.9 629.2 551.9 629.2" glyph-name="ü" horiz-adv-x="552.6" unicode="ü"/><glyph d="M244.2 707.3C244.2 707.3 290.9 707.3 290.9 707.3C290.9 707.3 251.7 555.7 251.7 555.7C251.7 555.7 217.6 555.7 217.6 555.7C217.6 555.7 220.2 673.2 244.2 707.3C244.2 707.3 244.2 707.3 244.2 707.3M391.9 707.3C391.9 707.3 438.6 707.3 438.6 707.3C438.6 707.3 399.5 555.7 399.5 555.7C399.5 555.7 365.4 555.7 365.4 555.7C365.4 555.7 367.9 673.2 391.9 707.3C391.9 707.3 391.9 707.3 391.9 707.3" glyph-name="&quot;" horiz-adv-x="438.6" unicode="&quot;"/><glyph d="M588.2 682.0C588.2 682.0 338.2 724.9 285.2 642.9C285.2 642.9 249.8 586.0 296.5 512.8C296.5 512.8 566.8 9.0 566.8 9.0M338.2 433.3C338.2 433.3 167.7 316.2 136.2 277.9C119.2 257.3 93.2 194.6 122.3 121.4C141.6 72.7 199.6 36.7 238.5 31.7C289.9 25.1 329.8 48.9 363.5 78.4C363.5 78.4 641.3 322.1 641.3 322.1" glyph-name="&amp;" horiz-adv-x="641.3" unicode="&amp;"/><glyph d="M335.7 701.8C335.7 701.8 349.1 615.2 349.1 615.2C349.1 615.2 384.8 628.6 384.8 628.6C384.8 628.6 352.7 708.9 352.7 708.9C352.7 708.9 335.7 701.8 335.7 701.8M183.0 597.3C183.0 597.3 178.6 575.9 178.6 575.9C178.6 575.9 287.5 575.0 287.5 575.0C287.5 575.0 294.6 619.6 294.6 619.6C294.6 619.6 183.0 597.3 183.0 597.3M251.8 533.0C251.8 533.0 209.8 424.1 209.8 424.1C209.8 424.1 229.5 416.1 229.5 416.1C229.5 416.1 295.5 522.3 295.5 522.3C295.5 522.3 251.8 533.0 251.8 533.0M318.8 474.1C318.8 474.1 355.4 517.9 355.4 517.9C355.4 517.9 429.5 444.6 429.5 444.6C429.5 444.6 410.7 424.1 410.7 424.1C410.7 424.1 318.8 474.1 318.8 474.1M376.8 567.9C376.8 567.9 486.6 632.1 486.6 632.1C486.6 632.1 496.4 611.6 496.4 611.6C496.4 611.6 399.1 527.7 399.1 527.7C399.1 527.7 376.8 567.9 376.8 567.9" glyph-name="*" horiz-adv-x="496.4" unicode="*"/><glyph d="M140.8 85.1C140.8 85.1 162.3 85.1 162.3 85.1C171.2 85.1 176.7 78.0 174.8 69.1C174.8 69.1 168.6 40.8 168.6 40.8C166.6 32.0 157.9 24.9 149.1 24.9C149.1 24.9 127.6 24.9 127.6 24.9C118.8 24.9 113.2 32.0 115.1 40.8C115.1 40.8 121.4 69.1 121.4 69.1C123.3 78.0 132.0 85.1 140.8 85.1C140.8 85.1 140.8 85.1 140.8 85.1" glyph-name="." horiz-adv-x="175.2" unicode="."/><glyph d="M216.8 659.8C216.8 659.8 484.4 667.2 484.4 667.2C483.8 668.6 693.2 671.0 597.4 432.2C567.6 357.8 227.4 99.2 94.8 -0.0C94.8 -0.0 520.8 -0.0 520.8 -0.0" glyph-name="2" horiz-adv-x="622.6" unicode="2"/><glyph d="M645.4 663.8C645.4 663.8 487.4 679.6 421.4 672.6C368.0 667.0 314.0 662.0 277.6 599.8C250.4 553.4 140.6 387.0 162.4 48.2C164.0 22.2 192.6 1.0 244.0 -0.0C277.4 -0.6 361.8 -3.0 420.0 -0.0C472.2 2.8 516.0 20.2 530.2 66.0C560.2 172.0 630.8 354.0 475.6 364.4C428.0 367.4 383.4 362.6 332.6 361.6C299.4 361.0 181.6 342.2 181.6 342.2" glyph-name="6" horiz-adv-x="645.4" unicode="6"/><glyph d="M223.6 477.2C223.6 477.2 244.4 477.2 244.4 477.2C253.0 477.2 258.4 470.2 256.6 461.6C256.6 461.6 250.6 434.2 250.6 434.2C248.6 425.6 240.2 418.8 231.6 418.8C231.6 418.8 210.8 418.8 210.8 418.8C202.2 418.8 196.8 425.6 198.8 434.2C198.8 434.2 204.8 461.6 204.8 461.6C206.6 470.2 215.0 477.2 223.6 477.2C223.6 477.2 223.6 477.2 223.6 477.2M140.8 58.4C140.8 58.4 161.6 58.4 161.6 58.4C170.2 58.4 175.8 51.6 174.4 43.0C174.4 43.0 169.2 15.4 169.2 15.4C167.8 7.0 159.6 -0.0 151.0 -0.0C151.0 -0.0 130.2 -0.0 130.2 -0.0C121.6 -0.0 116.0 7.0 117.4 15.4C117.4 15.4 122.6 43.0 122.6 43.0C124.0 51.6 132.2 58.4 140.8 58.4C140.8 58.4 140.8 58.4 140.8 58.4" glyph-name=":" horiz-adv-x="257.0" unicode=":"/><glyph d="M180.8 472.0C180.8 472.0 466.0 318.6 466.0 318.6C466.0 318.6 121.8 170.4 121.8 170.4" glyph-name="&gt;" horiz-adv-x="466.0" unicode="&gt;"/><glyph d="M254.6 653.4C214.8 439.8 176.6 212.8 134.0 -0.0M254.6 653.4C254.6 653.4 502.2 654.6 502.2 654.6C502.2 654.6 622.2 645.8 615.2 547.8C615.2 547.8 621.6 441.0 527.4 377.0C527.4 377.0 482.0 354.4 464.4 353.0C464.4 353.0 203.2 355.6 203.2 355.6M463.2 353.0C463.2 353.0 511.0 327.4 550.6 284.0C578.0 230.2 591.4 189.6 498.4 32.6C498.4 32.6 468.8 -0.0 440.6 -0.0C440.6 -0.0 134.0 -0.0 134.0 -0.0" glyph-name="B" horiz-adv-x="615.6" unicode="B"/><glyph d="M628.2 655.4C628.2 655.4 354.6 660.8 354.6 660.8C272.4 662.4 240.8 571.8 240.8 571.8C240.8 571.8 124.0 -0.0 124.0 -0.0M196.4 328.4C196.4 328.4 521.6 333.8 521.6 333.8" glyph-name="F" horiz-adv-x="628.2" unicode="F"/><glyph d="M392.4 666.0C392.4 666.0 279.4 95.4 279.4 95.4C275.6 83.2 250.0 -3.6 162.0 -6.2C138.8 -6.8 111.0 -1.6 78.4 12.6" glyph-name="J" horiz-adv-x="392.4" unicode="J"/><glyph d="M123.0 -0.0C123.0 -0.0 250.2 670.0 250.2 670.0C250.2 670.0 280.4 670.0 280.4 670.0C280.4 670.0 559.4 -0.0 559.4 -0.0C559.4 -0.0 585.8 -0.0 585.8 -0.0C585.8 -0.0 714.0 670.0 714.0 670.0" glyph-name="N" horiz-adv-x="714.0" unicode="N"/><glyph d="M237.4 661.2C237.4 661.2 104.6 -0.0 104.6 -0.0M237.4 661.2C237.4 661.2 495.0 663.0 495.0 663.0C498.6 663.0 612.8 644.0 605.0 556.4C601.4 514.2 602.8 420.2 554.4 351.8C554.4 351.8 516.8 297.4 448.4 299.0C448.4 299.0 168.6 305.2 168.6 305.2M419.4 301.6C419.4 301.6 515.0 -0.0 515.0 -0.0" glyph-name="R" horiz-adv-x="605.4" unicode="R"/><glyph d="M231.0 682.0C231.0 682.0 324.6 -0.0 324.6 -0.0C324.6 -0.0 367.2 -0.0 367.2 -0.0C367.2 -0.0 728.6 682.0 728.6 682.0" glyph-name="V" horiz-adv-x="728.6" unicode="V"/><glyph d="M197.8 656.0C197.8 656.0 621.4 658.4 621.4 658.4C621.4 658.4 612.6 629.6 612.6 629.6C612.6 629.6 88.6 32.6 88.6 32.6C88.6 32.6 79.8 -0.0 79.8 -0.0C79.8 -0.0 502.0 -0.0 502.0 -0.0" glyph-name="Z" horiz-adv-x="621.4" unicode="Z"/><glyph d="M210.2 521.8C210.2 521.8 301.0 600.0 301.0 600.0C301.0 600.0 347.2 600.0 347.2 600.0C347.2 600.0 395.2 527.0 395.2 527.0" glyph-name="^" horiz-adv-x="395.2" unicode="^"/><glyph d="M247.8 741.2C247.8 741.2 97.0 -0.0 97.0 -0.0M183.6 423.4C183.6 423.4 446.2 505.0 484.0 467.2C484.0 467.2 543.4 438.2 526.8 305.2C520.4 253.8 502.8 60.4 392.2 1.2C355.2 -1.4 266.6 -10.0 117.0 82.8" glyph-name="b" horiz-adv-x="529.6" unicode="b"/><glyph d="M515.0 709.8C515.0 709.8 321.0 769.6 298.8 663.4C298.8 663.4 159.0 -0.0 159.0 -0.0M131.6 458.4C131.6 458.4 420.8 458.4 420.8 458.4" glyph-name="f" horiz-adv-x="515.0" unicode="f"/><glyph d="M210.6 488.0C210.6 488.0 86.2 -259.8 47.2 -282.4M237.2 647.4C237.2 647.4 258.0 647.4 258.0 647.4C266.6 647.4 272.0 640.6 270.0 632.0C270.0 632.0 264.0 604.6 264.0 604.6C262.2 596.0 253.6 589.0 245.0 589.0C245.0 589.0 224.2 589.0 224.2 589.0C215.6 589.0 210.2 596.0 212.2 604.6C212.2 604.6 218.2 632.0 218.2 632.0C220.0 640.6 228.6 647.4 237.2 647.4C237.2 647.4 237.2 647.4 237.2 647.4" glyph-name="j" horiz-adv-x="270.4" unicode="j"/><glyph d="M192.8 489.6C192.8 489.6 106.4 -0.0 106.4 -0.0M176.0 382.2C176.0 382.2 380.0 464.2 423.8 471.0C478.0 479.4 546.4 466.4 519.0 320.0C519.0 320.0 459.6 -0.0 459.6 -0.0" glyph-name="n" horiz-adv-x="525.2" unicode="n"/><glyph d="M194.0 487.8C194.0 487.8 97.2 -0.0 97.2 -0.0M171.4 369.6C171.4 369.6 374.8 512.8 484.2 458.8" glyph-name="r" horiz-adv-x="484.2" unicode="r"/><glyph d="M171.2 489.4C171.2 489.4 256.8 -0.0 256.8 -0.0C256.8 -0.0 294.4 -0.0 294.4 -0.0C294.4 -0.0 572.0 490.8 572.0 490.8" glyph-name="v" horiz-adv-x="572.0" unicode="v"/><glyph d="M140.4 460.6C140.4 460.6 497.4 460.6 497.4 460.6C497.4 460.6 81.4 -0.0 81.4 -0.0C81.4 -0.0 424.4 -0.0 424.4 -0.0" glyph-name="z" horiz-adv-x="497.4" unicode="z"/><glyph d="M166.1 210.7C166.1 210.7 244.6 707.1 244.6 707.1C244.6 707.1 308.9 708.9 308.9 708.9C308.9 708.9 183.9 208.9 183.9 208.9C183.9 208.9 166.1 210.7 166.1 210.7M141.1 83.5C141.1 83.5 162.5 83.5 162.5 83.5C171.4 83.5 176.9 76.4 175.0 67.5C175.0 67.5 168.8 39.2 168.8 39.2C166.8 30.4 158.1 23.2 149.3 23.2C149.3 23.2 127.8 23.2 127.8 23.2C119.0 23.2 113.4 30.4 115.3 39.2C115.3 39.2 121.6 67.5 121.6 67.5C123.5 76.4 132.2 83.5 141.1 83.5C141.1 83.5 141.1 83.5 141.1 83.5" glyph-name="!" horiz-adv-x="308.9" unicode="!"/><glyph d="M833.9 714.3C833.9 714.3 275.0 10.7 275.0 10.7M454.2 447.1C446.4 402.5 417.1 385.7 381.0 380.2C381.0 380.2 226.9 380.2 226.9 380.2C161.3 380.2 166.0 414.0 168.9 442.1C173.9 491.1 189.3 581.2 197.9 612.6C205.5 640.3 207.7 686.3 268.6 689.6C363.3 694.6 395.4 688.6 445.4 687.1C474.9 686.2 489.3 648.1 482.0 606.2C482.0 606.2 454.2 447.1 454.2 447.1M906.3 106.2C898.5 61.6 869.1 44.7 833.0 39.3C833.0 39.3 679.0 39.3 679.0 39.3C613.3 39.3 618.0 73.0 620.9 101.2C625.9 150.2 641.4 240.2 649.9 271.6C657.5 299.4 659.7 345.4 720.7 348.7C815.4 353.7 847.4 347.6 897.4 346.1C927.0 345.2 941.3 307.1 934.0 265.3C934.0 265.3 906.3 106.2 906.3 106.2" glyph-name="%" horiz-adv-x="935.9" unicode="%"/><glyph d="M248.4 823.9C491.3 388.2 39.5 -190.3 39.5 -190.3" glyph-name=")" horiz-adv-x="320.2" unicode=")"/><glyph d="M91.3 287.5C91.3 287.5 368.3 287.5 368.3 287.5" glyph-name="-" horiz-adv-x="368.3" unicode="-"/><glyph d="M267.2 595.8C267.2 595.8 468.8 670.4 468.8 670.4C468.8 670.4 345.4 2.6 345.4 2.6M165.0 -0.0C165.0 -0.0 514.2 -0.0 514.2 -0.0" glyph-name="1" horiz-adv-x="514.2" unicode="1"/><glyph d="M609.8 661.0C609.8 661.0 275.8 661.0 275.8 661.0C275.8 661.0 188.6 323.4 188.6 323.4C188.6 323.4 250.8 366.0 322.0 378.6C367.6 383.4 425.6 382.4 471.2 373.2C471.2 373.2 572.6 369.6 549.4 247.0C549.4 247.0 540.2 148.8 513.8 90.6C491.0 39.8 460.6 3.6 373.4 -0.0C373.4 -0.0 107.0 16.0 107.0 16.0" glyph-name="5" horiz-adv-x="609.8" unicode="5"/><glyph d="M583.8 332.4C583.8 332.4 272.8 307.4 272.8 307.4C192.8 311.0 192.8 392.8 192.8 392.8C206.6 465.6 212.4 546.0 233.8 611.4C268.0 673.6 342.2 670.0 342.2 670.0C342.2 670.0 504.4 670.8 504.4 670.8C520.2 669.6 598.4 650.6 599.8 572.2C599.8 572.2 612.2 424.8 580.4 311.0C535.0 181.0 518.0 10.4 379.4 -0.0C339.6 -3.4 160.8 0.8 123.6 12.4" glyph-name="9" horiz-adv-x="602.2" unicode="9"/><glyph d="M154.0 431.0C154.0 431.0 495.2 431.0 495.2 431.0M115.0 217.6C115.0 217.6 456.2 217.6 456.2 217.6" glyph-name="=" horiz-adv-x="495.2" unicode="="/><glyph d="M110.0 -0.0C110.0 -0.0 470.6 675.2 470.6 675.2C470.6 675.2 510.0 675.2 510.0 675.2C510.0 675.2 606.2 -0.0 606.2 -0.0M226.8 212.4C226.8 212.4 574.4 214.2 574.4 214.2" glyph-name="A" horiz-adv-x="606.2" unicode="A"/><glyph d="M622.4 659.6C622.4 659.6 353.6 667.2 353.6 667.2C273.4 669.4 239.6 580.6 239.6 580.6C239.6 580.6 143.6 88.4 143.6 88.4C143.6 88.4 123.6 2.6 188.8 -0.0C188.8 -0.0 506.8 1.2 506.8 1.2M194.0 340.4C194.0 340.4 516.8 340.4 516.8 340.4" glyph-name="E" horiz-adv-x="622.4" unicode="E"/><glyph d="M261.6 672.6C261.6 672.6 123.2 -6.2 123.2 -6.2" glyph-name="I" horiz-adv-x="261.6" unicode="I"/><glyph d="M106.4 -6.2C106.4 -6.2 293.6 665.8 293.6 665.8C293.6 665.8 316.4 665.8 316.4 665.8C316.4 665.8 410.6 -6.2 410.6 -6.2C410.6 -6.2 424.4 -6.2 424.4 -6.2C424.4 -6.2 758.8 665.8 758.8 665.8C758.8 665.8 799.0 665.8 799.0 665.8C799.0 665.8 719.8 -6.2 719.8 -6.2" glyph-name="M" horiz-adv-x="799.0" unicode="M"/><glyph d="M681.8 541.0C697.0 388.4 637.4 178.0 606.4 127.6C566.2 61.0 538.4 41.0 469.4 14.4C444.4 4.8 396.6 0.0 350.8 -0.0C312.6 -0.0 275.8 3.2 254.6 9.4C165.4 35.8 162.8 122.4 162.8 122.4C130.2 255.6 224.4 505.8 224.4 505.8C276.0 652.8 409.2 659.0 409.2 659.0C409.2 659.0 516.0 670.4 552.4 660.2C552.4 660.2 671.6 643.8 681.8 541.0C681.8 541.0 681.8 541.0 681.8 541.0M335.0 -89.8C335.0 -89.8 423.0 -195.4 490.8 -147.6" glyph-name="Q" horiz-adv-x="684.2" unicode="Q"/><glyph d="M255.6 677.4C255.6 677.4 162.8 150.8 162.8 150.8C159.0 121.8 162.8 23.8 240.6 -0.0C240.6 -0.0 444.2 -0.0 444.2 -0.0C473.8 3.0 581.4 39.6 604.6 152.4C604.6 152.4 711.4 677.4 711.4 677.4" glyph-name="U" horiz-adv-x="711.4" unicode="U"/><glyph d="M680.5 552.2C695.7 399.6 635.9 189.3 605.1 138.8C549.8 48.3 537.1 52.2 468.1 25.7C443.6 16.2 397.3 11.5 352.5 11.3C313.2 11.0 274.9 14.2 253.2 20.6C164.0 47.0 161.5 133.7 161.5 133.7C128.8 266.9 223.1 517.0 223.1 517.0C274.6 664.0 407.8 670.3 407.8 670.3C407.8 670.3 514.6 681.6 551.0 671.6C551.0 671.6 670.2 655.1 680.5 552.2C680.5 552.2 680.5 552.2 680.5 552.2M672.5 831.8C669.2 818.7 654.7 808.1 640.3 808.1C633.4 808.1 627.4 810.6 623.6 815.1C619.9 819.5 618.7 825.5 620.3 831.8C621.9 838.1 626.2 844.1 632.3 848.5C638.3 853.0 645.6 855.4 652.5 855.4C667.0 855.4 675.9 844.9 672.5 831.8C672.5 831.8 672.5 831.8 672.5 831.8M417.2 831.8C413.8 818.7 399.4 808.1 385.0 808.1C378.0 808.1 372.0 810.6 368.3 815.1C364.5 819.5 363.3 825.5 365.0 831.8C366.6 838.1 370.9 844.1 376.9 848.5C383.0 853.0 390.3 855.4 397.2 855.4C411.6 855.4 420.6 844.9 417.2 831.8C417.2 831.8 417.2 831.8 417.2 831.8" glyph-name="Ö" horiz-adv-x="682.9" unicode="Ö"/><glyph d="M238.8 689.6C238.8 689.6 369.4 252.8 369.4 252.8M690.2 689.6C690.2 689.6 372.8 254.4 372.8 254.4M371.8 257.2C371.8 257.2 323.2 -0.0 323.2 -0.0" glyph-name="Y" horiz-adv-x="690.2" unicode="Y"/><glyph d="M24.4 -193.4C24.4 -193.4 141.8 -223.6 184.4 -92.0C184.4 -92.0 340.8 663.2 340.8 663.2C342.4 671.0 353.0 782.8 220.0 773.4" glyph-name="]" horiz-adv-x="341.6" unicode="]"/><glyph d="M479.6 267.6C479.6 267.6 225.4 258.8 225.4 258.8C225.4 258.8 127.6 244.6 122.4 168.0C122.4 168.0 108.2 70.4 108.2 70.4C102.8 46.0 124.4 -14.2 191.6 2.8C234.6 13.0 235.6 6.8 449.4 84.6M177.4 448.8C177.4 448.8 420.8 473.8 420.8 473.8C454.6 478.8 512.4 452.2 500.8 381.4C500.8 381.4 435.6 -0.0 435.6 -0.0" glyph-name="a" horiz-adv-x="502.4" unicode="a"/><glyph d="M131.4 234.0C131.4 234.0 332.4 222.0 416.8 231.4C460.0 236.2 495.8 244.0 509.8 323.2C509.8 323.2 551.6 443.6 409.2 462.2C359.6 468.8 254.6 478.6 213.2 422.0C173.8 368.2 75.8 126.2 130.2 45.0C153.8 10.0 190.0 0.4 251.8 -0.0C303.4 -0.4 372.6 5.8 467.0 8.6" glyph-name="e" horiz-adv-x="515.4" unicode="e"/><glyph d="M196.6 484.2C196.6 484.2 104.6 -0.0 104.6 -0.0M228.0 647.4C228.0 647.4 248.8 647.4 248.8 647.4C257.4 647.4 262.8 640.6 260.8 632.0C260.8 632.0 254.8 604.6 254.8 604.6C253.0 596.0 244.4 589.0 236.0 589.0C236.0 589.0 215.0 589.0 215.0 589.0C206.6 589.0 201.2 596.0 203.0 604.6C203.0 604.6 209.0 632.0 209.0 632.0C211.0 640.6 219.4 647.4 228.0 647.4C228.0 647.4 228.0 647.4 228.0 647.4" glyph-name="i" horiz-adv-x="261.2" unicode="i"/><glyph d="M190.8 489.6C190.8 489.6 100.2 -0.0 100.2 -0.0M170.4 378.6C170.4 378.6 364.8 466.2 413.8 471.0C451.4 474.8 540.0 441.8 520.4 351.0C520.4 351.0 457.8 -0.0 457.8 -0.0M523.0 380.4C523.0 380.4 712.8 467.4 773.6 468.4C816.2 469.0 891.8 456.0 865.2 326.2C865.2 326.2 802.2 -0.0 802.2 -0.0" glyph-name="m" horiz-adv-x="870.8" unicode="m"/><glyph d="M536.8 451.2C536.8 451.2 414.2 486.6 321.8 472.6C261.8 463.6 211.0 434.8 163.6 318.0C143.0 267.8 68.6 70.2 186.2 9.0C209.2 -3.0 367.2 -13.6 456.4 35.4M536.8 451.2C536.8 451.2 397.2 -286.4 397.2 -286.4" glyph-name="q" horiz-adv-x="536.8" unicode="q"/><glyph d="M189.6 490.2C189.6 490.2 124.4 211.4 119.2 99.4C116.8 48.0 146.8 -11.2 237.2 0.2C288.2 6.6 412.0 55.4 469.8 91.8M543.8 491.4C543.8 491.4 454.6 -0.0 454.6 -0.0" glyph-name="u" horiz-adv-x="543.8" unicode="u"/><glyph d="M332.5 473.2C259.7 466.1 219.4 463.1 177.9 355.1C155.4 296.4 59.8 4.8 229.4 -0.2C347.0 -3.7 434.5 -15.1 500.9 121.3C528.2 177.5 545.9 381.4 541.1 405.3C536.4 428.3 499.6 489.5 332.5 473.2C332.5 473.2 332.5 473.2 332.5 473.2M313.6 630.0C310.2 616.9 295.8 606.3 281.4 606.3C267.0 606.3 258.0 616.9 261.4 630.0C264.8 643.1 279.2 653.7 293.6 653.7C308.0 653.7 317.0 643.1 313.6 630.0C313.6 630.0 313.6 630.0 313.6 630.0M569.9 630.0C566.5 616.9 552.1 606.3 537.6 606.3C523.2 606.3 514.3 616.9 517.6 630.0C521.0 643.1 535.4 653.7 549.9 653.7C564.3 653.7 573.2 643.1 569.9 630.0C569.9 630.0 569.9 630.0 569.9 630.0" glyph-name="ö" horiz-adv-x="570.6" unicode="ö"/><glyph d="M168.0 490.8C168.0 490.8 192.0 202.6 218.2 61.0C226.0 18.4 248.4 -5.0 328.8 -0.0M587.6 490.8C587.6 490.8 180.6 -285.8 180.6 -285.8" glyph-name="y" horiz-adv-x="587.6" unicode="y"/></font>
</defs>
</svg>
