<?xml version="1.0" encoding="UTF-8"?><!DOCTYPE svg  PUBLIC '-//W3C//DTD SVG 1.1//EN'  'http://www.w3.org/Graphics/SVG/1.1/DTD/svg11.dtd'><svg version="1.1" xmlns="http://www.w3.org/2000/svg" xmlns:xlink="http://www.w3.org/1999/xlink"><defs><font horiz-adv-x="500.0" id="Hershey-Cyrillic"><font-face ascent="800.0" cap-height="500.0" descent="-200.0" font-family="Hershey-Cyrillic" units-per-em="1000" x-height="300.0"/><missing-glyph horiz-adv-x="500.0"/><glyph glyph-name="space" horiz-adv-x="500.0" unicode=" "/><glyph d="M133.3 600.0C133.3 600.0 100.0 700.0 100.0 700.0C100.0 700.0 100.0 500.0 100.0 500.0C100.0 500.0 133.3 600.0 133.3 600.0C133.3 600.0 200.0 666.7 200.0 666.7C200.0 666.7 300.0 700.0 300.0 700.0C300.0 700.0 366.7 700.0 366.7 700.0C366.7 700.0 466.7 666.7 466.7 666.7C466.7 666.7 533.3 600.0 533.3 600.0C533.3 600.0 566.7 533.3 566.7 533.3C566.7 533.3 600.0 433.3 600.0 433.3C600.0 433.3 600.0 266.7 600.0 266.7C600.0 266.7 566.7 166.7 566.7 166.7C566.7 166.7 533.3 100.0 533.3 100.0C533.3 100.0 466.7 33.3 466.7 33.3C466.7 33.3 366.7 -0.0 366.7 -0.0C366.7 -0.0 266.7 -0.0 266.7 -0.0C266.7 -0.0 166.7 33.3 166.7 33.3C166.7 33.3 133.3 66.7 133.3 66.7C133.3 66.7 100.0 133.3 100.0 133.3C100.0 133.3 100.0 166.7 100.0 166.7C100.0 166.7 133.3 200.0 133.3 200.0C133.3 200.0 166.7 166.7 166.7 166.7C166.7 166.7 133.3 133.3 133.3 133.3M366.7 700.0C366.7 700.0 433.3 666.7 433.3 666.7C433.3 666.7 500.0 600.0 500.0 600.0C500.0 600.0 533.3 533.3 533.3 533.3C533.3 533.3 566.7 433.3 566.7 433.3C566.7 433.3 566.7 266.7 566.7 266.7C566.7 266.7 533.3 166.7 533.3 166.7C533.3 166.7 500.0 100.0 500.0 100.0C500.0 100.0 433.3 33.3 433.3 33.3C433.3 33.3 366.7 -0.0 366.7 -0.0M266.7 366.7C266.7 366.7 566.7 366.7 566.7 366.7" glyph-name="Э" horiz-adv-x="700.0" unicode="Э"/><glyph d="M333.3 700.0C333.3 700.0 100.0 -0.0 100.0 -0.0M333.3 700.0C333.3 700.0 566.7 -0.0 566.7 -0.0M333.3 600.0C333.3 600.0 533.3 -0.0 533.3 -0.0M166.7 200.0C166.7 200.0 466.7 200.0 466.7 200.0M33.3 -0.0C33.3 -0.0 233.3 -0.0 233.3 -0.0M433.3 -0.0C433.3 -0.0 633.3 -0.0 633.3 -0.0" glyph-name="А" horiz-adv-x="666.7" unicode="А"/><glyph d="M266.7 700.0C266.7 700.0 266.7 500.0 266.7 500.0C266.7 500.0 233.3 233.3 233.3 233.3C233.3 233.3 200.0 100.0 200.0 100.0C200.0 100.0 166.7 33.3 166.7 33.3C166.7 33.3 133.3 -0.0 133.3 -0.0M600.0 700.0C600.0 700.0 600.0 -0.0 600.0 -0.0M633.3 700.0C633.3 700.0 633.3 -0.0 633.3 -0.0M166.7 700.0C166.7 700.0 733.3 700.0 733.3 700.0M33.3 -0.0C33.3 -0.0 733.3 -0.0 733.3 -0.0M33.3 -0.0C33.3 -0.0 33.3 -233.3 33.3 -233.3M66.7 -0.0C66.7 -0.0 33.3 -233.3 33.3 -233.3M700.0 -0.0C700.0 -0.0 733.3 -233.3 733.3 -233.3M733.3 -0.0C733.3 -0.0 733.3 -233.3 733.3 -233.3" glyph-name="Д" horiz-adv-x="800.0" unicode="Д"/><glyph d="M166.7 700.0C166.7 700.0 166.7 -0.0 166.7 -0.0M200.0 700.0C200.0 700.0 200.0 -0.0 200.0 -0.0M600.0 700.0C600.0 700.0 600.0 -0.0 600.0 -0.0M633.3 700.0C633.3 700.0 633.3 -0.0 633.3 -0.0M66.7 700.0C66.7 700.0 300.0 700.0 300.0 700.0M500.0 700.0C500.0 700.0 733.3 700.0 733.3 700.0M600.0 633.3C600.0 633.3 200.0 66.7 200.0 66.7M66.7 -0.0C66.7 -0.0 300.0 -0.0 300.0 -0.0M500.0 -0.0C500.0 -0.0 733.3 -0.0 733.3 -0.0" glyph-name="И" horiz-adv-x="800.0" unicode="И"/><glyph d="M166.7 700.0C166.7 700.0 166.7 -0.0 166.7 -0.0M200.0 700.0C200.0 700.0 400.0 100.0 400.0 100.0M166.7 700.0C166.7 700.0 400.0 -0.0 400.0 -0.0M633.3 700.0C633.3 700.0 400.0 -0.0 400.0 -0.0M633.3 700.0C633.3 700.0 633.3 -0.0 633.3 -0.0M666.7 700.0C666.7 700.0 666.7 -0.0 666.7 -0.0M66.7 700.0C66.7 700.0 200.0 700.0 200.0 700.0M633.3 700.0C633.3 700.0 766.7 700.0 766.7 700.0M66.7 -0.0C66.7 -0.0 266.7 -0.0 266.7 -0.0M533.3 -0.0C533.3 -0.0 766.7 -0.0 766.7 -0.0" glyph-name="М" horiz-adv-x="833.3" unicode="М"/><glyph d="M166.7 700.0C166.7 700.0 166.7 -0.0 166.7 -0.0M200.0 700.0C200.0 700.0 200.0 -0.0 200.0 -0.0M66.7 700.0C66.7 700.0 466.7 700.0 466.7 700.0C466.7 700.0 566.7 666.7 566.7 666.7C566.7 666.7 600.0 633.3 600.0 633.3C600.0 633.3 633.3 566.7 633.3 566.7C633.3 566.7 633.3 466.7 633.3 466.7C633.3 466.7 600.0 400.0 600.0 400.0C600.0 400.0 566.7 366.7 566.7 366.7C566.7 366.7 466.7 333.3 466.7 333.3C466.7 333.3 200.0 333.3 200.0 333.3M466.7 700.0C466.7 700.0 533.3 666.7 533.3 666.7C533.3 666.7 566.7 633.3 566.7 633.3C566.7 633.3 600.0 566.7 600.0 566.7C600.0 566.7 600.0 466.7 600.0 466.7C600.0 466.7 566.7 400.0 566.7 400.0C566.7 400.0 533.3 366.7 533.3 366.7C533.3 366.7 466.7 333.3 466.7 333.3M66.7 -0.0C66.7 -0.0 300.0 -0.0 300.0 -0.0" glyph-name="Р" horiz-adv-x="733.3" unicode="Р"/><glyph d="M400.0 700.0C400.0 700.0 400.0 -0.0 400.0 -0.0M433.3 700.0C433.3 700.0 433.3 -0.0 433.3 -0.0M300.0 700.0C300.0 700.0 533.3 700.0 533.3 700.0M333.3 600.0C333.3 600.0 200.0 566.7 200.0 566.7C200.0 566.7 133.3 500.0 133.3 500.0C133.3 500.0 100.0 400.0 100.0 400.0C100.0 400.0 100.0 300.0 100.0 300.0C100.0 300.0 133.3 200.0 133.3 200.0C133.3 200.0 200.0 133.3 200.0 133.3C200.0 133.3 333.3 100.0 333.3 100.0C333.3 100.0 500.0 100.0 500.0 100.0C500.0 100.0 633.3 133.3 633.3 133.3C633.3 133.3 700.0 200.0 700.0 200.0C700.0 200.0 733.3 300.0 733.3 300.0C733.3 300.0 733.3 400.0 733.3 400.0C733.3 400.0 700.0 500.0 700.0 500.0C700.0 500.0 633.3 566.7 633.3 566.7C633.3 566.7 500.0 600.0 500.0 600.0C500.0 600.0 333.3 600.0 333.3 600.0M333.3 600.0C333.3 600.0 233.3 566.7 233.3 566.7C233.3 566.7 166.7 500.0 166.7 500.0C166.7 500.0 133.3 400.0 133.3 400.0C133.3 400.0 133.3 300.0 133.3 300.0C133.3 300.0 166.7 200.0 166.7 200.0C166.7 200.0 233.3 133.3 233.3 133.3C233.3 133.3 333.3 100.0 333.3 100.0M500.0 100.0C500.0 100.0 600.0 133.3 600.0 133.3C600.0 133.3 666.7 200.0 666.7 200.0C666.7 200.0 700.0 300.0 700.0 300.0C700.0 300.0 700.0 400.0 700.0 400.0C700.0 400.0 666.7 500.0 666.7 500.0C666.7 500.0 600.0 566.7 600.0 566.7C600.0 566.7 500.0 600.0 500.0 600.0M300.0 -0.0C300.0 -0.0 533.3 -0.0 533.3 -0.0" glyph-name="Ф" horiz-adv-x="833.3" unicode="Ф"/><glyph d="M333.3 833.3C333.3 833.3 266.7 766.7 266.7 766.7C266.7 766.7 200.0 666.7 200.0 666.7C200.0 666.7 133.3 533.3 133.3 533.3C133.3 533.3 100.0 366.7 100.0 366.7C100.0 366.7 100.0 233.3 100.0 233.3C100.0 233.3 133.3 66.7 133.3 66.7C133.3 66.7 200.0 -66.7 200.0 -66.7C200.0 -66.7 266.7 -166.7 266.7 -166.7C266.7 -166.7 333.3 -233.3 333.3 -233.3C333.3 -233.3 366.7 -233.3 366.7 -233.3M333.3 833.3C333.3 833.3 366.7 833.3 366.7 833.3C366.7 833.3 300.0 766.7 300.0 766.7C300.0 766.7 233.3 666.7 233.3 666.7C233.3 666.7 166.7 533.3 166.7 533.3C166.7 533.3 133.3 366.7 133.3 366.7C133.3 366.7 133.3 233.3 133.3 233.3C133.3 233.3 166.7 66.7 166.7 66.7C166.7 66.7 233.3 -66.7 233.3 -66.7C233.3 -66.7 300.0 -166.7 300.0 -166.7C300.0 -166.7 366.7 -233.3 366.7 -233.3" glyph-name="(" horiz-adv-x="466.7" unicode="("/><glyph d="M166.7 133.3C166.7 133.3 133.3 100.0 133.3 100.0C133.3 100.0 100.0 133.3 100.0 133.3C100.0 133.3 133.3 166.7 133.3 166.7C133.3 166.7 166.7 133.3 166.7 133.3C166.7 133.3 166.7 66.7 166.7 66.7C166.7 66.7 100.0 -0.0 100.0 -0.0" glyph-name="," horiz-adv-x="266.7" unicode=","/><glyph d="M0.0 700.0C0.0 700.0 466.7 -100.0 466.7 -100.0" glyph-name="\" horiz-adv-x="466.7" unicode="\"/><glyph d="M166.7 400.0C166.7 400.0 166.7 366.7 166.7 366.7C166.7 366.7 133.3 366.7 133.3 366.7C133.3 366.7 133.3 400.0 133.3 400.0C133.3 400.0 166.7 433.3 166.7 433.3C166.7 433.3 233.3 466.7 233.3 466.7C233.3 466.7 366.7 466.7 366.7 466.7C366.7 466.7 433.3 433.3 433.3 433.3C433.3 433.3 466.7 400.0 466.7 400.0C466.7 400.0 500.0 333.3 500.0 333.3C500.0 333.3 500.0 100.0 500.0 100.0C500.0 100.0 533.3 33.3 533.3 33.3C533.3 33.3 566.7 -0.0 566.7 -0.0M466.7 400.0C466.7 400.0 466.7 100.0 466.7 100.0C466.7 100.0 500.0 33.3 500.0 33.3C500.0 33.3 566.7 -0.0 566.7 -0.0C566.7 -0.0 600.0 -0.0 600.0 -0.0M466.7 333.3C466.7 333.3 433.3 300.0 433.3 300.0C433.3 300.0 233.3 266.7 233.3 266.7C233.3 266.7 133.3 233.3 133.3 233.3C133.3 233.3 100.0 166.7 100.0 166.7C100.0 166.7 100.0 100.0 100.0 100.0C100.0 100.0 133.3 33.3 133.3 33.3C133.3 33.3 233.3 -0.0 233.3 -0.0C233.3 -0.0 333.3 -0.0 333.3 -0.0C333.3 -0.0 400.0 33.3 400.0 33.3C400.0 33.3 466.7 100.0 466.7 100.0M233.3 266.7C233.3 266.7 166.7 233.3 166.7 233.3C166.7 233.3 133.3 166.7 133.3 166.7C133.3 166.7 133.3 100.0 133.3 100.0C133.3 100.0 166.7 33.3 166.7 33.3C166.7 33.3 233.3 -0.0 233.3 -0.0" glyph-name="а" horiz-adv-x="666.7" unicode="а"/><glyph d="M266.7 466.7C266.7 466.7 266.7 333.3 266.7 333.3C266.7 333.3 233.3 133.3 233.3 133.3C233.3 133.3 200.0 33.3 200.0 33.3C200.0 33.3 166.7 -0.0 166.7 -0.0M566.7 466.7C566.7 466.7 566.7 -0.0 566.7 -0.0M600.0 466.7C600.0 466.7 600.0 -0.0 600.0 -0.0M166.7 466.7C166.7 466.7 700.0 466.7 700.0 466.7M100.0 -0.0C100.0 -0.0 66.7 -166.7 66.7 -166.7C66.7 -166.7 66.7 -0.0 66.7 -0.0C66.7 -0.0 700.0 -0.0 700.0 -0.0C700.0 -0.0 700.0 -166.7 700.0 -166.7C700.0 -166.7 666.7 -0.0 666.7 -0.0" glyph-name="д" horiz-adv-x="766.7" unicode="д"/><glyph d="M133.3 266.7C133.3 266.7 533.3 266.7 533.3 266.7C533.3 266.7 533.3 333.3 533.3 333.3C533.3 333.3 500.0 400.0 500.0 400.0C500.0 400.0 466.7 433.3 466.7 433.3C466.7 433.3 400.0 466.7 400.0 466.7C400.0 466.7 300.0 466.7 300.0 466.7C300.0 466.7 200.0 433.3 200.0 433.3C200.0 433.3 133.3 366.7 133.3 366.7C133.3 366.7 100.0 266.7 100.0 266.7C100.0 266.7 100.0 200.0 100.0 200.0C100.0 200.0 133.3 100.0 133.3 100.0C133.3 100.0 200.0 33.3 200.0 33.3C200.0 33.3 300.0 -0.0 300.0 -0.0C300.0 -0.0 366.7 -0.0 366.7 -0.0C366.7 -0.0 466.7 33.3 466.7 33.3C466.7 33.3 533.3 100.0 533.3 100.0M500.0 266.7C500.0 266.7 500.0 366.7 500.0 366.7C500.0 366.7 466.7 433.3 466.7 433.3M300.0 466.7C300.0 466.7 233.3 433.3 233.3 433.3C233.3 433.3 166.7 366.7 166.7 366.7C166.7 366.7 133.3 266.7 133.3 266.7C133.3 266.7 133.3 200.0 133.3 200.0C133.3 200.0 166.7 100.0 166.7 100.0C166.7 100.0 233.3 33.3 233.3 33.3C233.3 33.3 300.0 -0.0 300.0 -0.0" glyph-name="е" horiz-adv-x="633.3" unicode="е"/><glyph d="M166.7 466.7C166.7 466.7 166.7 -0.0 166.7 -0.0M166.7 466.7C166.7 466.7 366.7 -0.0 366.7 -0.0M200.0 466.7C200.0 466.7 366.7 66.7 366.7 66.7M566.7 466.7C566.7 466.7 366.7 -0.0 366.7 -0.0M566.7 466.7C566.7 466.7 566.7 -0.0 566.7 -0.0M600.0 466.7C600.0 466.7 600.0 -0.0 600.0 -0.0M66.7 466.7C66.7 466.7 200.0 466.7 200.0 466.7M566.7 466.7C566.7 466.7 700.0 466.7 700.0 466.7M66.7 -0.0C66.7 -0.0 266.7 -0.0 266.7 -0.0M466.7 -0.0C466.7 -0.0 700.0 -0.0 700.0 -0.0" glyph-name="м" horiz-adv-x="766.7" unicode="м"/><glyph d="M600.0 433.3C600.0 433.3 566.7 500.0 566.7 500.0C566.7 500.0 500.0 533.3 500.0 533.3C500.0 533.3 400.0 533.3 400.0 533.3C400.0 533.3 333.3 500.0 333.3 500.0C333.3 500.0 300.0 466.7 300.0 466.7C300.0 466.7 266.7 366.7 266.7 366.7C266.7 366.7 266.7 266.7 266.7 266.7C266.7 266.7 300.0 200.0 300.0 200.0C300.0 200.0 366.7 166.7 366.7 166.7C366.7 166.7 466.7 166.7 466.7 166.7C466.7 166.7 533.3 200.0 533.3 200.0C533.3 200.0 566.7 266.7 566.7 266.7M400.0 533.3C400.0 533.3 333.3 466.7 333.3 466.7C333.3 466.7 300.0 366.7 300.0 366.7C300.0 366.7 300.0 266.7 300.0 266.7C300.0 266.7 333.3 200.0 333.3 200.0C333.3 200.0 366.7 166.7 366.7 166.7M600.0 533.3C600.0 533.3 566.7 266.7 566.7 266.7C566.7 266.7 566.7 200.0 566.7 200.0C566.7 200.0 633.3 166.7 633.3 166.7C633.3 166.7 700.0 166.7 700.0 166.7C700.0 166.7 766.7 233.3 766.7 233.3C766.7 233.3 800.0 333.3 800.0 333.3C800.0 333.3 800.0 400.0 800.0 400.0C800.0 400.0 766.7 500.0 766.7 500.0C766.7 500.0 733.3 566.7 733.3 566.7C733.3 566.7 666.7 633.3 666.7 633.3C666.7 633.3 600.0 666.7 600.0 666.7C600.0 666.7 500.0 700.0 500.0 700.0C500.0 700.0 400.0 700.0 400.0 700.0C400.0 700.0 300.0 666.7 300.0 666.7C300.0 666.7 233.3 633.3 233.3 633.3C233.3 633.3 166.7 566.7 166.7 566.7C166.7 566.7 133.3 500.0 133.3 500.0C133.3 500.0 100.0 400.0 100.0 400.0C100.0 400.0 100.0 300.0 100.0 300.0C100.0 300.0 133.3 200.0 133.3 200.0C133.3 200.0 166.7 133.3 166.7 133.3C166.7 133.3 233.3 66.7 233.3 66.7C233.3 66.7 300.0 33.3 300.0 33.3C300.0 33.3 400.0 -0.0 400.0 -0.0C400.0 -0.0 500.0 -0.0 500.0 -0.0C500.0 -0.0 600.0 33.3 600.0 33.3C600.0 33.3 666.7 66.7 666.7 66.7C666.7 66.7 700.0 100.0 700.0 100.0M633.3 533.3C633.3 533.3 600.0 266.7 600.0 266.7C600.0 266.7 600.0 200.0 600.0 200.0C600.0 200.0 633.3 166.7 633.3 166.7" glyph-name="@" horiz-adv-x="900.0" unicode="@"/><glyph d="M333.3 700.0C333.3 700.0 333.3 -233.3 333.3 -233.3M366.7 700.0C366.7 700.0 366.7 -233.3 366.7 -233.3M233.3 700.0C233.3 700.0 366.7 700.0 366.7 700.0M333.3 366.7C333.3 366.7 300.0 433.3 300.0 433.3C300.0 433.3 266.7 466.7 266.7 466.7C266.7 466.7 200.0 466.7 200.0 466.7C200.0 466.7 133.3 433.3 133.3 433.3C133.3 433.3 100.0 333.3 100.0 333.3C100.0 333.3 100.0 133.3 100.0 133.3C100.0 133.3 133.3 33.3 133.3 33.3C133.3 33.3 200.0 -0.0 200.0 -0.0C200.0 -0.0 266.7 -0.0 266.7 -0.0C266.7 -0.0 300.0 33.3 300.0 33.3C300.0 33.3 333.3 100.0 333.3 100.0M200.0 466.7C200.0 466.7 166.7 433.3 166.7 433.3C166.7 433.3 133.3 333.3 133.3 333.3C133.3 333.3 133.3 133.3 133.3 133.3C133.3 133.3 166.7 33.3 166.7 33.3C166.7 33.3 200.0 -0.0 200.0 -0.0M500.0 466.7C500.0 466.7 533.3 433.3 533.3 433.3C533.3 433.3 566.7 333.3 566.7 333.3C566.7 333.3 566.7 133.3 566.7 133.3C566.7 133.3 533.3 33.3 533.3 33.3C533.3 33.3 500.0 -0.0 500.0 -0.0M366.7 366.7C366.7 366.7 400.0 433.3 400.0 433.3C400.0 433.3 433.3 466.7 433.3 466.7C433.3 466.7 500.0 466.7 500.0 466.7C500.0 466.7 566.7 433.3 566.7 433.3C566.7 433.3 600.0 333.3 600.0 333.3C600.0 333.3 600.0 133.3 600.0 133.3C600.0 133.3 566.7 33.3 566.7 33.3C566.7 33.3 500.0 -0.0 500.0 -0.0C500.0 -0.0 433.3 -0.0 433.3 -0.0C433.3 -0.0 400.0 33.3 400.0 33.3C400.0 33.3 366.7 100.0 366.7 100.0M233.3 -233.3C233.3 -233.3 466.7 -233.3 466.7 -233.3" glyph-name="ф" horiz-adv-x="700.0" unicode="ф"/><glyph d="M133.3 566.7C133.3 566.7 166.7 533.3 166.7 533.3C166.7 533.3 133.3 500.0 133.3 500.0C133.3 500.0 100.0 533.3 100.0 533.3C100.0 533.3 100.0 566.7 100.0 566.7C100.0 566.7 133.3 633.3 133.3 633.3C133.3 633.3 166.7 666.7 166.7 666.7C166.7 666.7 266.7 700.0 266.7 700.0C266.7 700.0 400.0 700.0 400.0 700.0C400.0 700.0 500.0 666.7 500.0 666.7C500.0 666.7 533.3 600.0 533.3 600.0C533.3 600.0 533.3 500.0 533.3 500.0C533.3 500.0 500.0 433.3 500.0 433.3C500.0 433.3 400.0 400.0 400.0 400.0C400.0 400.0 300.0 400.0 300.0 400.0M400.0 700.0C400.0 700.0 466.7 666.7 466.7 666.7C466.7 666.7 500.0 600.0 500.0 600.0C500.0 600.0 500.0 500.0 500.0 500.0C500.0 500.0 466.7 433.3 466.7 433.3C466.7 433.3 400.0 400.0 400.0 400.0M400.0 400.0C400.0 400.0 466.7 366.7 466.7 366.7C466.7 366.7 533.3 300.0 533.3 300.0C533.3 300.0 566.7 233.3 566.7 233.3C566.7 233.3 566.7 133.3 566.7 133.3C566.7 133.3 533.3 66.7 533.3 66.7C533.3 66.7 500.0 33.3 500.0 33.3C500.0 33.3 400.0 -0.0 400.0 -0.0C400.0 -0.0 266.7 -0.0 266.7 -0.0C266.7 -0.0 166.7 33.3 166.7 33.3C166.7 33.3 133.3 66.7 133.3 66.7C133.3 66.7 100.0 133.3 100.0 133.3C100.0 133.3 100.0 166.7 100.0 166.7C100.0 166.7 133.3 200.0 133.3 200.0C133.3 200.0 166.7 166.7 166.7 166.7C166.7 166.7 133.3 133.3 133.3 133.3M500.0 333.3C500.0 333.3 533.3 233.3 533.3 233.3C533.3 233.3 533.3 133.3 533.3 133.3C533.3 133.3 500.0 66.7 500.0 66.7C500.0 66.7 466.7 33.3 466.7 33.3C466.7 33.3 400.0 -0.0 400.0 -0.0" glyph-name="3" horiz-adv-x="666.7" unicode="3"/><glyph d="M166.7 466.7C166.7 466.7 166.7 -0.0 166.7 -0.0M200.0 466.7C200.0 466.7 200.0 -0.0 200.0 -0.0M500.0 466.7C500.0 466.7 500.0 -0.0 500.0 -0.0M533.3 466.7C533.3 466.7 533.3 -0.0 533.3 -0.0M833.3 466.7C833.3 466.7 833.3 -0.0 833.3 -0.0M866.7 466.7C866.7 466.7 866.7 -0.0 866.7 -0.0M66.7 466.7C66.7 466.7 300.0 466.7 300.0 466.7M400.0 466.7C400.0 466.7 633.3 466.7 633.3 466.7M733.3 466.7C733.3 466.7 966.7 466.7 966.7 466.7M66.7 -0.0C66.7 -0.0 966.7 -0.0 966.7 -0.0" glyph-name="ш" horiz-adv-x="1033.3" unicode="ш"/><glyph d="M166.7 466.7C166.7 466.7 166.7 -0.0 166.7 -0.0M200.0 466.7C200.0 466.7 200.0 -0.0 200.0 -0.0M66.7 466.7C66.7 466.7 300.0 466.7 300.0 466.7M200.0 233.3C200.0 233.3 333.3 233.3 333.3 233.3C333.3 233.3 433.3 200.0 433.3 200.0C433.3 200.0 466.7 133.3 466.7 133.3C466.7 133.3 466.7 100.0 466.7 100.0C466.7 100.0 433.3 33.3 433.3 33.3C433.3 33.3 333.3 -0.0 333.3 -0.0C333.3 -0.0 66.7 -0.0 66.7 -0.0M333.3 233.3C333.3 233.3 400.0 200.0 400.0 200.0C400.0 200.0 433.3 133.3 433.3 133.3C433.3 133.3 433.3 100.0 433.3 100.0C433.3 100.0 400.0 33.3 400.0 33.3C400.0 33.3 333.3 -0.0 333.3 -0.0" glyph-name="ь" horiz-adv-x="566.7" unicode="ь"/><glyph d="M533.3 466.7C533.3 466.7 500.0 366.7 500.0 366.7C500.0 366.7 433.3 300.0 433.3 300.0C433.3 300.0 333.3 266.7 333.3 266.7C333.3 266.7 300.0 266.7 300.0 266.7C300.0 266.7 200.0 300.0 200.0 300.0C200.0 300.0 133.3 366.7 133.3 366.7C133.3 366.7 100.0 466.7 100.0 466.7C100.0 466.7 100.0 500.0 100.0 500.0C100.0 500.0 133.3 600.0 133.3 600.0C133.3 600.0 200.0 666.7 200.0 666.7C200.0 666.7 300.0 700.0 300.0 700.0C300.0 700.0 366.7 700.0 366.7 700.0C366.7 700.0 466.7 666.7 466.7 666.7C466.7 666.7 533.3 600.0 533.3 600.0C533.3 600.0 566.7 500.0 566.7 500.0C566.7 500.0 566.7 300.0 566.7 300.0C566.7 300.0 533.3 166.7 533.3 166.7C533.3 166.7 500.0 100.0 500.0 100.0C500.0 100.0 433.3 33.3 433.3 33.3C433.3 33.3 333.3 -0.0 333.3 -0.0C333.3 -0.0 233.3 -0.0 233.3 -0.0C233.3 -0.0 166.7 33.3 166.7 33.3C166.7 33.3 133.3 100.0 133.3 100.0C133.3 100.0 133.3 133.3 133.3 133.3C133.3 133.3 166.7 166.7 166.7 166.7C166.7 166.7 200.0 133.3 200.0 133.3C200.0 133.3 166.7 100.0 166.7 100.0M300.0 266.7C300.0 266.7 233.3 300.0 233.3 300.0C233.3 300.0 166.7 366.7 166.7 366.7C166.7 366.7 133.3 466.7 133.3 466.7C133.3 466.7 133.3 500.0 133.3 500.0C133.3 500.0 166.7 600.0 166.7 600.0C166.7 600.0 233.3 666.7 233.3 666.7C233.3 666.7 300.0 700.0 300.0 700.0M366.7 700.0C366.7 700.0 433.3 666.7 433.3 666.7C433.3 666.7 500.0 600.0 500.0 600.0C500.0 600.0 533.3 500.0 533.3 500.0C533.3 500.0 533.3 300.0 533.3 300.0C533.3 300.0 500.0 166.7 500.0 166.7C500.0 166.7 466.7 100.0 466.7 100.0C466.7 100.0 400.0 33.3 400.0 33.3C400.0 33.3 333.3 -0.0 333.3 -0.0" glyph-name="9" horiz-adv-x="666.7" unicode="9"/><glyph d="M133.3 566.7C133.3 566.7 166.7 533.3 166.7 533.3C166.7 533.3 133.3 500.0 133.3 500.0C133.3 500.0 100.0 533.3 100.0 533.3C100.0 533.3 100.0 566.7 100.0 566.7C100.0 566.7 133.3 633.3 133.3 633.3C133.3 633.3 166.7 666.7 166.7 666.7C166.7 666.7 266.7 700.0 266.7 700.0C266.7 700.0 400.0 700.0 400.0 700.0C400.0 700.0 500.0 666.7 500.0 666.7C500.0 666.7 533.3 633.3 533.3 633.3C533.3 633.3 566.7 566.7 566.7 566.7C566.7 566.7 566.7 500.0 566.7 500.0C566.7 500.0 533.3 433.3 533.3 433.3C533.3 433.3 433.3 366.7 433.3 366.7C433.3 366.7 266.7 300.0 266.7 300.0C266.7 300.0 200.0 266.7 200.0 266.7C200.0 266.7 133.3 200.0 133.3 200.0C133.3 200.0 100.0 100.0 100.0 100.0C100.0 100.0 100.0 -0.0 100.0 -0.0M400.0 700.0C400.0 700.0 466.7 666.7 466.7 666.7C466.7 666.7 500.0 633.3 500.0 633.3C500.0 633.3 533.3 566.7 533.3 566.7C533.3 566.7 533.3 500.0 533.3 500.0C533.3 500.0 500.0 433.3 500.0 433.3C500.0 433.3 400.0 366.7 400.0 366.7C400.0 366.7 266.7 300.0 266.7 300.0M100.0 66.7C100.0 66.7 133.3 100.0 133.3 100.0C133.3 100.0 200.0 100.0 200.0 100.0C200.0 100.0 366.7 33.3 366.7 33.3C366.7 33.3 466.7 33.3 466.7 33.3C466.7 33.3 533.3 66.7 533.3 66.7C533.3 66.7 566.7 100.0 566.7 100.0M200.0 100.0C200.0 100.0 366.7 -0.0 366.7 -0.0C366.7 -0.0 500.0 -0.0 500.0 -0.0C500.0 -0.0 533.3 33.3 533.3 33.3C533.3 33.3 566.7 100.0 566.7 100.0C566.7 100.0 566.7 166.7 566.7 166.7" glyph-name="2" horiz-adv-x="666.7" unicode="2"/><glyph d="M233.3 466.7C233.3 466.7 233.3 333.3 233.3 333.3C233.3 333.3 200.0 133.3 200.0 133.3C200.0 133.3 166.7 33.3 166.7 33.3C166.7 33.3 133.3 -0.0 133.3 -0.0C133.3 -0.0 100.0 -0.0 100.0 -0.0C100.0 -0.0 66.7 33.3 66.7 33.3C66.7 33.3 100.0 66.7 100.0 66.7C100.0 66.7 133.3 33.3 133.3 33.3M533.3 466.7C533.3 466.7 533.3 -0.0 533.3 -0.0M566.7 466.7C566.7 466.7 566.7 -0.0 566.7 -0.0M133.3 466.7C133.3 466.7 666.7 466.7 666.7 466.7M433.3 -0.0C433.3 -0.0 666.7 -0.0 666.7 -0.0" glyph-name="л" horiz-adv-x="733.3" unicode="л"/><glyph d="M133.3 400.0C133.3 400.0 733.3 400.0 733.3 400.0M133.3 200.0C133.3 200.0 733.3 200.0 733.3 200.0" glyph-name="=" horiz-adv-x="866.7" unicode="="/><glyph d="M133.3 566.7C133.3 566.7 166.7 533.3 166.7 533.3C166.7 533.3 133.3 500.0 133.3 500.0C133.3 500.0 100.0 533.3 100.0 533.3C100.0 533.3 100.0 566.7 100.0 566.7C100.0 566.7 133.3 633.3 133.3 633.3C133.3 633.3 166.7 666.7 166.7 666.7C166.7 666.7 233.3 700.0 233.3 700.0C233.3 700.0 333.3 700.0 333.3 700.0C333.3 700.0 433.3 666.7 433.3 666.7C433.3 666.7 466.7 633.3 466.7 633.3C466.7 633.3 500.0 566.7 500.0 566.7C500.0 566.7 500.0 500.0 500.0 500.0C500.0 500.0 466.7 433.3 466.7 433.3C466.7 433.3 433.3 400.0 433.3 400.0C433.3 400.0 300.0 333.3 300.0 333.3C300.0 333.3 300.0 233.3 300.0 233.3M333.3 700.0C333.3 700.0 400.0 666.7 400.0 666.7C400.0 666.7 433.3 633.3 433.3 633.3C433.3 633.3 466.7 566.7 466.7 566.7C466.7 566.7 466.7 500.0 466.7 500.0C466.7 500.0 433.3 433.3 433.3 433.3C433.3 433.3 366.7 366.7 366.7 366.7M300.0 66.7C300.0 66.7 266.7 33.3 266.7 33.3C266.7 33.3 300.0 -0.0 300.0 -0.0C300.0 -0.0 333.3 33.3 333.3 33.3C333.3 33.3 300.0 66.7 300.0 66.7" glyph-name="?" horiz-adv-x="600.0" unicode="?"/><glyph d="M166.7 700.0C166.7 700.0 166.7 -0.0 166.7 -0.0M200.0 700.0C200.0 700.0 200.0 -0.0 200.0 -0.0M66.7 700.0C66.7 700.0 566.7 700.0 566.7 700.0C566.7 700.0 566.7 500.0 566.7 500.0C566.7 500.0 533.3 700.0 533.3 700.0M66.7 -0.0C66.7 -0.0 300.0 -0.0 300.0 -0.0" glyph-name="Г" horiz-adv-x="600.0" unicode="Г"/><glyph d="M133.3 600.0C133.3 600.0 100.0 700.0 100.0 700.0C100.0 700.0 100.0 500.0 100.0 500.0C100.0 500.0 133.3 600.0 133.3 600.0C133.3 600.0 200.0 666.7 200.0 666.7C200.0 666.7 266.7 700.0 266.7 700.0C266.7 700.0 400.0 700.0 400.0 700.0C400.0 700.0 500.0 666.7 500.0 666.7C500.0 666.7 533.3 600.0 533.3 600.0C533.3 600.0 533.3 500.0 533.3 500.0C533.3 500.0 500.0 433.3 500.0 433.3C500.0 433.3 400.0 400.0 400.0 400.0C400.0 400.0 300.0 400.0 300.0 400.0M400.0 700.0C400.0 700.0 466.7 666.7 466.7 666.7C466.7 666.7 500.0 600.0 500.0 600.0C500.0 600.0 500.0 500.0 500.0 500.0C500.0 500.0 466.7 433.3 466.7 433.3C466.7 433.3 400.0 400.0 400.0 400.0M400.0 400.0C400.0 400.0 466.7 366.7 466.7 366.7C466.7 366.7 533.3 300.0 533.3 300.0C533.3 300.0 566.7 233.3 566.7 233.3C566.7 233.3 566.7 133.3 566.7 133.3C566.7 133.3 533.3 66.7 533.3 66.7C533.3 66.7 500.0 33.3 500.0 33.3C500.0 33.3 400.0 -0.0 400.0 -0.0C400.0 -0.0 233.3 -0.0 233.3 -0.0C233.3 -0.0 166.7 33.3 166.7 33.3C166.7 33.3 133.3 66.7 133.3 66.7C133.3 66.7 100.0 133.3 100.0 133.3C100.0 133.3 100.0 166.7 100.0 166.7C100.0 166.7 133.3 200.0 133.3 200.0C133.3 200.0 166.7 166.7 166.7 166.7C166.7 166.7 133.3 133.3 133.3 133.3M500.0 333.3C500.0 333.3 533.3 233.3 533.3 233.3C533.3 233.3 533.3 133.3 533.3 133.3C533.3 133.3 500.0 66.7 500.0 66.7C500.0 66.7 466.7 33.3 466.7 33.3C466.7 33.3 400.0 -0.0 400.0 -0.0" glyph-name="З" horiz-adv-x="666.7" unicode="З"/><glyph d="M266.7 700.0C266.7 700.0 266.7 500.0 266.7 500.0C266.7 500.0 233.3 233.3 233.3 233.3C233.3 233.3 200.0 100.0 200.0 100.0C200.0 100.0 166.7 33.3 166.7 33.3C166.7 33.3 133.3 -0.0 133.3 -0.0C133.3 -0.0 100.0 -0.0 100.0 -0.0C100.0 -0.0 66.7 33.3 66.7 33.3C66.7 33.3 66.7 66.7 66.7 66.7C66.7 66.7 100.0 100.0 100.0 100.0C100.0 100.0 133.3 66.7 133.3 66.7C133.3 66.7 100.0 33.3 100.0 33.3M633.3 700.0C633.3 700.0 633.3 -0.0 633.3 -0.0M666.7 700.0C666.7 700.0 666.7 -0.0 666.7 -0.0M166.7 700.0C166.7 700.0 766.7 700.0 766.7 700.0M533.3 -0.0C533.3 -0.0 766.7 -0.0 766.7 -0.0" glyph-name="Л" horiz-adv-x="833.3" unicode="Л"/><glyph d="M166.7 700.0C166.7 700.0 166.7 -0.0 166.7 -0.0M200.0 700.0C200.0 700.0 200.0 -0.0 200.0 -0.0M600.0 700.0C600.0 700.0 600.0 -0.0 600.0 -0.0M633.3 700.0C633.3 700.0 633.3 -0.0 633.3 -0.0M66.7 700.0C66.7 700.0 733.3 700.0 733.3 700.0M66.7 -0.0C66.7 -0.0 300.0 -0.0 300.0 -0.0M500.0 -0.0C500.0 -0.0 733.3 -0.0 733.3 -0.0" glyph-name="П" horiz-adv-x="800.0" unicode="П"/><glyph d="M366.7 833.3C366.7 833.3 133.3 -233.3 133.3 -233.3M566.7 833.3C566.7 833.3 333.3 -233.3 333.3 -233.3M133.3 400.0C133.3 400.0 600.0 400.0 600.0 400.0M100.0 200.0C100.0 200.0 566.7 200.0 566.7 200.0" glyph-name="#" horiz-adv-x="700.0" unicode="#"/><glyph d="M133.3 700.0C133.3 700.0 100.0 466.7 100.0 466.7M166.7 700.0C166.7 700.0 100.0 466.7 100.0 466.7" glyph-name="'" horiz-adv-x="266.7" unicode="'"/><glyph d="M166.7 700.0C166.7 700.0 166.7 -0.0 166.7 -0.0M200.0 700.0C200.0 700.0 200.0 -0.0 200.0 -0.0M66.7 700.0C66.7 700.0 300.0 700.0 300.0 700.0M200.0 366.7C200.0 366.7 433.3 366.7 433.3 366.7C433.3 366.7 533.3 333.3 533.3 333.3C533.3 333.3 566.7 300.0 566.7 300.0C566.7 300.0 600.0 233.3 600.0 233.3C600.0 233.3 600.0 133.3 600.0 133.3C600.0 133.3 566.7 66.7 566.7 66.7C566.7 66.7 533.3 33.3 533.3 33.3C533.3 33.3 433.3 -0.0 433.3 -0.0C433.3 -0.0 66.7 -0.0 66.7 -0.0M433.3 366.7C433.3 366.7 500.0 333.3 500.0 333.3C500.0 333.3 533.3 300.0 533.3 300.0C533.3 300.0 566.7 233.3 566.7 233.3C566.7 233.3 566.7 133.3 566.7 133.3C566.7 133.3 533.3 66.7 533.3 66.7C533.3 66.7 500.0 33.3 500.0 33.3C500.0 33.3 433.3 -0.0 433.3 -0.0M800.0 700.0C800.0 700.0 800.0 -0.0 800.0 -0.0M833.3 700.0C833.3 700.0 833.3 -0.0 833.3 -0.0M700.0 700.0C700.0 700.0 933.3 700.0 933.3 700.0M700.0 -0.0C700.0 -0.0 933.3 -0.0 933.3 -0.0" glyph-name="Ы" horiz-adv-x="1000.0" unicode="Ы"/><glyph d="M666.7 833.3C666.7 833.3 66.7 -233.3 66.7 -233.3" glyph-name="/" horiz-adv-x="733.3" unicode="/"/><glyph d="M166.7 466.7C166.7 466.7 166.7 -0.0 166.7 -0.0M200.0 466.7C200.0 466.7 200.0 -0.0 200.0 -0.0M66.7 466.7C66.7 466.7 533.3 466.7 533.3 466.7C533.3 466.7 533.3 300.0 533.3 300.0C533.3 300.0 500.0 466.7 500.0 466.7M66.7 -0.0C66.7 -0.0 300.0 -0.0 300.0 -0.0" glyph-name="г" horiz-adv-x="600.0" unicode="г"/><glyph d="M133.3 400.0C133.3 400.0 100.0 466.7 100.0 466.7C100.0 466.7 100.0 333.3 100.0 333.3C100.0 333.3 133.3 400.0 133.3 400.0C133.3 400.0 166.7 433.3 166.7 433.3C166.7 433.3 233.3 466.7 233.3 466.7C233.3 466.7 366.7 466.7 366.7 466.7C366.7 466.7 466.7 433.3 466.7 433.3C466.7 433.3 500.0 366.7 500.0 366.7C500.0 366.7 500.0 333.3 500.0 333.3C500.0 333.3 466.7 266.7 466.7 266.7C466.7 266.7 366.7 233.3 366.7 233.3M366.7 466.7C366.7 466.7 433.3 433.3 433.3 433.3C433.3 433.3 466.7 366.7 466.7 366.7C466.7 366.7 466.7 333.3 466.7 333.3C466.7 333.3 433.3 266.7 433.3 266.7C433.3 266.7 366.7 233.3 366.7 233.3M266.7 233.3C266.7 233.3 366.7 233.3 366.7 233.3C366.7 233.3 466.7 200.0 466.7 200.0C466.7 200.0 500.0 133.3 500.0 133.3C500.0 133.3 500.0 100.0 500.0 100.0C500.0 100.0 466.7 33.3 466.7 33.3C466.7 33.3 366.7 -0.0 366.7 -0.0C366.7 -0.0 233.3 -0.0 233.3 -0.0C233.3 -0.0 133.3 33.3 133.3 33.3C133.3 33.3 100.0 100.0 100.0 100.0C100.0 100.0 100.0 133.3 100.0 133.3C100.0 133.3 133.3 166.7 133.3 166.7C133.3 166.7 166.7 133.3 166.7 133.3C166.7 133.3 133.3 100.0 133.3 100.0M366.7 233.3C366.7 233.3 433.3 200.0 433.3 200.0C433.3 200.0 466.7 133.3 466.7 133.3C466.7 133.3 466.7 100.0 466.7 100.0C466.7 100.0 433.3 33.3 433.3 33.3C433.3 33.3 366.7 -0.0 366.7 -0.0" glyph-name="з" horiz-adv-x="600.0" unicode="з"/><glyph d="M133.3 400.0C133.3 400.0 100.0 366.7 100.0 366.7C100.0 366.7 133.3 333.3 133.3 333.3C133.3 333.3 166.7 366.7 166.7 366.7C166.7 366.7 133.3 400.0 133.3 400.0M166.7 133.3C166.7 133.3 133.3 100.0 133.3 100.0C133.3 100.0 100.0 133.3 100.0 133.3C100.0 133.3 133.3 166.7 133.3 166.7C133.3 166.7 166.7 133.3 166.7 133.3C166.7 133.3 166.7 66.7 166.7 66.7C166.7 66.7 100.0 -0.0 100.0 -0.0" glyph-name=";" horiz-adv-x="266.7" unicode=";"/><glyph d="M166.7 466.7C166.7 466.7 166.7 -0.0 166.7 -0.0M200.0 466.7C200.0 466.7 200.0 -0.0 200.0 -0.0M533.3 466.7C533.3 466.7 533.3 -0.0 533.3 -0.0M566.7 466.7C566.7 466.7 566.7 -0.0 566.7 -0.0M66.7 466.7C66.7 466.7 666.7 466.7 666.7 466.7M66.7 -0.0C66.7 -0.0 300.0 -0.0 300.0 -0.0M433.3 -0.0C433.3 -0.0 666.7 -0.0 666.7 -0.0" glyph-name="п" horiz-adv-x="733.3" unicode="п"/><glyph d="M100.0 466.7C100.0 466.7 300.0 -0.0 300.0 -0.0M133.3 466.7C133.3 466.7 300.0 66.7 300.0 66.7M500.0 466.7C500.0 466.7 300.0 -0.0 300.0 -0.0C300.0 -0.0 233.3 -133.3 233.3 -133.3C233.3 -133.3 166.7 -200.0 166.7 -200.0C166.7 -200.0 100.0 -233.3 100.0 -233.3C100.0 -233.3 66.7 -233.3 66.7 -233.3C66.7 -233.3 33.3 -200.0 33.3 -200.0C33.3 -200.0 66.7 -166.7 66.7 -166.7C66.7 -166.7 100.0 -200.0 100.0 -200.0M33.3 466.7C33.3 466.7 233.3 466.7 233.3 466.7M366.7 466.7C366.7 466.7 566.7 466.7 566.7 466.7" glyph-name="у" horiz-adv-x="600.0" unicode="у"/><glyph d="M166.7 700.0C166.7 700.0 166.7 333.3 166.7 333.3C166.7 333.3 200.0 266.7 200.0 266.7C200.0 266.7 300.0 233.3 300.0 233.3C300.0 233.3 400.0 233.3 400.0 233.3C400.0 233.3 500.0 266.7 500.0 266.7C500.0 266.7 566.7 333.3 566.7 333.3M200.0 700.0C200.0 700.0 200.0 333.3 200.0 333.3C200.0 333.3 233.3 266.7 233.3 266.7C233.3 266.7 300.0 233.3 300.0 233.3M566.7 700.0C566.7 700.0 566.7 -0.0 566.7 -0.0M600.0 700.0C600.0 700.0 600.0 -0.0 600.0 -0.0M66.7 700.0C66.7 700.0 300.0 700.0 300.0 700.0M466.7 700.0C466.7 700.0 700.0 700.0 700.0 700.0M466.7 -0.0C466.7 -0.0 700.0 -0.0 700.0 -0.0" glyph-name="ч" horiz-adv-x="766.7" unicode="ч"/><glyph d="M166.7 466.7C166.7 466.7 166.7 -0.0 166.7 -0.0M200.0 466.7C200.0 466.7 200.0 -0.0 200.0 -0.0M66.7 466.7C66.7 466.7 300.0 466.7 300.0 466.7M200.0 233.3C200.0 233.3 333.3 233.3 333.3 233.3C333.3 233.3 433.3 200.0 433.3 200.0C433.3 200.0 466.7 133.3 466.7 133.3C466.7 133.3 466.7 100.0 466.7 100.0C466.7 100.0 433.3 33.3 433.3 33.3C433.3 33.3 333.3 -0.0 333.3 -0.0C333.3 -0.0 66.7 -0.0 66.7 -0.0M333.3 233.3C333.3 233.3 400.0 200.0 400.0 200.0C400.0 200.0 433.3 133.3 433.3 133.3C433.3 133.3 433.3 100.0 433.3 100.0C433.3 100.0 400.0 33.3 400.0 33.3C400.0 33.3 333.3 -0.0 333.3 -0.0M666.7 466.7C666.7 466.7 666.7 -0.0 666.7 -0.0M700.0 466.7C700.0 466.7 700.0 -0.0 700.0 -0.0M566.7 466.7C566.7 466.7 800.0 466.7 800.0 466.7M566.7 -0.0C566.7 -0.0 800.0 -0.0 800.0 -0.0" glyph-name="ы" horiz-adv-x="866.7" unicode="ы"/><glyph d="M500.0 466.7C500.0 466.7 500.0 -0.0 500.0 -0.0M533.3 466.7C533.3 466.7 533.3 -0.0 533.3 -0.0M633.3 466.7C633.3 466.7 266.7 466.7 266.7 466.7C266.7 466.7 166.7 433.3 166.7 433.3C166.7 433.3 133.3 366.7 133.3 366.7C133.3 366.7 133.3 333.3 133.3 333.3C133.3 333.3 166.7 266.7 166.7 266.7C166.7 266.7 266.7 233.3 266.7 233.3C266.7 233.3 500.0 233.3 500.0 233.3M266.7 466.7C266.7 466.7 200.0 433.3 200.0 433.3C200.0 433.3 166.7 366.7 166.7 366.7C166.7 366.7 166.7 333.3 166.7 333.3C166.7 333.3 200.0 266.7 200.0 266.7C200.0 266.7 266.7 233.3 266.7 233.3M433.3 233.3C433.3 233.3 333.3 200.0 333.3 200.0C333.3 200.0 300.0 166.7 300.0 166.7C300.0 166.7 233.3 33.3 233.3 33.3C233.3 33.3 200.0 -0.0 200.0 -0.0M433.3 233.3C433.3 233.3 366.7 200.0 366.7 200.0C366.7 200.0 333.3 166.7 333.3 166.7C333.3 166.7 266.7 33.3 266.7 33.3C266.7 33.3 233.3 -0.0 233.3 -0.0C233.3 -0.0 166.7 -0.0 166.7 -0.0C166.7 -0.0 133.3 33.3 133.3 33.3C133.3 33.3 100.0 100.0 100.0 100.0M400.0 -0.0C400.0 -0.0 633.3 -0.0 633.3 -0.0" glyph-name="я" horiz-adv-x="700.0" unicode="я"/><glyph d="M133.3 700.0C133.3 700.0 100.0 466.7 100.0 466.7M166.7 700.0C166.7 700.0 100.0 466.7 100.0 466.7M400.0 700.0C400.0 700.0 366.7 466.7 366.7 466.7M433.3 700.0C433.3 700.0 366.7 466.7 366.7 466.7" glyph-name="&quot;" horiz-adv-x="533.3" unicode="&quot;"/><glyph d="M166.7 700.0C166.7 700.0 166.7 -0.0 166.7 -0.0M200.0 700.0C200.0 700.0 200.0 -0.0 200.0 -0.0M600.0 700.0C600.0 700.0 600.0 -0.0 600.0 -0.0M633.3 700.0C633.3 700.0 633.3 -0.0 633.3 -0.0M66.7 700.0C66.7 700.0 300.0 700.0 300.0 700.0M500.0 700.0C500.0 700.0 733.3 700.0 733.3 700.0M66.7 -0.0C66.7 -0.0 733.3 -0.0 733.3 -0.0M700.0 -0.0C700.0 -0.0 733.3 -233.3 733.3 -233.3M733.3 -0.0C733.3 -0.0 733.3 -233.3 733.3 -233.3" glyph-name="Ц" horiz-adv-x="800.0" unicode="Ц"/><glyph d="M100.0 700.0C100.0 700.0 100.0 500.0 100.0 500.0M100.0 566.7C100.0 566.7 133.3 633.3 133.3 633.3C133.3 633.3 200.0 700.0 200.0 700.0C200.0 700.0 266.7 700.0 266.7 700.0C266.7 700.0 433.3 600.0 433.3 600.0C433.3 600.0 500.0 600.0 500.0 600.0C500.0 600.0 533.3 633.3 533.3 633.3C533.3 633.3 566.7 700.0 566.7 700.0M133.3 633.3C133.3 633.3 200.0 666.7 200.0 666.7C200.0 666.7 266.7 666.7 266.7 666.7C266.7 666.7 433.3 600.0 433.3 600.0M566.7 700.0C566.7 700.0 566.7 600.0 566.7 600.0C566.7 600.0 533.3 500.0 533.3 500.0C533.3 500.0 400.0 333.3 400.0 333.3C400.0 333.3 366.7 266.7 366.7 266.7C366.7 266.7 333.3 166.7 333.3 166.7C333.3 166.7 333.3 -0.0 333.3 -0.0M533.3 500.0C533.3 500.0 366.7 333.3 366.7 333.3C366.7 333.3 333.3 266.7 333.3 266.7C333.3 266.7 300.0 166.7 300.0 166.7C300.0 166.7 300.0 -0.0 300.0 -0.0" glyph-name="7" horiz-adv-x="666.7" unicode="7"/><glyph d="M166.7 700.0C166.7 700.0 166.7 -0.0 166.7 -0.0M200.0 700.0C200.0 700.0 200.0 -0.0 200.0 -0.0M533.3 700.0C533.3 700.0 533.3 -0.0 533.3 -0.0M566.7 700.0C566.7 700.0 566.7 -0.0 566.7 -0.0M900.0 700.0C900.0 700.0 900.0 -0.0 900.0 -0.0M933.3 700.0C933.3 700.0 933.3 -0.0 933.3 -0.0M66.7 700.0C66.7 700.0 300.0 700.0 300.0 700.0M433.3 700.0C433.3 700.0 666.7 700.0 666.7 700.0M800.0 700.0C800.0 700.0 1033.3 700.0 1033.3 700.0M66.7 -0.0C66.7 -0.0 1033.3 -0.0 1033.3 -0.0" glyph-name="Ш" horiz-adv-x="1100.0" unicode="Ш"/><glyph d="M100.0 200.0C100.0 200.0 100.0 266.7 100.0 266.7C100.0 266.7 133.3 366.7 133.3 366.7C133.3 366.7 200.0 400.0 200.0 400.0C200.0 400.0 266.7 400.0 266.7 400.0C266.7 400.0 333.3 366.7 333.3 366.7C333.3 366.7 466.7 266.7 466.7 266.7C466.7 266.7 533.3 233.3 533.3 233.3C533.3 233.3 600.0 233.3 600.0 233.3C600.0 233.3 666.7 266.7 666.7 266.7C666.7 266.7 700.0 333.3 700.0 333.3M100.0 266.7C100.0 266.7 133.3 333.3 133.3 333.3C133.3 333.3 200.0 366.7 200.0 366.7C200.0 366.7 266.7 366.7 266.7 366.7C266.7 366.7 333.3 333.3 333.3 333.3C333.3 333.3 466.7 233.3 466.7 233.3C466.7 233.3 533.3 200.0 533.3 200.0C533.3 200.0 600.0 200.0 600.0 200.0C600.0 200.0 666.7 233.3 666.7 233.3C666.7 233.3 700.0 333.3 700.0 333.3C700.0 333.3 700.0 400.0 700.0 400.0" glyph-name="" horiz-adv-x="800.0" unicode=""/><glyph d="M266.7 500.0C266.7 500.0 266.7 100.0 266.7 100.0M100.0 400.0C100.0 400.0 433.3 200.0 433.3 200.0M433.3 400.0C433.3 400.0 100.0 200.0 100.0 200.0" glyph-name="*" horiz-adv-x="533.3" unicode="*"/><glyph d="M166.7 700.0C166.7 700.0 166.7 -0.0 166.7 -0.0M200.0 700.0C200.0 700.0 200.0 -0.0 200.0 -0.0M66.7 700.0C66.7 700.0 300.0 700.0 300.0 700.0M200.0 366.7C200.0 366.7 433.3 366.7 433.3 366.7C433.3 366.7 533.3 333.3 533.3 333.3C533.3 333.3 566.7 300.0 566.7 300.0C566.7 300.0 600.0 233.3 600.0 233.3C600.0 233.3 600.0 133.3 600.0 133.3C600.0 133.3 566.7 66.7 566.7 66.7C566.7 66.7 533.3 33.3 533.3 33.3C533.3 33.3 433.3 -0.0 433.3 -0.0C433.3 -0.0 66.7 -0.0 66.7 -0.0M433.3 366.7C433.3 366.7 500.0 333.3 500.0 333.3C500.0 333.3 533.3 300.0 533.3 300.0C533.3 300.0 566.7 233.3 566.7 233.3C566.7 233.3 566.7 133.3 566.7 133.3C566.7 133.3 533.3 66.7 533.3 66.7C533.3 66.7 500.0 33.3 500.0 33.3C500.0 33.3 433.3 -0.0 433.3 -0.0" glyph-name="Ь" horiz-adv-x="700.0" unicode="Ь"/><glyph d="M166.7 700.0C166.7 700.0 166.7 -0.0 166.7 -0.0M200.0 700.0C200.0 700.0 200.0 -0.0 200.0 -0.0M66.7 700.0C66.7 700.0 466.7 700.0 466.7 700.0C466.7 700.0 566.7 666.7 566.7 666.7C566.7 666.7 600.0 633.3 600.0 633.3C600.0 633.3 633.3 566.7 633.3 566.7C633.3 566.7 633.3 500.0 633.3 500.0C633.3 500.0 600.0 433.3 600.0 433.3C600.0 433.3 566.7 400.0 566.7 400.0C566.7 400.0 466.7 366.7 466.7 366.7M466.7 700.0C466.7 700.0 533.3 666.7 533.3 666.7C533.3 666.7 566.7 633.3 566.7 633.3C566.7 633.3 600.0 566.7 600.0 566.7C600.0 566.7 600.0 500.0 600.0 500.0C600.0 500.0 566.7 433.3 566.7 433.3C566.7 433.3 533.3 400.0 533.3 400.0C533.3 400.0 466.7 366.7 466.7 366.7M200.0 366.7C200.0 366.7 466.7 366.7 466.7 366.7C466.7 366.7 566.7 333.3 566.7 333.3C566.7 333.3 600.0 300.0 600.0 300.0C600.0 300.0 633.3 233.3 633.3 233.3C633.3 233.3 633.3 133.3 633.3 133.3C633.3 133.3 600.0 66.7 600.0 66.7C600.0 66.7 566.7 33.3 566.7 33.3C566.7 33.3 466.7 -0.0 466.7 -0.0C466.7 -0.0 66.7 -0.0 66.7 -0.0M466.7 366.7C466.7 366.7 533.3 333.3 533.3 333.3C533.3 333.3 566.7 300.0 566.7 300.0C566.7 300.0 600.0 233.3 600.0 233.3C600.0 233.3 600.0 133.3 600.0 133.3C600.0 133.3 566.7 66.7 566.7 66.7C566.7 66.7 533.3 33.3 533.3 33.3C533.3 33.3 466.7 -0.0 466.7 -0.0" glyph-name="В" horiz-adv-x="733.3" unicode="В"/><glyph d="M500.0 700.0C500.0 700.0 500.0 -0.0 500.0 -0.0M533.3 700.0C533.3 700.0 533.3 -0.0 533.3 -0.0M400.0 700.0C400.0 700.0 633.3 700.0 633.3 700.0M133.3 666.7C133.3 666.7 166.7 633.3 166.7 633.3C166.7 633.3 133.3 600.0 133.3 600.0C133.3 600.0 100.0 633.3 100.0 633.3C100.0 633.3 100.0 666.7 100.0 666.7C100.0 666.7 133.3 700.0 133.3 700.0C133.3 700.0 166.7 700.0 166.7 700.0C166.7 700.0 200.0 666.7 200.0 666.7C200.0 666.7 233.3 600.0 233.3 600.0C233.3 600.0 266.7 466.7 266.7 466.7C266.7 466.7 300.0 400.0 300.0 400.0C300.0 400.0 366.7 366.7 366.7 366.7C366.7 366.7 666.7 366.7 666.7 366.7C666.7 366.7 733.3 400.0 733.3 400.0C733.3 400.0 766.7 466.7 766.7 466.7C766.7 466.7 800.0 600.0 800.0 600.0C800.0 600.0 833.3 666.7 833.3 666.7C833.3 666.7 866.7 700.0 866.7 700.0C866.7 700.0 900.0 700.0 900.0 700.0C900.0 700.0 933.3 666.7 933.3 666.7C933.3 666.7 933.3 633.3 933.3 633.3C933.3 633.3 900.0 600.0 900.0 600.0C900.0 600.0 866.7 633.3 866.7 633.3C866.7 633.3 900.0 666.7 900.0 666.7M366.7 366.7C366.7 366.7 300.0 333.3 300.0 333.3C300.0 333.3 266.7 266.7 266.7 266.7C266.7 266.7 233.3 100.0 233.3 100.0C233.3 100.0 200.0 33.3 200.0 33.3C200.0 33.3 166.7 -0.0 166.7 -0.0M366.7 366.7C366.7 366.7 333.3 333.3 333.3 333.3C333.3 333.3 300.0 266.7 300.0 266.7C300.0 266.7 266.7 100.0 266.7 100.0C266.7 100.0 233.3 33.3 233.3 33.3C233.3 33.3 200.0 -0.0 200.0 -0.0C200.0 -0.0 133.3 -0.0 133.3 -0.0C133.3 -0.0 100.0 33.3 100.0 33.3C100.0 33.3 66.7 100.0 66.7 100.0M666.7 366.7C666.7 366.7 733.3 333.3 733.3 333.3C733.3 333.3 766.7 266.7 766.7 266.7C766.7 266.7 800.0 100.0 800.0 100.0C800.0 100.0 833.3 33.3 833.3 33.3C833.3 33.3 866.7 -0.0 866.7 -0.0M666.7 366.7C666.7 366.7 700.0 333.3 700.0 333.3C700.0 333.3 733.3 266.7 733.3 266.7C733.3 266.7 766.7 100.0 766.7 100.0C766.7 100.0 800.0 33.3 800.0 33.3C800.0 33.3 833.3 -0.0 833.3 -0.0C833.3 -0.0 900.0 -0.0 900.0 -0.0C900.0 -0.0 933.3 33.3 933.3 33.3C933.3 33.3 966.7 100.0 966.7 100.0M400.0 -0.0C400.0 -0.0 633.3 -0.0 633.3 -0.0" glyph-name="Ж" horiz-adv-x="1033.3" unicode="Ж"/><glyph d="M166.7 700.0C166.7 700.0 166.7 -0.0 166.7 -0.0M200.0 700.0C200.0 700.0 200.0 -0.0 200.0 -0.0M66.7 700.0C66.7 700.0 300.0 700.0 300.0 700.0M200.0 366.7C200.0 366.7 433.3 366.7 433.3 366.7C433.3 366.7 500.0 400.0 500.0 400.0C500.0 400.0 533.3 466.7 533.3 466.7C533.3 466.7 566.7 600.0 566.7 600.0C566.7 600.0 600.0 666.7 600.0 666.7C600.0 666.7 633.3 700.0 633.3 700.0C633.3 700.0 666.7 700.0 666.7 700.0C666.7 700.0 700.0 666.7 700.0 666.7C700.0 666.7 700.0 633.3 700.0 633.3C700.0 633.3 666.7 600.0 666.7 600.0C666.7 600.0 633.3 633.3 633.3 633.3C633.3 633.3 666.7 666.7 666.7 666.7M433.3 366.7C433.3 366.7 500.0 333.3 500.0 333.3C500.0 333.3 533.3 266.7 533.3 266.7C533.3 266.7 566.7 100.0 566.7 100.0C566.7 100.0 600.0 33.3 600.0 33.3C600.0 33.3 633.3 -0.0 633.3 -0.0M433.3 366.7C433.3 366.7 466.7 333.3 466.7 333.3C466.7 333.3 500.0 266.7 500.0 266.7C500.0 266.7 533.3 100.0 533.3 100.0C533.3 100.0 566.7 33.3 566.7 33.3C566.7 33.3 600.0 -0.0 600.0 -0.0C600.0 -0.0 666.7 -0.0 666.7 -0.0C666.7 -0.0 700.0 33.3 700.0 33.3C700.0 33.3 733.3 100.0 733.3 100.0M66.7 -0.0C66.7 -0.0 300.0 -0.0 300.0 -0.0" glyph-name="К" horiz-adv-x="800.0" unicode="К"/><glyph d="M333.3 700.0C333.3 700.0 233.3 666.7 233.3 666.7C233.3 666.7 166.7 600.0 166.7 600.0C166.7 600.0 133.3 533.3 133.3 533.3C133.3 533.3 100.0 400.0 100.0 400.0C100.0 400.0 100.0 300.0 100.0 300.0C100.0 300.0 133.3 166.7 133.3 166.7C133.3 166.7 166.7 100.0 166.7 100.0C166.7 100.0 233.3 33.3 233.3 33.3C233.3 33.3 333.3 -0.0 333.3 -0.0C333.3 -0.0 400.0 -0.0 400.0 -0.0C400.0 -0.0 500.0 33.3 500.0 33.3C500.0 33.3 566.7 100.0 566.7 100.0C566.7 100.0 600.0 166.7 600.0 166.7C600.0 166.7 633.3 300.0 633.3 300.0C633.3 300.0 633.3 400.0 633.3 400.0C633.3 400.0 600.0 533.3 600.0 533.3C600.0 533.3 566.7 600.0 566.7 600.0C566.7 600.0 500.0 666.7 500.0 666.7C500.0 666.7 400.0 700.0 400.0 700.0C400.0 700.0 333.3 700.0 333.3 700.0M333.3 700.0C333.3 700.0 266.7 666.7 266.7 666.7C266.7 666.7 200.0 600.0 200.0 600.0C200.0 600.0 166.7 533.3 166.7 533.3C166.7 533.3 133.3 400.0 133.3 400.0C133.3 400.0 133.3 300.0 133.3 300.0C133.3 300.0 166.7 166.7 166.7 166.7C166.7 166.7 200.0 100.0 200.0 100.0C200.0 100.0 266.7 33.3 266.7 33.3C266.7 33.3 333.3 -0.0 333.3 -0.0M400.0 -0.0C400.0 -0.0 466.7 33.3 466.7 33.3C466.7 33.3 533.3 100.0 533.3 100.0C533.3 100.0 566.7 166.7 566.7 166.7C566.7 166.7 600.0 300.0 600.0 300.0C600.0 300.0 600.0 400.0 600.0 400.0C600.0 400.0 566.7 533.3 566.7 533.3C566.7 533.3 533.3 600.0 533.3 600.0C533.3 600.0 466.7 666.7 466.7 666.7C466.7 666.7 400.0 700.0 400.0 700.0" glyph-name="О" horiz-adv-x="733.3" unicode="О"/><glyph d="M300.0 700.0C300.0 700.0 300.0 -0.0 300.0 -0.0M333.3 700.0C333.3 700.0 333.3 -0.0 333.3 -0.0M100.0 700.0C100.0 700.0 66.7 500.0 66.7 500.0C66.7 500.0 66.7 700.0 66.7 700.0C66.7 700.0 566.7 700.0 566.7 700.0C566.7 700.0 566.7 500.0 566.7 500.0C566.7 500.0 533.3 700.0 533.3 700.0M200.0 -0.0C200.0 -0.0 433.3 -0.0 433.3 -0.0" glyph-name="Т" horiz-adv-x="633.3" unicode="Т"/><glyph d="M300.0 700.0C300.0 700.0 200.0 666.7 200.0 666.7C200.0 666.7 133.3 566.7 133.3 566.7C133.3 566.7 100.0 400.0 100.0 400.0C100.0 400.0 100.0 300.0 100.0 300.0C100.0 300.0 133.3 133.3 133.3 133.3C133.3 133.3 200.0 33.3 200.0 33.3C200.0 33.3 300.0 -0.0 300.0 -0.0C300.0 -0.0 366.7 -0.0 366.7 -0.0C366.7 -0.0 466.7 33.3 466.7 33.3C466.7 33.3 533.3 133.3 533.3 133.3C533.3 133.3 566.7 300.0 566.7 300.0C566.7 300.0 566.7 400.0 566.7 400.0C566.7 400.0 533.3 566.7 533.3 566.7C533.3 566.7 466.7 666.7 466.7 666.7C466.7 666.7 366.7 700.0 366.7 700.0C366.7 700.0 300.0 700.0 300.0 700.0M300.0 700.0C300.0 700.0 233.3 666.7 233.3 666.7C233.3 666.7 200.0 633.3 200.0 633.3C200.0 633.3 166.7 566.7 166.7 566.7C166.7 566.7 133.3 400.0 133.3 400.0C133.3 400.0 133.3 300.0 133.3 300.0C133.3 300.0 166.7 133.3 166.7 133.3C166.7 133.3 200.0 66.7 200.0 66.7C200.0 66.7 233.3 33.3 233.3 33.3C233.3 33.3 300.0 -0.0 300.0 -0.0M366.7 -0.0C366.7 -0.0 433.3 33.3 433.3 33.3C433.3 33.3 466.7 66.7 466.7 66.7C466.7 66.7 500.0 133.3 500.0 133.3C500.0 133.3 533.3 300.0 533.3 300.0C533.3 300.0 533.3 400.0 533.3 400.0C533.3 400.0 500.0 566.7 500.0 566.7C500.0 566.7 466.7 633.3 466.7 633.3C466.7 633.3 433.3 666.7 433.3 666.7C433.3 666.7 366.7 700.0 366.7 700.0" glyph-name="0" horiz-adv-x="666.7" unicode="0"/><glyph d="M333.3 700.0C333.3 700.0 333.3 -0.0 333.3 -0.0M366.7 700.0C366.7 700.0 366.7 -0.0 366.7 -0.0M100.0 700.0C100.0 700.0 66.7 500.0 66.7 500.0C66.7 500.0 66.7 700.0 66.7 700.0C66.7 700.0 466.7 700.0 466.7 700.0M366.7 366.7C366.7 366.7 600.0 366.7 600.0 366.7C600.0 366.7 700.0 333.3 700.0 333.3C700.0 333.3 733.3 300.0 733.3 300.0C733.3 300.0 766.7 233.3 766.7 233.3C766.7 233.3 766.7 133.3 766.7 133.3C766.7 133.3 733.3 66.7 733.3 66.7C733.3 66.7 700.0 33.3 700.0 33.3C700.0 33.3 600.0 -0.0 600.0 -0.0C600.0 -0.0 233.3 -0.0 233.3 -0.0M600.0 366.7C600.0 366.7 666.7 333.3 666.7 333.3C666.7 333.3 700.0 300.0 700.0 300.0C700.0 300.0 733.3 233.3 733.3 233.3C733.3 233.3 733.3 133.3 733.3 133.3C733.3 133.3 700.0 66.7 700.0 66.7C700.0 66.7 666.7 33.3 666.7 33.3C666.7 33.3 600.0 -0.0 600.0 -0.0" glyph-name="Ъ" horiz-adv-x="866.7" unicode="Ъ"/><glyph d="M133.3 166.7C133.3 166.7 100.0 133.3 100.0 133.3C100.0 133.3 133.3 100.0 133.3 100.0C133.3 100.0 166.7 133.3 166.7 133.3C166.7 133.3 133.3 166.7 133.3 166.7" glyph-name="." horiz-adv-x="266.7" unicode="."/><glyph d="M166.7 466.7C166.7 466.7 166.7 -0.0 166.7 -0.0M200.0 466.7C200.0 466.7 200.0 -0.0 200.0 -0.0M66.7 466.7C66.7 466.7 433.3 466.7 433.3 466.7C433.3 466.7 533.3 433.3 533.3 433.3C533.3 433.3 566.7 366.7 566.7 366.7C566.7 366.7 566.7 333.3 566.7 333.3C566.7 333.3 533.3 266.7 533.3 266.7C533.3 266.7 433.3 233.3 433.3 233.3M433.3 466.7C433.3 466.7 500.0 433.3 500.0 433.3C500.0 433.3 533.3 366.7 533.3 366.7C533.3 366.7 533.3 333.3 533.3 333.3C533.3 333.3 500.0 266.7 500.0 266.7C500.0 266.7 433.3 233.3 433.3 233.3M200.0 233.3C200.0 233.3 433.3 233.3 433.3 233.3C433.3 233.3 533.3 200.0 533.3 200.0C533.3 200.0 566.7 133.3 566.7 133.3C566.7 133.3 566.7 100.0 566.7 100.0C566.7 100.0 533.3 33.3 533.3 33.3C533.3 33.3 433.3 -0.0 433.3 -0.0C433.3 -0.0 66.7 -0.0 66.7 -0.0M433.3 233.3C433.3 233.3 500.0 200.0 500.0 200.0C500.0 200.0 533.3 133.3 533.3 133.3C533.3 133.3 533.3 100.0 533.3 100.0C533.3 100.0 500.0 33.3 500.0 33.3C500.0 33.3 433.3 -0.0 433.3 -0.0" glyph-name="в" horiz-adv-x="666.7" unicode="в"/><glyph d="M166.7 466.7C166.7 466.7 166.7 -0.0 166.7 -0.0M200.0 466.7C200.0 466.7 200.0 -0.0 200.0 -0.0M533.3 466.7C533.3 466.7 533.3 -0.0 533.3 -0.0M566.7 466.7C566.7 466.7 566.7 -0.0 566.7 -0.0M66.7 466.7C66.7 466.7 300.0 466.7 300.0 466.7M433.3 466.7C433.3 466.7 666.7 466.7 666.7 466.7M66.7 -0.0C66.7 -0.0 300.0 -0.0 300.0 -0.0M433.3 -0.0C433.3 -0.0 666.7 -0.0 666.7 -0.0M533.3 433.3C533.3 433.3 200.0 33.3 200.0 33.3" glyph-name="и" horiz-adv-x="733.3" unicode="и"/><glyph d="M500.0 600.0C500.0 600.0 466.7 566.7 466.7 566.7C466.7 566.7 500.0 533.3 500.0 533.3C500.0 533.3 533.3 566.7 533.3 566.7C533.3 566.7 533.3 600.0 533.3 600.0C533.3 600.0 500.0 666.7 500.0 666.7C500.0 666.7 433.3 700.0 433.3 700.0C433.3 700.0 333.3 700.0 333.3 700.0C333.3 700.0 233.3 666.7 233.3 666.7C233.3 666.7 166.7 600.0 166.7 600.0C166.7 600.0 133.3 533.3 133.3 533.3C133.3 533.3 100.0 400.0 100.0 400.0C100.0 400.0 100.0 200.0 100.0 200.0C100.0 200.0 133.3 100.0 133.3 100.0C133.3 100.0 200.0 33.3 200.0 33.3C200.0 33.3 300.0 -0.0 300.0 -0.0C300.0 -0.0 366.7 -0.0 366.7 -0.0C366.7 -0.0 466.7 33.3 466.7 33.3C466.7 33.3 533.3 100.0 533.3 100.0C533.3 100.0 566.7 200.0 566.7 200.0C566.7 200.0 566.7 233.3 566.7 233.3C566.7 233.3 533.3 333.3 533.3 333.3C533.3 333.3 466.7 400.0 466.7 400.0C466.7 400.0 366.7 433.3 366.7 433.3C366.7 433.3 333.3 433.3 333.3 433.3C333.3 433.3 233.3 400.0 233.3 400.0C233.3 400.0 166.7 333.3 166.7 333.3C166.7 333.3 133.3 233.3 133.3 233.3M333.3 700.0C333.3 700.0 266.7 666.7 266.7 666.7C266.7 666.7 200.0 600.0 200.0 600.0C200.0 600.0 166.7 533.3 166.7 533.3C166.7 533.3 133.3 400.0 133.3 400.0C133.3 400.0 133.3 200.0 133.3 200.0C133.3 200.0 166.7 100.0 166.7 100.0C166.7 100.0 233.3 33.3 233.3 33.3C233.3 33.3 300.0 -0.0 300.0 -0.0M366.7 -0.0C366.7 -0.0 433.3 33.3 433.3 33.3C433.3 33.3 500.0 100.0 500.0 100.0C500.0 100.0 533.3 200.0 533.3 200.0C533.3 200.0 533.3 233.3 533.3 233.3C533.3 233.3 500.0 333.3 500.0 333.3C500.0 333.3 433.3 400.0 433.3 400.0C433.3 400.0 366.7 433.3 366.7 433.3" glyph-name="6" horiz-adv-x="666.7" unicode="6"/><glyph d="M133.3 400.0C133.3 400.0 100.0 366.7 100.0 366.7C100.0 366.7 133.3 333.3 133.3 333.3C133.3 333.3 166.7 366.7 166.7 366.7C166.7 366.7 133.3 400.0 133.3 400.0M133.3 166.7C133.3 166.7 100.0 133.3 100.0 133.3C100.0 133.3 133.3 100.0 133.3 100.0C133.3 100.0 166.7 133.3 166.7 133.3C166.7 133.3 133.3 166.7 133.3 166.7" glyph-name=":" horiz-adv-x="266.7" unicode=":"/><glyph d="M400.0 633.3C400.0 633.3 400.0 -0.0 400.0 -0.0M433.3 700.0C433.3 700.0 433.3 -0.0 433.3 -0.0M433.3 700.0C433.3 700.0 66.7 200.0 66.7 200.0C66.7 200.0 600.0 200.0 600.0 200.0M300.0 -0.0C300.0 -0.0 533.3 -0.0 533.3 -0.0" glyph-name="4" horiz-adv-x="666.7" unicode="4"/><glyph d="M300.0 466.7C300.0 466.7 300.0 -0.0 300.0 -0.0M333.3 466.7C333.3 466.7 333.3 -0.0 333.3 -0.0M133.3 466.7C133.3 466.7 100.0 300.0 100.0 300.0C100.0 300.0 100.0 466.7 100.0 466.7C100.0 466.7 533.3 466.7 533.3 466.7C533.3 466.7 533.3 300.0 533.3 300.0C533.3 300.0 500.0 466.7 500.0 466.7M200.0 -0.0C200.0 -0.0 433.3 -0.0 433.3 -0.0" glyph-name="т" horiz-adv-x="633.3" unicode="т"/><glyph d="M166.7 466.7C166.7 466.7 166.7 -0.0 166.7 -0.0M200.0 466.7C200.0 466.7 200.0 -0.0 200.0 -0.0M533.3 466.7C533.3 466.7 533.3 -0.0 533.3 -0.0M566.7 466.7C566.7 466.7 566.7 -0.0 566.7 -0.0M66.7 466.7C66.7 466.7 300.0 466.7 300.0 466.7M433.3 466.7C433.3 466.7 666.7 466.7 666.7 466.7M66.7 -0.0C66.7 -0.0 666.7 -0.0 666.7 -0.0C666.7 -0.0 666.7 -166.7 666.7 -166.7C666.7 -166.7 633.3 -0.0 633.3 -0.0" glyph-name="ц" horiz-adv-x="733.3" unicode="ц"/><glyph d="M433.3 466.7C433.3 466.7 433.3 -0.0 433.3 -0.0M466.7 466.7C466.7 466.7 466.7 -0.0 466.7 -0.0M333.3 466.7C333.3 466.7 566.7 466.7 566.7 466.7M166.7 433.3C166.7 433.3 133.3 400.0 133.3 400.0C133.3 400.0 100.0 433.3 100.0 433.3C100.0 433.3 133.3 466.7 133.3 466.7C133.3 466.7 166.7 466.7 166.7 466.7C166.7 466.7 200.0 433.3 200.0 433.3C200.0 433.3 266.7 300.0 266.7 300.0C266.7 300.0 300.0 266.7 300.0 266.7C300.0 266.7 366.7 233.3 366.7 233.3C366.7 233.3 533.3 233.3 533.3 233.3C533.3 233.3 600.0 266.7 600.0 266.7C600.0 266.7 633.3 300.0 633.3 300.0C633.3 300.0 700.0 433.3 700.0 433.3C700.0 433.3 733.3 466.7 733.3 466.7C733.3 466.7 766.7 466.7 766.7 466.7C766.7 466.7 800.0 433.3 800.0 433.3C800.0 433.3 766.7 400.0 766.7 400.0C766.7 400.0 733.3 433.3 733.3 433.3M366.7 233.3C366.7 233.3 300.0 200.0 300.0 200.0C300.0 200.0 266.7 166.7 266.7 166.7C266.7 166.7 200.0 33.3 200.0 33.3C200.0 33.3 166.7 -0.0 166.7 -0.0M366.7 233.3C366.7 233.3 300.0 166.7 300.0 166.7C300.0 166.7 233.3 33.3 233.3 33.3C233.3 33.3 200.0 -0.0 200.0 -0.0C200.0 -0.0 133.3 -0.0 133.3 -0.0C133.3 -0.0 100.0 33.3 100.0 33.3C100.0 33.3 66.7 100.0 66.7 100.0M533.3 233.3C533.3 233.3 600.0 200.0 600.0 200.0C600.0 200.0 633.3 166.7 633.3 166.7C633.3 166.7 700.0 33.3 700.0 33.3C700.0 33.3 733.3 -0.0 733.3 -0.0M533.3 233.3C533.3 233.3 600.0 166.7 600.0 166.7C600.0 166.7 666.7 33.3 666.7 33.3C666.7 33.3 700.0 -0.0 700.0 -0.0C700.0 -0.0 766.7 -0.0 766.7 -0.0C766.7 -0.0 800.0 33.3 800.0 33.3C800.0 33.3 833.3 100.0 833.3 100.0M333.3 -0.0C333.3 -0.0 566.7 -0.0 566.7 -0.0" glyph-name="ж" horiz-adv-x="900.0" unicode="ж"/><glyph d="M166.7 466.7C166.7 466.7 166.7 -0.0 166.7 -0.0M200.0 466.7C200.0 466.7 200.0 -0.0 200.0 -0.0M66.7 466.7C66.7 466.7 300.0 466.7 300.0 466.7M66.7 -0.0C66.7 -0.0 300.0 -0.0 300.0 -0.0M600.0 466.7C600.0 466.7 500.0 433.3 500.0 433.3C500.0 433.3 433.3 366.7 433.3 366.7C433.3 366.7 400.0 266.7 400.0 266.7C400.0 266.7 400.0 200.0 400.0 200.0C400.0 200.0 433.3 100.0 433.3 100.0C433.3 100.0 500.0 33.3 500.0 33.3C500.0 33.3 600.0 -0.0 600.0 -0.0C600.0 -0.0 666.7 -0.0 666.7 -0.0C666.7 -0.0 766.7 33.3 766.7 33.3C766.7 33.3 833.3 100.0 833.3 100.0C833.3 100.0 866.7 200.0 866.7 200.0C866.7 200.0 866.7 266.7 866.7 266.7C866.7 266.7 833.3 366.7 833.3 366.7C833.3 366.7 766.7 433.3 766.7 433.3C766.7 433.3 666.7 466.7 666.7 466.7C666.7 466.7 600.0 466.7 600.0 466.7M600.0 466.7C600.0 466.7 533.3 433.3 533.3 433.3C533.3 433.3 466.7 366.7 466.7 366.7C466.7 366.7 433.3 266.7 433.3 266.7C433.3 266.7 433.3 200.0 433.3 200.0C433.3 200.0 466.7 100.0 466.7 100.0C466.7 100.0 533.3 33.3 533.3 33.3C533.3 33.3 600.0 -0.0 600.0 -0.0M666.7 -0.0C666.7 -0.0 733.3 33.3 733.3 33.3C733.3 33.3 800.0 100.0 800.0 100.0C800.0 100.0 833.3 200.0 833.3 200.0C833.3 200.0 833.3 266.7 833.3 266.7C833.3 266.7 800.0 366.7 800.0 366.7C800.0 366.7 733.3 433.3 733.3 433.3C733.3 433.3 666.7 466.7 666.7 466.7M200.0 233.3C200.0 233.3 400.0 233.3 400.0 233.3" glyph-name="ю" horiz-adv-x="966.7" unicode="ю"/><glyph d="M266.7 700.0C266.7 700.0 166.7 666.7 166.7 666.7C166.7 666.7 133.3 600.0 133.3 600.0C133.3 600.0 133.3 500.0 133.3 500.0C133.3 500.0 166.7 433.3 166.7 433.3C166.7 433.3 266.7 400.0 266.7 400.0C266.7 400.0 400.0 400.0 400.0 400.0C400.0 400.0 500.0 433.3 500.0 433.3C500.0 433.3 533.3 500.0 533.3 500.0C533.3 500.0 533.3 600.0 533.3 600.0C533.3 600.0 500.0 666.7 500.0 666.7C500.0 666.7 400.0 700.0 400.0 700.0C400.0 700.0 266.7 700.0 266.7 700.0M266.7 700.0C266.7 700.0 200.0 666.7 200.0 666.7C200.0 666.7 166.7 600.0 166.7 600.0C166.7 600.0 166.7 500.0 166.7 500.0C166.7 500.0 200.0 433.3 200.0 433.3C200.0 433.3 266.7 400.0 266.7 400.0M400.0 400.0C400.0 400.0 466.7 433.3 466.7 433.3C466.7 433.3 500.0 500.0 500.0 500.0C500.0 500.0 500.0 600.0 500.0 600.0C500.0 600.0 466.7 666.7 466.7 666.7C466.7 666.7 400.0 700.0 400.0 700.0M266.7 400.0C266.7 400.0 166.7 366.7 166.7 366.7C166.7 366.7 133.3 333.3 133.3 333.3C133.3 333.3 100.0 266.7 100.0 266.7C100.0 266.7 100.0 133.3 100.0 133.3C100.0 133.3 133.3 66.7 133.3 66.7C133.3 66.7 166.7 33.3 166.7 33.3C166.7 33.3 266.7 -0.0 266.7 -0.0C266.7 -0.0 400.0 -0.0 400.0 -0.0C400.0 -0.0 500.0 33.3 500.0 33.3C500.0 33.3 533.3 66.7 533.3 66.7C533.3 66.7 566.7 133.3 566.7 133.3C566.7 133.3 566.7 266.7 566.7 266.7C566.7 266.7 533.3 333.3 533.3 333.3C533.3 333.3 500.0 366.7 500.0 366.7C500.0 366.7 400.0 400.0 400.0 400.0M266.7 400.0C266.7 400.0 200.0 366.7 200.0 366.7C200.0 366.7 166.7 333.3 166.7 333.3C166.7 333.3 133.3 266.7 133.3 266.7C133.3 266.7 133.3 133.3 133.3 133.3C133.3 133.3 166.7 66.7 166.7 66.7C166.7 66.7 200.0 33.3 200.0 33.3C200.0 33.3 266.7 -0.0 266.7 -0.0M400.0 -0.0C400.0 -0.0 466.7 33.3 466.7 33.3C466.7 33.3 500.0 66.7 500.0 66.7C500.0 66.7 533.3 133.3 533.3 133.3C533.3 133.3 533.3 266.7 533.3 266.7C533.3 266.7 500.0 333.3 500.0 333.3C500.0 333.3 466.7 366.7 466.7 366.7C466.7 366.7 400.0 400.0 400.0 400.0" glyph-name="8" horiz-adv-x="666.7" unicode="8"/><glyph d="M166.7 466.7C166.7 466.7 166.7 -0.0 166.7 -0.0M200.0 466.7C200.0 466.7 200.0 -0.0 200.0 -0.0M66.7 466.7C66.7 466.7 300.0 466.7 300.0 466.7M200.0 233.3C200.0 233.3 266.7 233.3 266.7 233.3C266.7 233.3 366.7 266.7 366.7 266.7C366.7 266.7 400.0 300.0 400.0 300.0C400.0 300.0 466.7 433.3 466.7 433.3C466.7 433.3 500.0 466.7 500.0 466.7C500.0 466.7 533.3 466.7 533.3 466.7C533.3 466.7 566.7 433.3 566.7 433.3C566.7 433.3 533.3 400.0 533.3 400.0C533.3 400.0 500.0 433.3 500.0 433.3M266.7 233.3C266.7 233.3 366.7 200.0 366.7 200.0C366.7 200.0 400.0 166.7 400.0 166.7C400.0 166.7 466.7 33.3 466.7 33.3C466.7 33.3 500.0 -0.0 500.0 -0.0M266.7 233.3C266.7 233.3 333.3 200.0 333.3 200.0C333.3 200.0 366.7 166.7 366.7 166.7C366.7 166.7 433.3 33.3 433.3 33.3C433.3 33.3 466.7 -0.0 466.7 -0.0C466.7 -0.0 533.3 -0.0 533.3 -0.0C533.3 -0.0 566.7 33.3 566.7 33.3C566.7 33.3 600.0 100.0 600.0 100.0M66.7 -0.0C66.7 -0.0 300.0 -0.0 300.0 -0.0" glyph-name="к" horiz-adv-x="666.7" unicode="к"/><glyph d="M666.7 600.0C666.7 600.0 133.3 300.0 133.3 300.0C133.3 300.0 666.7 -0.0 666.7 -0.0" glyph-name="&lt;" horiz-adv-x="800.0" unicode="&lt;"/><glyph d="M133.3 600.0C133.3 600.0 666.7 300.0 666.7 300.0C666.7 300.0 133.3 -0.0 133.3 -0.0" glyph-name="&gt;" horiz-adv-x="800.0" unicode="&gt;"/><glyph d="M533.3 700.0C533.3 700.0 533.3 -0.0 533.3 -0.0M566.7 700.0C566.7 700.0 566.7 -0.0 566.7 -0.0M666.7 700.0C666.7 700.0 266.7 700.0 266.7 700.0C266.7 700.0 166.7 666.7 166.7 666.7C166.7 666.7 133.3 633.3 133.3 633.3C133.3 633.3 100.0 566.7 100.0 566.7C100.0 566.7 100.0 500.0 100.0 500.0C100.0 500.0 133.3 433.3 133.3 433.3C133.3 433.3 166.7 400.0 166.7 400.0C166.7 400.0 266.7 366.7 266.7 366.7C266.7 366.7 533.3 366.7 533.3 366.7M266.7 700.0C266.7 700.0 200.0 666.7 200.0 666.7C200.0 666.7 166.7 633.3 166.7 633.3C166.7 633.3 133.3 566.7 133.3 566.7C133.3 566.7 133.3 500.0 133.3 500.0C133.3 500.0 166.7 433.3 166.7 433.3C166.7 433.3 200.0 400.0 200.0 400.0C200.0 400.0 266.7 366.7 266.7 366.7M366.7 366.7C366.7 366.7 300.0 333.3 300.0 333.3C300.0 333.3 266.7 300.0 266.7 300.0C266.7 300.0 166.7 66.7 166.7 66.7C166.7 66.7 133.3 33.3 133.3 33.3C133.3 33.3 100.0 33.3 100.0 33.3C100.0 33.3 66.7 66.7 66.7 66.7M300.0 333.3C300.0 333.3 266.7 266.7 266.7 266.7C266.7 266.7 200.0 33.3 200.0 33.3C200.0 33.3 166.7 -0.0 166.7 -0.0C166.7 -0.0 100.0 -0.0 100.0 -0.0C100.0 -0.0 66.7 66.7 66.7 66.7C66.7 66.7 66.7 100.0 66.7 100.0M433.3 -0.0C433.3 -0.0 666.7 -0.0 666.7 -0.0" glyph-name="Я" horiz-adv-x="733.3" unicode="Я"/><glyph d="M166.7 466.7C166.7 466.7 166.7 -233.3 166.7 -233.3M200.0 466.7C200.0 466.7 200.0 -233.3 200.0 -233.3M200.0 366.7C200.0 366.7 266.7 433.3 266.7 433.3C266.7 433.3 333.3 466.7 333.3 466.7C333.3 466.7 400.0 466.7 400.0 466.7C400.0 466.7 500.0 433.3 500.0 433.3C500.0 433.3 566.7 366.7 566.7 366.7C566.7 366.7 600.0 266.7 600.0 266.7C600.0 266.7 600.0 200.0 600.0 200.0C600.0 200.0 566.7 100.0 566.7 100.0C566.7 100.0 500.0 33.3 500.0 33.3C500.0 33.3 400.0 -0.0 400.0 -0.0C400.0 -0.0 333.3 -0.0 333.3 -0.0C333.3 -0.0 266.7 33.3 266.7 33.3C266.7 33.3 200.0 100.0 200.0 100.0M400.0 466.7C400.0 466.7 466.7 433.3 466.7 433.3C466.7 433.3 533.3 366.7 533.3 366.7C533.3 366.7 566.7 266.7 566.7 266.7C566.7 266.7 566.7 200.0 566.7 200.0C566.7 200.0 533.3 100.0 533.3 100.0C533.3 100.0 466.7 33.3 466.7 33.3C466.7 33.3 400.0 -0.0 400.0 -0.0M66.7 466.7C66.7 466.7 200.0 466.7 200.0 466.7M66.7 -233.3C66.7 -233.3 300.0 -233.3 300.0 -233.3" glyph-name="р" horiz-adv-x="700.0" unicode="р"/><glyph d="M166.7 700.0C166.7 700.0 166.7 -0.0 166.7 -0.0M200.0 700.0C200.0 700.0 200.0 -0.0 200.0 -0.0M66.7 700.0C66.7 700.0 600.0 700.0 600.0 700.0C600.0 700.0 600.0 500.0 600.0 500.0C600.0 500.0 566.7 700.0 566.7 700.0M200.0 366.7C200.0 366.7 466.7 366.7 466.7 366.7C466.7 366.7 566.7 333.3 566.7 333.3C566.7 333.3 600.0 300.0 600.0 300.0C600.0 300.0 633.3 233.3 633.3 233.3C633.3 233.3 633.3 133.3 633.3 133.3C633.3 133.3 600.0 66.7 600.0 66.7C600.0 66.7 566.7 33.3 566.7 33.3C566.7 33.3 466.7 -0.0 466.7 -0.0C466.7 -0.0 66.7 -0.0 66.7 -0.0M466.7 366.7C466.7 366.7 533.3 333.3 533.3 333.3C533.3 333.3 566.7 300.0 566.7 300.0C566.7 300.0 600.0 233.3 600.0 233.3C600.0 233.3 600.0 133.3 600.0 133.3C600.0 133.3 566.7 66.7 566.7 66.7C566.7 66.7 533.3 33.3 533.3 33.3C533.3 33.3 466.7 -0.0 466.7 -0.0" glyph-name="Б" horiz-adv-x="733.3" unicode="Б"/><glyph d="M166.7 700.0C166.7 700.0 166.7 -0.0 166.7 -0.0M200.0 700.0C200.0 700.0 200.0 -0.0 200.0 -0.0M66.7 700.0C66.7 700.0 300.0 700.0 300.0 700.0M66.7 -0.0C66.7 -0.0 300.0 -0.0 300.0 -0.0M633.3 700.0C633.3 700.0 533.3 666.7 533.3 666.7C533.3 666.7 466.7 600.0 466.7 600.0C466.7 600.0 433.3 533.3 433.3 533.3C433.3 533.3 400.0 400.0 400.0 400.0C400.0 400.0 400.0 300.0 400.0 300.0C400.0 300.0 433.3 166.7 433.3 166.7C433.3 166.7 466.7 100.0 466.7 100.0C466.7 100.0 533.3 33.3 533.3 33.3C533.3 33.3 633.3 -0.0 633.3 -0.0C633.3 -0.0 700.0 -0.0 700.0 -0.0C700.0 -0.0 800.0 33.3 800.0 33.3C800.0 33.3 866.7 100.0 866.7 100.0C866.7 100.0 900.0 166.7 900.0 166.7C900.0 166.7 933.3 300.0 933.3 300.0C933.3 300.0 933.3 400.0 933.3 400.0C933.3 400.0 900.0 533.3 900.0 533.3C900.0 533.3 866.7 600.0 866.7 600.0C866.7 600.0 800.0 666.7 800.0 666.7C800.0 666.7 700.0 700.0 700.0 700.0C700.0 700.0 633.3 700.0 633.3 700.0M633.3 700.0C633.3 700.0 566.7 666.7 566.7 666.7C566.7 666.7 500.0 600.0 500.0 600.0C500.0 600.0 466.7 533.3 466.7 533.3C466.7 533.3 433.3 400.0 433.3 400.0C433.3 400.0 433.3 300.0 433.3 300.0C433.3 300.0 466.7 166.7 466.7 166.7C466.7 166.7 500.0 100.0 500.0 100.0C500.0 100.0 566.7 33.3 566.7 33.3C566.7 33.3 633.3 -0.0 633.3 -0.0M700.0 -0.0C700.0 -0.0 766.7 33.3 766.7 33.3C766.7 33.3 833.3 100.0 833.3 100.0C833.3 100.0 866.7 166.7 866.7 166.7C866.7 166.7 900.0 300.0 900.0 300.0C900.0 300.0 900.0 400.0 900.0 400.0C900.0 400.0 866.7 533.3 866.7 533.3C866.7 533.3 833.3 600.0 833.3 600.0C833.3 600.0 766.7 666.7 766.7 666.7C766.7 666.7 700.0 700.0 700.0 700.0M200.0 366.7C200.0 366.7 400.0 366.7 400.0 366.7" glyph-name="Ю" horiz-adv-x="1033.3" unicode="Ю"/><glyph d="M166.7 700.0C166.7 700.0 166.7 -0.0 166.7 -0.0M200.0 700.0C200.0 700.0 200.0 -0.0 200.0 -0.0M400.0 500.0C400.0 500.0 400.0 233.3 400.0 233.3M66.7 700.0C66.7 700.0 600.0 700.0 600.0 700.0C600.0 700.0 600.0 500.0 600.0 500.0C600.0 500.0 566.7 700.0 566.7 700.0M200.0 366.7C200.0 366.7 400.0 366.7 400.0 366.7M66.7 -0.0C66.7 -0.0 600.0 -0.0 600.0 -0.0C600.0 -0.0 600.0 200.0 600.0 200.0C600.0 200.0 566.7 -0.0 566.7 -0.0" glyph-name="Е" horiz-adv-x="700.0" unicode="Е"/><glyph d="M166.7 700.0C166.7 700.0 166.7 -0.0 166.7 -0.0M200.0 700.0C200.0 700.0 200.0 -0.0 200.0 -0.0M600.0 700.0C600.0 700.0 600.0 -0.0 600.0 -0.0M633.3 700.0C633.3 700.0 633.3 -0.0 633.3 -0.0M66.7 700.0C66.7 700.0 300.0 700.0 300.0 700.0M500.0 700.0C500.0 700.0 733.3 700.0 733.3 700.0M200.0 366.7C200.0 366.7 600.0 366.7 600.0 366.7M66.7 -0.0C66.7 -0.0 300.0 -0.0 300.0 -0.0M500.0 -0.0C500.0 -0.0 733.3 -0.0 733.3 -0.0" glyph-name="Н" horiz-adv-x="800.0" unicode="Н"/><glyph d="M566.7 600.0C566.7 600.0 600.0 500.0 600.0 500.0C600.0 500.0 600.0 700.0 600.0 700.0C600.0 700.0 566.7 600.0 566.7 600.0C566.7 600.0 500.0 666.7 500.0 666.7C500.0 666.7 400.0 700.0 400.0 700.0C400.0 700.0 333.3 700.0 333.3 700.0C333.3 700.0 233.3 666.7 233.3 666.7C233.3 666.7 166.7 600.0 166.7 600.0C166.7 600.0 133.3 533.3 133.3 533.3C133.3 533.3 100.0 433.3 100.0 433.3C100.0 433.3 100.0 266.7 100.0 266.7C100.0 266.7 133.3 166.7 133.3 166.7C133.3 166.7 166.7 100.0 166.7 100.0C166.7 100.0 233.3 33.3 233.3 33.3C233.3 33.3 333.3 -0.0 333.3 -0.0C333.3 -0.0 400.0 -0.0 400.0 -0.0C400.0 -0.0 500.0 33.3 500.0 33.3C500.0 33.3 566.7 100.0 566.7 100.0C566.7 100.0 600.0 166.7 600.0 166.7M333.3 700.0C333.3 700.0 266.7 666.7 266.7 666.7C266.7 666.7 200.0 600.0 200.0 600.0C200.0 600.0 166.7 533.3 166.7 533.3C166.7 533.3 133.3 433.3 133.3 433.3C133.3 433.3 133.3 266.7 133.3 266.7C133.3 266.7 166.7 166.7 166.7 166.7C166.7 166.7 200.0 100.0 200.0 100.0C200.0 100.0 266.7 33.3 266.7 33.3C266.7 33.3 333.3 -0.0 333.3 -0.0" glyph-name="С" horiz-adv-x="700.0" unicode="С"/><glyph d="M100.0 700.0C100.0 700.0 533.3 -0.0 533.3 -0.0M133.3 700.0C133.3 700.0 566.7 -0.0 566.7 -0.0M566.7 700.0C566.7 700.0 100.0 -0.0 100.0 -0.0M33.3 700.0C33.3 700.0 233.3 700.0 233.3 700.0M433.3 700.0C433.3 700.0 633.3 700.0 633.3 700.0M33.3 -0.0C33.3 -0.0 233.3 -0.0 233.3 -0.0M433.3 -0.0C433.3 -0.0 633.3 -0.0 633.3 -0.0" glyph-name="Х" horiz-adv-x="666.7" unicode="Х"/><glyph d="M100.0 833.3C100.0 833.3 166.7 766.7 166.7 766.7C166.7 766.7 233.3 666.7 233.3 666.7C233.3 666.7 300.0 533.3 300.0 533.3C300.0 533.3 333.3 366.7 333.3 366.7C333.3 366.7 333.3 233.3 333.3 233.3C333.3 233.3 300.0 66.7 300.0 66.7C300.0 66.7 233.3 -66.7 233.3 -66.7C233.3 -66.7 166.7 -166.7 166.7 -166.7C166.7 -166.7 100.0 -233.3 100.0 -233.3C100.0 -233.3 133.3 -233.3 133.3 -233.3M100.0 833.3C100.0 833.3 133.3 833.3 133.3 833.3C133.3 833.3 200.0 766.7 200.0 766.7C200.0 766.7 266.7 666.7 266.7 666.7C266.7 666.7 333.3 533.3 333.3 533.3C333.3 533.3 366.7 366.7 366.7 366.7C366.7 366.7 366.7 233.3 366.7 233.3C366.7 233.3 333.3 66.7 333.3 66.7C333.3 66.7 266.7 -66.7 266.7 -66.7C266.7 -66.7 200.0 -166.7 200.0 -166.7C200.0 -166.7 133.3 -233.3 133.3 -233.3" glyph-name=")" horiz-adv-x="466.7" unicode=")"/><glyph d="M133.3 300.0C133.3 300.0 733.3 300.0 733.3 300.0" glyph-name="-" horiz-adv-x="866.7" unicode="-"/><glyph d="M533.3 700.0C533.3 700.0 500.0 666.7 500.0 666.7C500.0 666.7 300.0 600.0 300.0 600.0C300.0 600.0 200.0 533.3 200.0 533.3C200.0 533.3 133.3 433.3 133.3 433.3C133.3 433.3 100.0 333.3 100.0 333.3C100.0 333.3 100.0 200.0 100.0 200.0C100.0 200.0 133.3 100.0 133.3 100.0C133.3 100.0 200.0 33.3 200.0 33.3C200.0 33.3 300.0 -0.0 300.0 -0.0C300.0 -0.0 366.7 -0.0 366.7 -0.0C366.7 -0.0 466.7 33.3 466.7 33.3C466.7 33.3 533.3 100.0 533.3 100.0C533.3 100.0 566.7 200.0 566.7 200.0C566.7 200.0 566.7 266.7 566.7 266.7C566.7 266.7 533.3 366.7 533.3 366.7C533.3 366.7 466.7 433.3 466.7 433.3C466.7 433.3 366.7 466.7 366.7 466.7C366.7 466.7 300.0 466.7 300.0 466.7C300.0 466.7 200.0 433.3 200.0 433.3C200.0 433.3 133.3 366.7 133.3 366.7C133.3 366.7 100.0 266.7 100.0 266.7M533.3 700.0C533.3 700.0 500.0 633.3 500.0 633.3C500.0 633.3 433.3 600.0 433.3 600.0C433.3 600.0 300.0 566.7 300.0 566.7C300.0 566.7 200.0 500.0 200.0 500.0C200.0 500.0 133.3 433.3 133.3 433.3M300.0 466.7C300.0 466.7 233.3 433.3 233.3 433.3C233.3 433.3 166.7 366.7 166.7 366.7C166.7 366.7 133.3 266.7 133.3 266.7C133.3 266.7 133.3 200.0 133.3 200.0C133.3 200.0 166.7 100.0 166.7 100.0C166.7 100.0 233.3 33.3 233.3 33.3C233.3 33.3 300.0 -0.0 300.0 -0.0M366.7 -0.0C366.7 -0.0 433.3 33.3 433.3 33.3C433.3 33.3 500.0 100.0 500.0 100.0C500.0 100.0 533.3 200.0 533.3 200.0C533.3 200.0 533.3 266.7 533.3 266.7C533.3 266.7 500.0 366.7 500.0 366.7C500.0 366.7 433.3 433.3 433.3 433.3C433.3 433.3 366.7 466.7 366.7 466.7" glyph-name="б" horiz-adv-x="666.7" unicode="б"/><glyph d="M166.7 700.0C166.7 700.0 100.0 366.7 100.0 366.7M100.0 366.7C100.0 366.7 166.7 433.3 166.7 433.3C166.7 433.3 266.7 466.7 266.7 466.7C266.7 466.7 366.7 466.7 366.7 466.7C366.7 466.7 466.7 433.3 466.7 433.3C466.7 433.3 533.3 366.7 533.3 366.7C533.3 366.7 566.7 266.7 566.7 266.7C566.7 266.7 566.7 200.0 566.7 200.0C566.7 200.0 533.3 100.0 533.3 100.0C533.3 100.0 466.7 33.3 466.7 33.3C466.7 33.3 366.7 -0.0 366.7 -0.0C366.7 -0.0 266.7 -0.0 266.7 -0.0C266.7 -0.0 166.7 33.3 166.7 33.3C166.7 33.3 133.3 66.7 133.3 66.7C133.3 66.7 100.0 133.3 100.0 133.3C100.0 133.3 100.0 166.7 100.0 166.7C100.0 166.7 133.3 200.0 133.3 200.0C133.3 200.0 166.7 166.7 166.7 166.7C166.7 166.7 133.3 133.3 133.3 133.3M366.7 466.7C366.7 466.7 433.3 433.3 433.3 433.3C433.3 433.3 500.0 366.7 500.0 366.7C500.0 366.7 533.3 266.7 533.3 266.7C533.3 266.7 533.3 200.0 533.3 200.0C533.3 200.0 500.0 100.0 500.0 100.0C500.0 100.0 433.3 33.3 433.3 33.3C433.3 33.3 366.7 -0.0 366.7 -0.0M166.7 700.0C166.7 700.0 500.0 700.0 500.0 700.0M166.7 666.7C166.7 666.7 333.3 666.7 333.3 666.7C333.3 666.7 500.0 700.0 500.0 700.0" glyph-name="5" horiz-adv-x="666.7" unicode="5"/><glyph d="M166.7 466.7C166.7 466.7 166.7 -0.0 166.7 -0.0M200.0 466.7C200.0 466.7 200.0 -0.0 200.0 -0.0M533.3 466.7C533.3 466.7 533.3 -0.0 533.3 -0.0M566.7 466.7C566.7 466.7 566.7 -0.0 566.7 -0.0M66.7 466.7C66.7 466.7 300.0 466.7 300.0 466.7M433.3 466.7C433.3 466.7 666.7 466.7 666.7 466.7M66.7 -0.0C66.7 -0.0 300.0 -0.0 300.0 -0.0M433.3 -0.0C433.3 -0.0 666.7 -0.0 666.7 -0.0M533.3 433.3C533.3 433.3 200.0 33.3 200.0 33.3M266.7 666.7C266.7 666.7 266.7 700.0 266.7 700.0C266.7 700.0 233.3 700.0 233.3 700.0C233.3 700.0 233.3 666.7 233.3 666.7C233.3 666.7 266.7 600.0 266.7 600.0C266.7 600.0 333.3 566.7 333.3 566.7C333.3 566.7 400.0 566.7 400.0 566.7C400.0 566.7 466.7 600.0 466.7 600.0C466.7 600.0 500.0 666.7 500.0 666.7" glyph-name="й" horiz-adv-x="733.3" unicode="й"/><glyph d="M166.7 466.7C166.7 466.7 166.7 -0.0 166.7 -0.0M200.0 466.7C200.0 466.7 200.0 -0.0 200.0 -0.0M533.3 466.7C533.3 466.7 533.3 -0.0 533.3 -0.0M566.7 466.7C566.7 466.7 566.7 -0.0 566.7 -0.0M66.7 466.7C66.7 466.7 300.0 466.7 300.0 466.7M433.3 466.7C433.3 466.7 666.7 466.7 666.7 466.7M200.0 233.3C200.0 233.3 533.3 233.3 533.3 233.3M66.7 -0.0C66.7 -0.0 300.0 -0.0 300.0 -0.0M433.3 -0.0C433.3 -0.0 666.7 -0.0 666.7 -0.0" glyph-name="н" horiz-adv-x="733.3" unicode="н"/><glyph d="M500.0 366.7C500.0 366.7 466.7 333.3 466.7 333.3C466.7 333.3 500.0 300.0 500.0 300.0C500.0 300.0 533.3 333.3 533.3 333.3C533.3 333.3 533.3 366.7 533.3 366.7C533.3 366.7 466.7 433.3 466.7 433.3C466.7 433.3 400.0 466.7 400.0 466.7C400.0 466.7 300.0 466.7 300.0 466.7C300.0 466.7 200.0 433.3 200.0 433.3C200.0 433.3 133.3 366.7 133.3 366.7C133.3 366.7 100.0 266.7 100.0 266.7C100.0 266.7 100.0 200.0 100.0 200.0C100.0 200.0 133.3 100.0 133.3 100.0C133.3 100.0 200.0 33.3 200.0 33.3C200.0 33.3 300.0 -0.0 300.0 -0.0C300.0 -0.0 366.7 -0.0 366.7 -0.0C366.7 -0.0 466.7 33.3 466.7 33.3C466.7 33.3 533.3 100.0 533.3 100.0M300.0 466.7C300.0 466.7 233.3 433.3 233.3 433.3C233.3 433.3 166.7 366.7 166.7 366.7C166.7 366.7 133.3 266.7 133.3 266.7C133.3 266.7 133.3 200.0 133.3 200.0C133.3 200.0 166.7 100.0 166.7 100.0C166.7 100.0 233.3 33.3 233.3 33.3C233.3 33.3 300.0 -0.0 300.0 -0.0" glyph-name="с" horiz-adv-x="633.3" unicode="с"/><glyph d="M166.7 700.0C166.7 700.0 133.3 633.3 133.3 633.3C133.3 633.3 166.7 233.3 166.7 233.3C166.7 233.3 200.0 633.3 200.0 633.3C200.0 633.3 166.7 700.0 166.7 700.0M166.7 633.3C166.7 633.3 166.7 433.3 166.7 433.3M166.7 66.7C166.7 66.7 133.3 33.3 133.3 33.3C133.3 33.3 166.7 -0.0 166.7 -0.0C166.7 -0.0 200.0 33.3 200.0 33.3C200.0 33.3 166.7 66.7 166.7 66.7" glyph-name="!" horiz-adv-x="333.3" unicode="!"/><glyph d="M300.0 466.7C300.0 466.7 300.0 -0.0 300.0 -0.0M333.3 466.7C333.3 466.7 333.3 -0.0 333.3 -0.0M133.3 466.7C133.3 466.7 100.0 300.0 100.0 300.0C100.0 300.0 100.0 466.7 100.0 466.7C100.0 466.7 433.3 466.7 433.3 466.7M333.3 233.3C333.3 233.3 466.7 233.3 466.7 233.3C466.7 233.3 566.7 200.0 566.7 200.0C566.7 200.0 600.0 133.3 600.0 133.3C600.0 133.3 600.0 100.0 600.0 100.0C600.0 100.0 566.7 33.3 566.7 33.3C566.7 33.3 466.7 -0.0 466.7 -0.0C466.7 -0.0 200.0 -0.0 200.0 -0.0M466.7 233.3C466.7 233.3 533.3 200.0 533.3 200.0C533.3 200.0 566.7 133.3 566.7 133.3C566.7 133.3 566.7 100.0 566.7 100.0C566.7 100.0 533.3 33.3 533.3 33.3C533.3 33.3 466.7 -0.0 466.7 -0.0" glyph-name="ъ" horiz-adv-x="700.0" unicode="ъ"/><glyph d="M133.3 466.7C133.3 466.7 500.0 -0.0 500.0 -0.0M166.7 466.7C166.7 466.7 533.3 -0.0 533.3 -0.0M533.3 466.7C533.3 466.7 133.3 -0.0 133.3 -0.0M66.7 466.7C66.7 466.7 266.7 466.7 266.7 466.7M400.0 466.7C400.0 466.7 600.0 466.7 600.0 466.7M66.7 -0.0C66.7 -0.0 266.7 -0.0 266.7 -0.0M400.0 -0.0C400.0 -0.0 600.0 -0.0 600.0 -0.0" glyph-name="х" horiz-adv-x="666.7" unicode="х"/><glyph d="M166.7 466.7C166.7 466.7 166.7 -0.0 166.7 -0.0M200.0 466.7C200.0 466.7 200.0 -0.0 200.0 -0.0M500.0 466.7C500.0 466.7 500.0 -0.0 500.0 -0.0M533.3 466.7C533.3 466.7 533.3 -0.0 533.3 -0.0M833.3 466.7C833.3 466.7 833.3 -0.0 833.3 -0.0M866.7 466.7C866.7 466.7 866.7 -0.0 866.7 -0.0M66.7 466.7C66.7 466.7 300.0 466.7 300.0 466.7M400.0 466.7C400.0 466.7 633.3 466.7 633.3 466.7M733.3 466.7C733.3 466.7 966.7 466.7 966.7 466.7M66.7 -0.0C66.7 -0.0 966.7 -0.0 966.7 -0.0C966.7 -0.0 966.7 -166.7 966.7 -166.7C966.7 -166.7 933.3 -0.0 933.3 -0.0" glyph-name="щ" horiz-adv-x="1033.3" unicode="щ"/><glyph d="M133.3 600.0C133.3 600.0 100.0 700.0 100.0 700.0C100.0 700.0 100.0 500.0 100.0 500.0C100.0 500.0 133.3 600.0 133.3 600.0C133.3 600.0 200.0 666.7 200.0 666.7C200.0 666.7 300.0 700.0 300.0 700.0C300.0 700.0 366.7 700.0 366.7 700.0C366.7 700.0 466.7 666.7 466.7 666.7C466.7 666.7 533.3 600.0 533.3 600.0C533.3 600.0 566.7 533.3 566.7 533.3C566.7 533.3 600.0 433.3 600.0 433.3C600.0 433.3 600.0 266.7 600.0 266.7C600.0 266.7 566.7 166.7 566.7 166.7C566.7 166.7 533.3 100.0 533.3 100.0C533.3 100.0 466.7 33.3 466.7 33.3C466.7 33.3 366.7 -0.0 366.7 -0.0C366.7 -0.0 266.7 -0.0 266.7 -0.0C266.7 -0.0 166.7 33.3 166.7 33.3C166.7 33.3 133.3 66.7 133.3 66.7C133.3 66.7 100.0 133.3 100.0 133.3C100.0 133.3 100.0 166.7 100.0 166.7C100.0 166.7 133.3 200.0 133.3 200.0C133.3 200.0 166.7 166.7 166.7 166.7C166.7 166.7 133.3 133.3 133.3 133.3M366.7 700.0C366.7 700.0 433.3 666.7 433.3 666.7C433.3 666.7 500.0 600.0 500.0 600.0C500.0 600.0 533.3 533.3 533.3 533.3C533.3 533.3 566.7 433.3 566.7 433.3C566.7 433.3 566.7 266.7 566.7 266.7C566.7 266.7 533.3 166.7 533.3 166.7C533.3 166.7 500.0 100.0 500.0 100.0C500.0 100.0 433.3 33.3 433.3 33.3C433.3 33.3 366.7 -0.0 366.7 -0.0M266.7 366.7C266.7 366.7 566.7 366.7 566.7 366.7" glyph-name="э" horiz-adv-x="700.0" unicode="э"/><glyph d="M100.0 700.0C100.0 700.0 333.3 166.7 333.3 166.7M133.3 700.0C133.3 700.0 366.7 166.7 366.7 166.7M600.0 700.0C600.0 700.0 366.7 166.7 366.7 166.7C366.7 166.7 300.0 66.7 300.0 66.7C300.0 66.7 266.7 33.3 266.7 33.3C266.7 33.3 200.0 -0.0 200.0 -0.0C200.0 -0.0 166.7 -0.0 166.7 -0.0C166.7 -0.0 133.3 33.3 133.3 33.3C133.3 33.3 133.3 66.7 133.3 66.7C133.3 66.7 166.7 100.0 166.7 100.0C166.7 100.0 200.0 66.7 200.0 66.7C200.0 66.7 166.7 33.3 166.7 33.3M33.3 700.0C33.3 700.0 233.3 700.0 233.3 700.0M466.7 700.0C466.7 700.0 666.7 700.0 666.7 700.0" glyph-name="У" horiz-adv-x="700.0" unicode="У"/><glyph d="M166.7 700.0C166.7 700.0 166.7 -0.0 166.7 -0.0M200.0 700.0C200.0 700.0 200.0 -0.0 200.0 -0.0M533.3 700.0C533.3 700.0 533.3 -0.0 533.3 -0.0M566.7 700.0C566.7 700.0 566.7 -0.0 566.7 -0.0M900.0 700.0C900.0 700.0 900.0 -0.0 900.0 -0.0M933.3 700.0C933.3 700.0 933.3 -0.0 933.3 -0.0M66.7 700.0C66.7 700.0 300.0 700.0 300.0 700.0M433.3 700.0C433.3 700.0 666.7 700.0 666.7 700.0M800.0 700.0C800.0 700.0 1033.3 700.0 1033.3 700.0M66.7 -0.0C66.7 -0.0 1033.3 -0.0 1033.3 -0.0M1000.0 -0.0C1000.0 -0.0 1033.3 -233.3 1033.3 -233.3M1033.3 -0.0C1033.3 -0.0 1033.3 -233.3 1033.3 -233.3" glyph-name="Щ" horiz-adv-x="1100.0" unicode="Щ"/><glyph d="M200.0 566.7C200.0 566.7 266.7 600.0 266.7 600.0C266.7 600.0 366.7 700.0 366.7 700.0C366.7 700.0 366.7 -0.0 366.7 -0.0M333.3 666.7C333.3 666.7 333.3 -0.0 333.3 -0.0M200.0 -0.0C200.0 -0.0 500.0 -0.0 500.0 -0.0" glyph-name="1" horiz-adv-x="666.7" unicode="1"/><glyph d="M300.0 466.7C300.0 466.7 200.0 433.3 200.0 433.3C200.0 433.3 133.3 366.7 133.3 366.7C133.3 366.7 100.0 266.7 100.0 266.7C100.0 266.7 100.0 200.0 100.0 200.0C100.0 200.0 133.3 100.0 133.3 100.0C133.3 100.0 200.0 33.3 200.0 33.3C200.0 33.3 300.0 -0.0 300.0 -0.0C300.0 -0.0 366.7 -0.0 366.7 -0.0C366.7 -0.0 466.7 33.3 466.7 33.3C466.7 33.3 533.3 100.0 533.3 100.0C533.3 100.0 566.7 200.0 566.7 200.0C566.7 200.0 566.7 266.7 566.7 266.7C566.7 266.7 533.3 366.7 533.3 366.7C533.3 366.7 466.7 433.3 466.7 433.3C466.7 433.3 366.7 466.7 366.7 466.7C366.7 466.7 300.0 466.7 300.0 466.7M300.0 466.7C300.0 466.7 233.3 433.3 233.3 433.3C233.3 433.3 166.7 366.7 166.7 366.7C166.7 366.7 133.3 266.7 133.3 266.7C133.3 266.7 133.3 200.0 133.3 200.0C133.3 200.0 166.7 100.0 166.7 100.0C166.7 100.0 233.3 33.3 233.3 33.3C233.3 33.3 300.0 -0.0 300.0 -0.0M366.7 -0.0C366.7 -0.0 433.3 33.3 433.3 33.3C433.3 33.3 500.0 100.0 500.0 100.0C500.0 100.0 533.3 200.0 533.3 200.0C533.3 200.0 533.3 266.7 533.3 266.7C533.3 266.7 500.0 366.7 500.0 366.7C500.0 366.7 433.3 433.3 433.3 433.3C433.3 433.3 366.7 466.7 366.7 466.7" glyph-name="о" horiz-adv-x="666.7" unicode="о"/><glyph d="M433.3 600.0C433.3 600.0 433.3 -0.0 433.3 -0.0M133.3 300.0C133.3 300.0 733.3 300.0 733.3 300.0" glyph-name="+" horiz-adv-x="866.7" unicode="+"/></font>
</defs>
</svg>
