<?xml version="1.0" encoding="UTF-8" ?>
<!DOCTYPE svg PUBLIC "-//W3C//DTD SVG 1.1//EN" "http://www.w3.org/Graphics/SVG/1.1/DTD/svg11.dtd" >

<svg xmlns="http://www.w3.org/2000/svg" xmlns:xlink="http://www.w3.org/1999/xlink" version="1.1">

<metadata>
Font name:               EMS Nixish Italic
License:                 SIL Open Font License http://scripts.sil.org/OFL
Created by:              Sheldon B. Michaels
SVG font conversion by:  Windell H. Oskay
A derivative of:         Nixie One
Designer:                Jovanny Lemonad
Link:                    http://jovanny.ru
Google font page:        https://fonts.google.com/specimen/Nixie+One
</metadata>
<defs>
<font id="EMSNixishItalic" horiz-adv-x="378" >
<font-face
font-family="EMS Nixish Italic"
units-per-em="1000"
ascent="800"
descent="-200"
cap-height="500"
x-height="300"
/>
<missing-glyph horiz-adv-x="378" />
<glyph unicode=" " glyph-name="space" horiz-adv-x="378" />
<glyph unicode="!" glyph-name="exclam" horiz-adv-x="290" d="M 269 690 L 184 202 M 165 94.5 L 137 78.8 L 121 47.2 L 134 28.4 L 152 22 L 171 25.2 L 190 47.2 L 197 75.6 L 187 88.2 L 165 94.5" />
<glyph unicode="&#x22;" glyph-name="quotedbl" horiz-adv-x="337" d="M 176 693 L 142 495 M 306 690 L 271 495" />
<glyph unicode="#" glyph-name="numbersign" horiz-adv-x="762" d="M 126 34.6 L 400 687 M 668 693 L 391 34.6 M 627 220 L 47.2 220 M 164 498 L 750 498" />
<glyph unicode="$" glyph-name="dollar" horiz-adv-x="636" d="M 44.1 34.6 L 78.8 224 L 63 135 L 104 97.6 L 154 59.9 L 220 31.5 L 293 25.2 L 372 31.5 L 438 53.6 L 501 97.6 L 536 148 L 551 198 L 558 239 L 529 287 L 466 328 L 397 350 L 331 369 L 265 387 L 211 410 L 164 438 L 135 488 L 132 539 L 158 602 L 214 662 L 287 690 L 346 696 L 432 693 L 491 671 L 536 643 L 570 611 L 595 583 L 580 495 L 614 690 M 400 765 L 258 -41" />
<glyph unicode="%" glyph-name="percent" horiz-adv-x="794" d="M 227 394 L 265 394 L 312 419 L 350 444 L 375 476 L 397 513 L 406 558 L 406 595 L 394 636 L 362 671 L 324 693 L 284 696 L 227 687 L 170 655 L 132 605 L 110 551 L 107 501 L 123 454 L 154 413 L 186 400 L 227 394 M 529 22 L 570 22 L 614 47.2 L 652 72.4 L 680 104 L 699 142 L 709 186 L 709 224 L 696 265 L 668 296 L 627 318 L 586 324 L 529 315 L 472 284 L 435 233 L 416 180 L 410 129 L 425 81.9 L 457 40.9 L 491 28.4 L 529 22 M 132 34.6 L 677 690" />
<glyph unicode="&amp;" glyph-name="ampersand" horiz-adv-x="706" d="M 561 611 L 520 655 L 469 693 L 428 696 L 381 696 L 318 680 L 265 639 L 236 586 L 227 523 L 252 463 L 558 31.5 L 627 31.5 M 309 375 L 236 359 L 154 328 L 81.9 261 L 56.7 205 L 50.4 139 L 69.3 75.6 L 126 25.2 L 205 9.45 L 287 25.2 L 372 69.3 L 435 120 L 498 189 L 630 346" />
<glyph unicode="&apos;" glyph-name="quotesingle" horiz-adv-x="208" d="M 176 690 L 139 482" />
<glyph unicode="(" glyph-name="parenleft" horiz-adv-x="296" d="M 154 -120 L 110 -34.6 L 88.2 63 L 81.9 170 L 101 315 L 132 454 L 183 583 L 239 680 L 309 765" />
<glyph unicode=")" glyph-name="parenright" horiz-adv-x="293" d="M 3.15 -123 L 75.6 -34.6 L 132 59.9 L 176 167 L 208 312 L 227 454 L 220 583 L 202 677 L 161 762" />
<glyph unicode="*" glyph-name="asterisk" horiz-adv-x="466" d="M 252 397 L 302 690 M 154 624 L 403 463 M 123 463 L 428 624" />
<glyph unicode="+" glyph-name="plus" horiz-adv-x="510" d="M 220 132 L 290 517 M 69.3 331 L 454 331" />
<glyph unicode="," glyph-name="comma" horiz-adv-x="261" d="M 110 25.2 L 88.2 22 L 69.3 28.4 L 59.9 47.2 L 75.6 78.8 L 104 94.5 L 126 88.2 L 135 75.6 L 129 47.2 L 123 9.45 L 110 -25.2 L 94.5 -47.2 L 75.6 -69.3 L 41 -91.4" />
<glyph unicode="-" glyph-name="hyphen" horiz-adv-x="583" d="M 107 331 L 498 331" />
<glyph unicode="." glyph-name="period" horiz-adv-x="261" d="M 94.5 94.5 L 66.1 78.8 L 50.4 47.2 L 63 28.4 L 81.9 22 L 101 25.2 L 123 47.2 L 126 75.6 L 117 88.2 L 94.5 94.5" />
<glyph unicode="/" glyph-name="slash" horiz-adv-x="529" d="M 9.45 34.6 L 551 690" />
<glyph unicode="0" glyph-name="zero" horiz-adv-x="662" d="M 284 25.2 L 346 31.5 L 425 69.3 L 485 123 L 536 195 L 567 255 L 583 321 L 595 391 L 602 454 L 608 498 L 589 561 L 554 621 L 501 671 L 441 696 L 387 696 L 306 677 L 233 627 L 173 558 L 132 485 L 110 403 L 94.5 309 L 91.4 236 L 97.6 176 L 126 113 L 161 69.3 L 217 31.5 L 284 25.2" />
<glyph unicode="1" glyph-name="one" horiz-adv-x="365" d="M 59.9 31.5 L 261 31.5 L 161 31.5 L 277 693 L 107 567" />
<glyph unicode="2" glyph-name="two" horiz-adv-x="605" d="M 135 602 L 189 646 L 258 677 L 328 696 L 397 696 L 457 687 L 507 662 L 545 621 L 567 548 L 554 495 L 523 444 L 450 378 L 350 324 L 249 277 L 170 230 L 113 192 L 66.1 135 L 50.4 97.6 L 41 31.5 L 472 31.5 L 498 173" />
<glyph unicode="3" glyph-name="three" horiz-adv-x="608" d="M 53.5 120 L 94.5 75.6 L 154 40.9 L 217 25.2 L 271 25.2 L 340 34.6 L 410 63 L 460 104 L 495 158 L 513 227 L 507 290 L 469 340 L 419 362 L 353 375 L 252 375 L 375 375 L 428 391 L 482 422 L 526 469 L 545 526 L 548 576 L 529 633 L 498 668 L 441 690 L 378 693 L 312 690 L 230 662 L 151 614" />
<glyph unicode="4" glyph-name="four" horiz-adv-x="592" d="M 306 712 L 293 649 L 268 573 L 246 510 L 211 441 L 167 375 L 117 302 L 31.5 202 L 536 202 L 432 202 L 400 25.2 L 485 507" />
<glyph unicode="5" glyph-name="five" horiz-adv-x="583" d="M 44.1 3.15 L 113 9.45 L 205 18.9 L 296 44.1 L 378 81.9 L 447 135 L 491 192 L 504 255 L 510 309 L 495 362 L 466 400 L 410 428 L 331 444 L 236 435 L 164 410 L 113 381 L 167 687 L 554 687" />
<glyph unicode="6" glyph-name="six" horiz-adv-x="608" d="M 135 450 L 384 450 L 444 428 L 491 397 L 529 346 L 539 296 L 532 230 L 513 164 L 463 104 L 413 59.9 L 343 28.4 L 265 25.2 L 205 34.6 L 148 69.3 L 97.6 129 L 75.6 214 L 85 296 L 104 387 L 126 438 L 164 510 L 220 583 L 299 643 L 381 690 L 463 718 L 542 715" />
<glyph unicode="7" glyph-name="seven" horiz-adv-x="482" d="M 75.6 548 L 101 687 L 523 687 L 425 554 L 346 447 L 280 334 L 233 255 L 205 189 L 180 123 L 161 34.6" />
<glyph unicode="8" glyph-name="eight" horiz-adv-x="649" d="M 277 25.2 L 359 31.5 L 447 59.9 L 520 113 L 551 173 L 554 230 L 532 277 L 491 312 L 441 334 L 353 369 L 274 397 L 205 432 L 170 476 L 158 542 L 176 602 L 239 662 L 321 690 L 400 699 L 460 693 L 539 668 L 583 617 L 592 564 L 580 504 L 529 447 L 460 413 L 375 384 L 258 346 L 176 315 L 117 274 L 81.9 236 L 63 158 L 81.9 101 L 120 59.9 L 176 34.6 L 236 25.2 L 277 25.2" />
<glyph unicode="9" glyph-name="nine" horiz-adv-x="605" d="M 94.5 3.15 L 161 6.3 L 236 31.5 L 306 63 L 372 104 L 432 170 L 485 239 L 517 318 L 545 397 L 554 469 L 551 551 L 513 624 L 457 677 L 403 696 L 337 696 L 258 680 L 183 633 L 139 586 L 110 517 L 94.5 450 L 104 375 L 129 334 L 164 302 L 230 274 L 299 268 L 498 268" />
<glyph unicode=":" glyph-name="colon" horiz-adv-x="277" d="M 176 501 L 148 488 L 132 457 L 142 435 L 161 428 L 183 435 L 202 454 L 205 482 L 195 495 L 176 501 M 104 97.6 L 75.6 81.9 L 59.9 50.4 L 69.3 31.5 L 91.4 25.2 L 110 28.4 L 129 50.4 L 135 78.8 L 126 91.4 L 104 97.6" />
<glyph unicode=";" glyph-name="semicolon" horiz-adv-x="268" d="M 180 501 L 151 488 L 135 457 L 145 438 L 164 432 L 186 435 L 205 457 L 208 485 L 198 495 L 180 501 M 110 28.4 L 91.4 25.2 L 69.3 31.5 L 59.9 50.4 L 75.6 81.9 L 104 94.5 L 126 88.2 L 135 75.6 L 129 47.2 L 123 9.45 L 110 -22 L 94.5 -44.1 L 75.6 -66.1 L 41 -91.4" />
<glyph unicode="&#x3c;" glyph-name="less" horiz-adv-x="513" d="M 466 479 L 59.9 268 L 391 53.6" />
<glyph unicode="=" glyph-name="equal" horiz-adv-x="586" d="M 123 432 L 520 432 M 85 233 L 482 233" />
<glyph unicode="&#x3e;" glyph-name="greater" horiz-adv-x="513" d="M 37.8 44.1 L 450 258 L 113 476" />
<glyph unicode="?" glyph-name="question" horiz-adv-x="558" d="M 239 94.5 L 211 81.9 L 195 50.4 L 208 31.5 L 227 25.2 L 246 28.4 L 265 47.2 L 271 75.6 L 261 88.2 L 239 94.5 M 258 198 L 265 243 L 287 277 L 318 309 L 375 346 L 428 384 L 469 422 L 507 463 L 523 501 L 526 551 L 513 608 L 482 655 L 438 684 L 381 699 L 318 696 L 268 687 L 220 671 L 173 643 L 132 602 L 113 561 L 101 513" />
<glyph unicode="@" glyph-name="at" horiz-adv-x="926" d="M 671 485 L 611 145 L 548 81.9 L 463 34.6 L 365 25.2 L 284 69.3 L 249 129 L 243 227 L 261 340 L 334 438 L 416 491 L 488 507 L 570 482 L 614 432 L 639 394 L 649 350 L 605 101 L 627 47.2 L 677 22 L 734 34.6 L 788 88.2 L 822 142 L 850 217 L 869 331 L 866 406 L 850 488 L 813 561 L 769 611 L 715 655 L 652 684 L 595 693 L 529 699 L 450 687 L 369 662 L 274 605 L 208 545 L 145 463 L 107 381 L 81.9 293 L 69.3 192 L 78.8 94.5 L 107 18.9 L 145 -41 L 217 -101 L 309 -145 L 391 -148 L 488 -145 L 567 -123 L 617 -94.5 L 658 -63" />
<glyph unicode="A" glyph-name="A" horiz-adv-x="728" d="M -28.4 34.6 L 161 34.6 L 59.9 34.6 L 435 693 L 529 274 L 195 274 L 529 274 L 583 31.5 L 482 31.5 L 674 31.5" />
<glyph unicode="B" glyph-name="B" horiz-adv-x="662" d="M 129 690 L 463 690 L 513 674 L 551 646 L 576 598 L 573 551 L 567 501 L 542 460 L 507 425 L 472 397 L 432 381 L 397 372 L 183 372 L 403 372 L 441 372 L 495 362 L 542 334 L 564 287 L 570 233 L 558 173 L 536 123 L 495 75.6 L 447 47.2 L 400 37.8 L 369 31.5 L 28.4 31.5 L 120 31.5 L 233 687" />
<glyph unicode="C" glyph-name="C" horiz-adv-x="699" d="M 693 696 L 658 498 L 674 592 L 621 630 L 573 665 L 523 690 L 457 696 L 394 693 L 321 671 L 243 627 L 176 554 L 129 479 L 104 400 L 88.2 299 L 97.6 214 L 123 139 L 186 69.3 L 274 31.5 L 416 28.4 L 495 50.4 L 551 81.9 L 592 117" />
<glyph unicode="D" glyph-name="D" horiz-adv-x="740" d="M 18.9 34.6 L 334 34.6 L 413 53.6 L 485 88.2 L 564 154 L 617 220 L 655 296 L 674 406 L 671 488 L 639 570 L 598 627 L 529 671 L 457 693 L 135 693 L 236 693 L 120 37.8" />
<glyph unicode="E" glyph-name="E" horiz-adv-x="621" d="M 520 180 L 495 34.6 L 12.6 34.6 L 117 34.6 L 173 365 L 457 365 L 469 447 L 441 284 L 457 365 L 173 365 L 230 687 L 139 687 L 602 687 L 580 548" />
<glyph unicode="F" glyph-name="F" horiz-adv-x="589" d="M 18.9 31.5 L 230 31.5 L 123 31.5 L 183 365 L 469 365 L 454 284 L 482 447 L 469 369 L 180 369 L 236 690 L 139 690 L 595 690 L 573 548" />
<glyph unicode="G" glyph-name="G" horiz-adv-x="772" d="M 542 369 L 740 369 L 636 369 L 576 28.4 L 595 135 L 529 85.1 L 460 47.2 L 381 25.2 L 318 25.2 L 265 31.5 L 192 59.9 L 148 113 L 101 195 L 94.5 312 L 107 413 L 161 523 L 236 611 L 331 677 L 419 699 L 507 693 L 589 662 L 646 617 L 668 570 L 655 501 L 690 693" />
<glyph unicode="H" glyph-name="H" horiz-adv-x="788" d="M 22 31.5 L 217 31.5 L 126 31.5 L 243 687 L 135 687 L 331 687 L 243 687 L 186 365 L 630 365 L 687 690 L 595 690 L 784 690 L 687 690 L 570 31.5 L 671 31.5 L 482 31.5" />
<glyph unicode="I" glyph-name="I" horiz-adv-x="340" d="M 15.8 31.5 L 224 31.5 L 123 31.5 L 239 693 L 343 693 L 139 693" />
<glyph unicode="J" glyph-name="J" horiz-adv-x="520" d="M 12.6 110 L 47.2 59.9 L 101 28.4 L 151 25.2 L 211 31.5 L 271 59.9 L 318 104 L 337 154 L 353 205 L 438 687 L 334 687 L 536 687" />
<glyph unicode="K" glyph-name="K" horiz-adv-x="699" d="M 132 687 L 334 687 L 236 687 L 120 31.5 L 22 31.5 L 211 31.5 L 120 31.5 L 161 268 L 627 687 L 718 687 L 507 687 L 627 687 L 328 416 L 542 31.5 L 630 31.5 L 432 31.5" />
<glyph unicode="L" glyph-name="L" horiz-adv-x="586" d="M 132 693 L 359 693 L 239 693 L 123 34.6 L 22 34.6 L 491 34.6 L 517 173" />
<glyph unicode="M" glyph-name="M" horiz-adv-x="976" d="M 18.9 31.5 L 214 31.5 L 123 31.5 L 239 687 L 139 687 L 258 687 L 441 37.8 L 860 690 L 976 690 L 873 690 L 756 31.5 L 671 31.5 L 857 31.5" />
<glyph unicode="N" glyph-name="N" horiz-adv-x="794" d="M 22 34.6 L 214 34.6 L 123 34.6 L 239 687 L 135 687 L 249 687 L 564 31.5 L 680 31.5 L 580 31.5 L 696 690 L 605 690 L 797 690" />
<glyph unicode="O" glyph-name="O" horiz-adv-x="784" d="M 350 25.2 L 413 25.2 L 517 63 L 589 120 L 655 192 L 696 274 L 724 375 L 721 488 L 699 561 L 665 621 L 605 665 L 542 687 L 469 696 L 384 687 L 290 652 L 217 598 L 148 517 L 113 438 L 91.4 356 L 88.2 271 L 97.6 202 L 120 148 L 161 91.4 L 217 53.6 L 287 31.5 L 350 25.2" />
<glyph unicode="P" glyph-name="P" horiz-adv-x="649" d="M 22 31.5 L 236 31.5 L 126 31.5 L 239 687 L 142 687 L 491 687 L 539 677 L 586 649 L 617 611 L 627 554 L 614 482 L 589 403 L 542 346 L 485 315 L 419 306 L 176 306" />
<glyph unicode="Q" glyph-name="Q" horiz-adv-x="794" d="M 268 34.6 L 195 59.9 L 135 120 L 91.4 208 L 88.2 293 L 97.6 384 L 142 507 L 208 595 L 312 668 L 416 696 L 517 696 L 605 668 L 658 624 L 699 570 L 721 488 L 724 406 L 709 309 L 671 224 L 614 145 L 545 81.9 L 469 44.1 L 400 28.4 L 324 25.2 L 277 34.6 L 268 47.2 L 309 104 L 369 126 L 406 113 L 425 78.8 L 432 9.45 L 444 -31.5 L 479 -56.7 L 523 -50.4 L 561 -31.5" />
<glyph unicode="R" glyph-name="R" horiz-adv-x="696" d="M 28.4 34.6 L 227 34.6 L 126 34.6 L 239 687 L 145 687 L 491 687 L 551 674 L 592 649 L 627 598 L 630 542 L 617 491 L 589 428 L 554 394 L 507 362 L 450 350 L 180 350 L 359 350 L 532 31.5 L 422 31.5 L 617 31.5" />
<glyph unicode="S" glyph-name="S" horiz-adv-x="665" d="M 59.9 31.5 L 91.4 224 L 75.6 129 L 113 97.6 L 176 53.6 L 255 28.4 L 356 25.2 L 438 47.2 L 510 94.5 L 551 151 L 570 230 L 545 290 L 485 328 L 410 353 L 287 391 L 192 428 L 154 466 L 139 517 L 158 589 L 202 646 L 261 680 L 340 693 L 438 693 L 498 671 L 545 639 L 580 608 L 605 576 L 592 498 L 627 693" />
<glyph unicode="T" glyph-name="T" horiz-adv-x="630" d="M 173 31.5 L 378 31.5 L 271 31.5 L 384 687 L 126 687 L 101 539 L 126 687 L 649 687 L 624 539" />
<glyph unicode="U" glyph-name="U" horiz-adv-x="778" d="M 117 690 L 309 690 L 220 690 L 135 208 L 145 158 L 170 110 L 208 69.3 L 255 37.8 L 312 25.2 L 384 25.2 L 454 50.4 L 517 88.2 L 567 132 L 598 180 L 611 227 L 693 687 L 602 687 L 797 687" />
<glyph unicode="V" glyph-name="V" horiz-adv-x="734" d="M 91.4 690 L 284 690 L 180 690 L 321 31.5 L 693 687 L 595 687 L 788 687" />
<glyph unicode="W" glyph-name="W" horiz-adv-x="1011.2" d="M 91.4 693 L 280 693 L 183 693 L 271 28.4 L 573 693 L 652 28.4 L 976 690 L 882 690 L 1061.6 690" />
<glyph unicode="X" glyph-name="X" horiz-adv-x="668" d="M -12.6 34.6 L 180 34.6 L 72.5 34.6 L 617 687 L 699 687 L 510 687 M 107 690 L 302 690 L 202 690 L 517 34.6 L 595 34.6 L 413 34.6" />
<glyph unicode="Y" glyph-name="Y" horiz-adv-x="649" d="M 186 31.5 L 378 31.5 L 274 31.5 L 324 321 L 180 687 L 91.4 687 L 280 687 L 176 687 L 324 318 L 602 690 L 513 690 L 699 690" />
<glyph unicode="Z" glyph-name="Z" horiz-adv-x="633" d="M 135 548 L 161 693 L 630 693 L 34.6 34.6 L 498 34.6 L 523 170" />
<glyph unicode="[" glyph-name="bracketleft" horiz-adv-x="315" d="M 195 -120 L 59.9 -120 L 214 759 L 346 759" />
<glyph unicode="\" glyph-name="backslash" horiz-adv-x="529" d="M 120 693 L 432 31.5" />
<glyph unicode="]" glyph-name="bracketright" horiz-adv-x="309" d="M -28.4 -117 L 104 -117 L 258 759 L 132 759" />
<glyph unicode="^" glyph-name="asciicircum" horiz-adv-x="485" d="M 85 466 L 324 721 L 472 466" />
<glyph unicode="_" glyph-name="underscore" horiz-adv-x="721" d="M 151 -41 L 450 -41" />
<glyph unicode="`" glyph-name="grave" horiz-adv-x="261" d="M 154 709 L 227 576" />
<glyph unicode="a" glyph-name="a" horiz-adv-x="589" d="M 129 447 L 189 488 L 268 507 L 350 501 L 406 482 L 447 425 L 454 375 L 416 158 L 362 104 L 287 50.4 L 214 25.2 L 123 31.5 L 59.9 69.3 L 37.8 120 L 47.2 176 L 85 236 L 167 280 L 255 290 L 438 290 L 394 34.6 L 491 34.6" />
<glyph unicode="b" glyph-name="b" horiz-adv-x="611" d="M 91.4 690 L 192 690 L 75.6 31.5 L 97.6 164 L 129 117 L 176 63 L 214 37.8 L 284 22 L 353 31.5 L 422 69.3 L 485 139 L 520 214 L 536 309 L 529 372 L 504 428 L 454 466 L 391 488 L 324 491 L 158 491" />
<glyph unicode="c" glyph-name="c" horiz-adv-x="561" d="M 520 498 L 491 337 L 501 400 L 444 457 L 359 498 L 287 498 L 220 479 L 161 438 L 110 375 L 81.9 302 L 66.1 217 L 75.6 145 L 113 72.4 L 180 31.5 L 233 25.2 L 293 25.2 L 387 53.6 L 447 97.6" />
<glyph unicode="d" glyph-name="d" horiz-adv-x="643" d="M 447 690 L 564 690 L 469 154 L 394 94.5 L 328 47.2 L 249 25.2 L 202 28.4 L 120 59.9 L 75.6 126 L 63 214 L 81.9 315 L 132 400 L 217 466 L 296 491 L 372 495 L 529 495 L 447 31.5 L 542 31.5" />
<glyph unicode="e" glyph-name="e" horiz-adv-x="580" d="M 81.9 271 L 501 271 L 513 340 L 504 400 L 479 441 L 432 482 L 365 501 L 293 504 L 217 476 L 148 422 L 107 359 L 85 290 L 69.3 214 L 75.6 154 L 113 81.9 L 167 40.9 L 214 25.2 L 293 25.2 L 378 50.4 L 450 94.5" />
<glyph unicode="f" glyph-name="f" horiz-adv-x="435" d="M 18.9 34.6 L 230 34.6 L 117 34.6 L 195 495 L 101 495 L 378 495 L 195 495 L 205 551 L 227 608 L 271 665 L 328 693 L 391 699 L 450 677 L 488 639" />
<glyph unicode="g" glyph-name="g" horiz-adv-x="617" d="M 139 97.6 L 69.3 69.3 L 18.9 25.2 L -3.15 -28.4 L -6.3 -91.4 L 47.2 -145 L 120 -161 L 208 -167 L 299 -164 L 378 -142 L 432 -107 L 466 -63 L 479 0 L 460 53.6 L 406 85.1 L 334 104 L 274 104 L 211 101 L 151 97.6 L 104 107 L 56.7 126 L 53.5 161 L 78.8 195 L 132 227 L 173 205 L 236 189 L 309 189 L 384 208 L 457 252 L 488 306 L 504 384 L 495 432 L 472 466 L 523 498 L 617 498 L 595 381 L 617 498 L 529 498 L 472 466 L 422 491 L 334 504 L 243 491 L 142 441 L 104 369 L 97.6 302 L 117 249 L 135 224" />
<glyph unicode="h" glyph-name="h" horiz-adv-x="662" d="M 123 690 L 220 690 L 104 34.6 L 9.45 34.6 L 192 34.6 L 104 34.6 L 164 375 L 230 435 L 293 482 L 369 504 L 425 504 L 482 485 L 517 457 L 542 406 L 536 343 L 482 31.5 L 394 31.5 L 576 31.5" />
<glyph unicode="i" glyph-name="i" horiz-adv-x="309" d="M 18.9 31.5 L 227 31.5 L 120 31.5 L 202 498 L 101 498 M 214 595 L 243 611 L 249 636 L 233 652 L 205 646 L 192 621 L 195 608 L 214 595" />
<glyph unicode="j" glyph-name="j" horiz-adv-x="265" d="M -183 -113 L -151 -145 L -107 -167 L -47.2 -167 L 9.45 -145 L 56.7 -107 L 85 -28.4 L 176 488 L 78.8 488 M 192 595 L 214 608 L 227 636 L 211 652 L 183 649 L 167 621 L 170 605 L 192 595" />
<glyph unicode="k" glyph-name="k" horiz-adv-x="598" d="M 117 693 L 220 693 L 104 34.6 L 3.15 34.6 L 195 34.6 L 107 34.6 L 129 170 L 482 495 L 567 495 L 372 495 L 482 495 L 280 312 L 432 31.5 L 517 31.5 L 328 31.5" />
<glyph unicode="l" glyph-name="l" horiz-adv-x="293" d="M 6.3 31.5 L 202 31.5 L 101 31.5 L 214 693 L 120 693" />
<glyph unicode="m" glyph-name="m" horiz-adv-x="964" d="M 18.9 31.5 L 208 31.5 L 120 31.5 L 202 498 L 104 498 L 198 498 L 180 378 L 243 441 L 318 491 L 387 501 L 447 491 L 479 460 L 504 400 L 504 346 L 447 34.6 L 359 34.6 L 536 34.6 L 450 34.6 L 507 353 L 523 384 L 576 441 L 646 488 L 709 501 L 762 495 L 803 469 L 835 422 L 838 365 L 828 306 L 781 34.6 L 690 34.6 L 873 34.6" />
<glyph unicode="n" glyph-name="n" horiz-adv-x="680" d="M 25.2 31.5 L 205 31.5 L 120 31.5 L 202 495 L 107 495 L 202 495 L 180 365 L 243 435 L 299 472 L 359 501 L 413 504 L 472 495 L 523 469 L 551 422 L 558 381 L 551 331 L 498 37.8 L 410 37.8 L 602 37.8" />
<glyph unicode="o" glyph-name="o" horiz-adv-x="602" d="M 258 25.2 L 328 31.5 L 406 69.3 L 472 129 L 510 205 L 529 287 L 529 356 L 504 422 L 460 466 L 397 498 L 343 504 L 258 495 L 167 438 L 110 369 L 75.6 280 L 66.1 195 L 88.2 120 L 132 59.9 L 202 28.4 L 258 25.2" />
<glyph unicode="p" glyph-name="p" horiz-adv-x="639" d="M -37.8 -164 L 183 -164 L 59.9 -164 L 176 495 L 88.2 495 L 176 495 L 154 375 L 230 435 L 328 498 L 419 507 L 504 472 L 548 400 L 554 306 L 536 214 L 504 139 L 447 85.1 L 378 50.4 L 315 37.8 L 265 31.5 L 97.6 31.5" />
<glyph unicode="q" glyph-name="q" horiz-adv-x="630" d="M 299 -161 L 510 -161 L 406 -161 L 523 498 L 501 378 L 469 422 L 428 463 L 372 495 L 309 507 L 243 491 L 167 447 L 120 391 L 91.4 334 L 72.5 268 L 69.3 202 L 78.8 142 L 123 81.9 L 189 44.1 L 277 34.6 L 441 34.6" />
<glyph unicode="r" glyph-name="r" horiz-adv-x="523" d="M 233 31.5 L 12.6 31.5 L 113 31.5 L 195 495 L 104 495 L 195 495 L 167 350 L 220 400 L 271 441 L 324 472 L 375 495 L 428 501 L 504 501 L 482 378" />
<glyph unicode="s" glyph-name="s" horiz-adv-x="564" d="M 44.1 31.5 L 72.5 195 L 59.9 126 L 94.5 88.2 L 135 53.6 L 195 28.4 L 252 22 L 328 31.5 L 403 59.9 L 444 101 L 460 145 L 460 195 L 422 230 L 372 249 L 280 265 L 192 280 L 142 302 L 107 334 L 101 372 L 110 413 L 142 454 L 202 491 L 258 501 L 340 501 L 391 485 L 428 460 L 460 425 L 482 400 L 472 334 L 501 495" />
<glyph unicode="t" glyph-name="t" horiz-adv-x="406" d="M 211 690 L 176 495 L 78.8 495 L 369 495 L 176 495 L 113 145 L 117 94.5 L 139 56.7 L 173 31.5 L 214 25.2 L 265 31.5 L 318 53.6 L 353 78.8" />
<glyph unicode="u" glyph-name="u" horiz-adv-x="665" d="M 72.5 495 L 180 495 L 123 170 L 120 129 L 135 88.2 L 161 56.7 L 195 31.5 L 252 22 L 315 31.5 L 384 56.7 L 441 104 L 495 158 L 472 31.5 L 573 31.5 L 472 31.5 L 554 498 L 454 498" />
<glyph unicode="v" glyph-name="v" horiz-adv-x="630" d="M 53.5 495 L 252 495 L 151 495 L 271 28.4 L 558 495 L 639 495 L 457 495" />
<glyph unicode="w" glyph-name="w" horiz-adv-x="873" d="M 63 495 L 255 495 L 158 495 L 243 31.5 L 476 495 L 545 28.4 L 794 498 L 888 498 L 693 498" />
<glyph unicode="x" glyph-name="x" horiz-adv-x="589" d="M 0 31.5 L 195 31.5 L 85 31.5 L 498 495 L 570 495 L 387 495 M 280 495 L 85 495 L 170 495 L 419 31.5 L 498 31.5 L 309 31.5" />
<glyph unicode="y" glyph-name="y" horiz-adv-x="636" d="M -12.6 -117 L 9.45 -142 L 41 -170 L 81.9 -170 L 123 -170 L 170 -145 L 220 -94.5 L 274 -6.3 L 554 491 L 636 491 L 457 491 M 69.3 495 L 249 495 L 158 495 L 293 31.5" />
<glyph unicode="z" glyph-name="z" horiz-adv-x="551" d="M 94.5 369 L 117 491 L 507 491 L 22 31.5 L 425 31.5 L 447 158" />
<glyph unicode="{" glyph-name="braceleft" horiz-adv-x="343" d="M 227 -117 L 161 -117 L 135 -101 L 117 -75.6 L 107 -47.2 L 110 -9.45 L 154 246 L 142 287 L 113 309 L 91.4 321 L 50.4 321 L 94.5 321 L 139 346 L 170 372 L 186 406 L 236 690 L 255 715 L 290 750 L 331 765 L 381 765" />
<glyph unicode="|" glyph-name="bar" horiz-adv-x="277" d="M 53.5 -170 L 205 690" />
<glyph unicode="}" glyph-name="braceright" horiz-adv-x="337" d="M -28.4 -120 L 25.2 -120 L 63 -107 L 88.2 -81.9 L 113 -56.7 L 120 -18.9 L 167 239 L 189 277 L 224 309 L 261 321 L 296 321 L 265 321 L 224 340 L 205 372 L 198 403 L 205 444 L 249 690 L 236 721 L 220 743 L 186 762 L 139 762" />
<glyph unicode="~" glyph-name="asciitilde" horiz-adv-x="545" d="M 110 290 L 120 324 L 151 362 L 186 378 L 227 375 L 265 356 L 290 321 L 321 293 L 372 280 L 419 299 L 444 324 L 454 365" />
<glyph unicode="&#xa0;" glyph-name="nbspace" horiz-adv-x="378" />
<glyph unicode="&#xa1;" glyph-name="exclamdown" horiz-adv-x="290" d="M 63 22 L 148 510 M 167 617 L 195 633 L 211 665 L 198 684 L 180 690 L 161 687 L 142 665 L 135 636 L 145 624 L 167 617" />
<glyph unicode="&#xa2;" glyph-name="cent" horiz-adv-x="277" d="M 520 498 L 491 337 L 501 400 L 444 457 L 359 498 L 287 498 L 220 479 L 161 438 L 110 375 L 81.9 302 L 66.1 217 L 75.6 145 L 113 72.4 L 180 31.5 L 233 25.2 L 293 25.2 L 387 53.6 L 447 97.6 M 180 -170 L 331 690" />
<glyph unicode="&#xa5;" glyph-name="yen" horiz-adv-x="649" d="M 186 31.5 L 378 31.5 L 274 31.5 L 324 321 L 180 687 L 91.4 687 L 280 687 L 176 687 L 324 318 L 602 690 L 513 690 L 699 690 M 139 236 L 529 236 M 139 362 L 529 362" />
<glyph unicode="&#xa6;" glyph-name="brokenbar" horiz-adv-x="73.7" d="M 215 214 L 207 107 L 204 -40.6 M 215 686 L 207 579 L 204 432" />
<glyph unicode="&#xa8;" glyph-name="dieresis" horiz-adv-x="567" d=" M 246 724 L 217 709 L 202 677 L 214 658 L 233 652 L 252 655 L 274 677 L 277 706 L 268 718 L 246 724 M 510 724 L 482 709 L 466 677 L 479 658 L 498 652 L 517 655 L 539 677 L 542 706 L 532 718 L 510 724" />
<glyph unicode="&#xa9;" glyph-name="copyright" horiz-adv-x="784" d="M 350 25.2 L 413 25.2 L 517 63 L 589 120 L 655 192 L 696 274 L 724 375 L 721 488 L 699 561 L 665 621 L 605 665 L 542 687 L 469 696 L 384 687 L 290 652 L 217 598 L 148 517 L 113 438 L 91.4 356 L 88.2 271 L 97.6 202 L 120 148 L 161 91.4 L 217 53.6 L 287 31.5 L 350 25.2 M 536 506 L 518 406 L 526 454 L 499 472 L 476 490 L 450 502 L 417 506 L 386 504 L 350 493 L 310 471 L 277 435 L 254 397 L 241 358 L 233 307 L 238 265 L 250 227 L 282 192 L 326 173 L 397 172 L 436 183 L 465 198 L 485 216" />
<glyph unicode="&#xaa;" glyph-name="ordfeminine" horiz-adv-x="295" d="M 175 822 L 205 843 L 244 852 L 285 849 L 313 839 L 334 811 L 337 786 L 318 677 L 291 650 L 254 624 L 217 611 L 172 614 L 140 633 L 129 658 L 134 687 L 153 717 L 194 739 L 238 743 L 329 743 L 307 616 L 356 616" />
<glyph unicode="&#xab;" glyph-name="guillemotleft" horiz-adv-x="308" d="M 186 383 L 23.9 214 L 156 42.8 M 312 383 L 150 214 L 282 42.8" />
<glyph unicode="&#xae;" glyph-name="registered" horiz-adv-x="784" d="M 350 25.2 L 413 25.2 L 517 63 L 589 120 L 655 192 L 696 274 L 724 375 L 721 488 L 699 561 L 665 621 L 605 665 L 542 687 L 469 696 L 384 687 L 290 652 L 217 598 L 148 517 L 113 438 L 91.4 356 L 88.2 271 L 97.6 202 L 120 148 L 161 91.4 L 217 53.6 L 287 31.5 L 350 25.2 M 235 175 L 334 175 L 284 175 L 340 501 L 293 501 L 466 501 L 496 495 L 517 482 L 534 457 L 536 428 L 529 403 L 515 372 L 498 354 L 474 339 L 446 332 L 310 332 L 400 332 L 487 173 L 432 173 L 529 173" />
<glyph unicode="&#xb0;" glyph-name="degree" horiz-adv-x="282" d="M 218 575 L 237 575 L 268 586 L 290 603 L 310 625 L 322 649 L 331 679 L 330 713 L 323 735 L 313 753 L 295 766 L 276 773 L 254 776 L 229 773 L 200 763 L 179 747 L 158 722 L 147 698 L 141 674 L 140 648 L 143 627 L 149 611 L 162 594 L 179 583 L 199 576 L 218 575" />
<glyph unicode="&#xb1;" glyph-name="plusminus" horiz-adv-x="408" d="M 539 75.6 L 852 75.6 M 630 295 L 685 602 M 509 454 L 816 454" />
<glyph unicode="&#xb2;" glyph-name="twosuperior" horiz-adv-x="302" d="M 178 899 L 205 921 L 239 937 L 274 947 L 309 947 L 339 942 L 364 929 L 383 909 L 394 873 L 387 846 L 372 821 L 335 788 L 285 761 L 235 737 L 195 713 L 167 695 L 143 666 L 135 647 L 131 614 L 346 614 L 359 685" />
<glyph unicode="&#xb3;" glyph-name="threesuperior" horiz-adv-x="304" d="M 137 658 L 158 636 L 187 619 L 219 611 L 246 611 L 280 616 L 315 630 L 340 650 L 358 677 L 367 712 L 364 743 L 345 769 L 320 780 L 287 786 L 236 786 L 298 786 L 324 794 L 351 810 L 373 833 L 383 862 L 384 887 L 375 915 L 359 932 L 331 943 L 299 945 L 266 943 L 225 929 L 186 906" />
<glyph unicode="&#xb4;" glyph-name="acute" horiz-adv-x="378" d=" M 349 797 L 223 626" />
<glyph unicode="&#xb7;" glyph-name="middot" horiz-adv-x="314" d="M 189 416 L 155 397 L 136 359 L 151 336 L 174 329 L 197 333 L 223 359 L 227 393 L 215 408 L 189 416" />
<glyph unicode="&#xb9;" glyph-name="onesuperior" horiz-adv-x="183" d="M 140 614 L 241 614 L 191 614 L 249 945 L 164 882" />
<glyph unicode="&#xba;" glyph-name="ordmasculine" horiz-adv-x="282" d="M 218 575 L 237 575 L 268 586 L 290 603 L 310 625 L 322 649 L 331 679 L 330 713 L 323 735 L 313 753 L 295 766 L 276 773 L 254 776 L 229 773 L 200 763 L 179 747 L 158 722 L 147 698 L 141 674 L 140 648 L 143 627 L 149 611 L 162 594 L 179 583 L 199 576 L 218 575" />
<glyph unicode="&#xbb;" glyph-name="guillemotright" horiz-adv-x="308" d="M 15.1 35.3 L 180 207 L 45.4 381 M 141 35.3 L 306 207 L 171 381" />
<glyph unicode="&#xbc;" glyph-name="onequarter" horiz-adv-x="517" d="M 35.9 435 L 157 435 L 96.4 435 L 166 832 L 64.3 756 M 104 34.6 L 646 690 M 656 427 L 648 389 L 633 344 L 620 306 L 599 265 L 573 225 L 542 181 L 491 121 L 794 121 L 731 121 L 713 15.1 L 764 304" />
<glyph unicode="&#xbd;" glyph-name="onehalf" horiz-adv-x="524" d="M 35.9 435 L 157 435 L 96.4 435 L 166 832 L 64.3 756 M 104 34.6 L 646 690 M 554 361 L 586 387 L 627 406 L 669 418 L 711 418 L 747 412 L 777 397 L 799 372 L 813 329 L 805 297 L 786 266 L 743 227 L 682 195 L 622 166 L 575 138 L 541 115 L 512 81.3 L 503 58.6 L 497 18.9 L 756 18.9 L 771 104" />
<glyph unicode="&#xbe;" glyph-name="threequarters" horiz-adv-x="648" d="M 32.1 488 L 56.7 461 L 92.6 440 L 130 431 L 163 431 L 204 437 L 246 454 L 276 478 L 297 510 L 308 552 L 304 590 L 282 620 L 251 633 L 212 641 L 151 641 L 225 641 L 257 650 L 289 669 L 316 697 L 327 731 L 329 762 L 318 796 L 299 816 L 265 830 L 227 832 L 187 830 L 138 813 L 90.7 784 M 104 34.6 L 646 690 M 656 427 L 648 389 L 633 344 L 620 306 L 599 265 L 573 225 L 542 181 L 491 121 L 794 121 L 731 121 L 713 15.1 L 764 304" />
<glyph unicode="&#xbf;" glyph-name="questiondown" horiz-adv-x="558" d="M 387 630 L 416 643 L 432 674 L 419 693 L 400 699 L 381 696 L 362 677 L 356 649 L 365 636 L 387 630 M 369 526 L 362 482 L 340 447 L 309 416 L 252 378 L 198 340 L 158 302 L 120 261 L 104 224 L 101 173 L 113 117 L 145 69.3 L 189 41 L 246 25.2 L 309 28.4 L 359 37.8 L 406 53.5 L 454 81.9 L 495 123 L 513 164 L 526 211" />
<glyph unicode="&#xc0;" glyph-name="Agrave" horiz-adv-x="728" d="M -28.4 34.6 L 161 34.6 L 59.9 34.6 L 435 693 L 529 274 L 195 274 L 529 274 L 583 31.5 L 482 31.5 L 674 31.5 M 392 992 L 465 860" />
<glyph unicode="&#xc1;" glyph-name="Aacute" horiz-adv-x="728" d="M -28.4 34.6 L 161 34.6 L 59.9 34.6 L 435 693 L 529 274 L 195 274 L 529 274 L 583 31.5 L 482 31.5 L 674 31.5 M 597 1035.9 L 471 866" />
<glyph unicode="&#xc2;" glyph-name="Acircumflex" horiz-adv-x="728" d="M -28.4 34.6 L 161 34.6 L 59.9 34.6 L 435 693 L 529 274 L 195 274 L 529 274 L 583 31.5 L 482 31.5 L 674 31.5 M 326 828 L 470 981 L 558 828" />
<glyph unicode="&#xc3;" glyph-name="Atilde" horiz-adv-x="728" d="M -28.4 34.6 L 161 34.6 L 59.9 34.6 L 435 693 L 529 274 L 195 274 L 529 274 L 583 31.5 L 482 31.5 L 674 31.5 M 313 842 L 320 867 L 342 893 L 366 904 L 395 902 L 421 889 L 439 864 L 461 845 L 496 836 L 529 849 L 547 867 L 553 895" />
<glyph unicode="&#xc4;" glyph-name="Adieresis" horiz-adv-x="728" d="M -28.4 34.6 L 161 34.6 L 59.9 34.6 L 435 693 L 529 274 L 195 274 L 529 274 L 583 31.5 L 482 31.5 L 674 31.5 M 332 945 L 303 929 L 288 898 L 300 879 L 319 873 L 338 876 L 360 898 L 363 926 L 354 939 L 332 945 M 585 945 L 557 929 L 541 898 L 553 879 L 572 873 L 591 876 L 613 898 L 616 926 L 607 939 L 585 945" />
<glyph unicode="&#xc5;" glyph-name="Aring" horiz-adv-x="728" d="M -28.4 34.6 L 161 34.6 L 59.9 34.6 L 435 693 L 529 274 L 195 274 L 529 274 L 583 31.5 L 482 31.5 L 674 31.5 M 465 858 L 484 858 L 515 869 L 537 886 L 557 908 L 569 933 L 577 963 L 576 997 L 570 1018.7 L 559 1036.7 L 541 1049.9 L 523 1056.5 L 501 1059.3 L 475 1056.5 L 447 1046.1 L 425 1030.0 L 404 1005.5 L 394 982 L 387 957 L 387 932 L 389 911 L 396 895 L 408 878 L 425 867 L 446 860 L 465 858" />
<glyph unicode="&#xc8;" glyph-name="Egrave" horiz-adv-x="621" d="M 520 180 L 495 34.6 L 12.6 34.6 L 117 34.6 L 173 365 L 457 365 L 469 447 L 441 284 L 457 365 L 173 365 L 230 687 L 139 687 L 602 687 L 580 548 M 339 992 L 411 860" />
<glyph unicode="&#xc9;" glyph-name="Eacute" horiz-adv-x="621" d="M 520 180 L 495 34.6 L 12.6 34.6 L 117 34.6 L 173 365 L 457 365 L 469 447 L 441 284 L 457 365 L 173 365 L 230 687 L 139 687 L 602 687 L 580 548 M 542 1017.2 L 416 847" />
<glyph unicode="&#xca;" glyph-name="Ecircumflex" horiz-adv-x="621" d="M 520 180 L 495 34.6 L 12.6 34.6 L 117 34.6 L 173 365 L 457 365 L 469 447 L 441 284 L 457 365 L 173 365 L 230 687 L 139 687 L 602 687 L 580 548 M 294 828 L 438 981 L 526 828" />
<glyph unicode="&#xcb;" glyph-name="Edieresis" horiz-adv-x="621" d="M 520 180 L 495 34.6 L 12.6 34.6 L 117 34.6 L 173 365 L 457 365 L 469 447 L 441 284 L 457 365 L 173 365 L 230 687 L 139 687 L 602 687 L 580 548 M 278 945 L 250 929 L 234 898 L 247 879 L 266 873 L 285 876 L 307 898 L 310 926 L 300 939 L 278 945 M 531 945 L 503 929 L 487 898 L 500 879 L 519 873 L 538 876 L 560 898 L 563 926 L 553 939 L 531 945" />
<glyph unicode="&#xcc;" glyph-name="Igrave" horiz-adv-x="340" d="M 15.8 31.5 L 224 31.5 L 123 31.5 L 239 693 L 343 693 L 139 693 M 198 992 L 271 860" />
<glyph unicode="&#xcd;" glyph-name="Iacute" horiz-adv-x="340" d="M 15.8 31.5 L 224 31.5 L 123 31.5 L 239 693 L 343 693 L 139 693 M 409 1025.7 L 283 856" />
<glyph unicode="&#xce;" glyph-name="Icircumflex" horiz-adv-x="340" d="M 15.8 31.5 L 224 31.5 L 123 31.5 L 239 693 L 343 693 L 139 693 M 153 828 L 297 981 L 386 828" />
<glyph unicode="&#xcf;" glyph-name="Idieresis" horiz-adv-x="340" d="M 15.8 31.5 L 224 31.5 L 123 31.5 L 239 693 L 343 693 L 139 693 M 140 945 L 112 929 L 96.4 898 L 109 879 L 128 873 L 147 876 L 169 898 L 172 926 L 163 939 L 140 945 M 389 945 L 360 929 L 345 898 L 357 879 L 376 873 L 395 876 L 417 898 L 420 926 L 411 939 L 389 945" />
<glyph unicode="&#xd0;" glyph-name="Eth" horiz-adv-x="740" d="M 44.1 331 L 435 331 M 18.9 34.6 L 334 34.6 L 413 53.6 L 485 88.2 L 564 154 L 617 220 L 655 296 L 674 406 L 671 488 L 639 570 L 598 627 L 529 671 L 457 693 L 135 693 L 236 693 L 120 37.8" />
<glyph unicode="&#xd1;" glyph-name="Ntilde" horiz-adv-x="794" d="M 22 34.6 L 214 34.6 L 123 34.6 L 239 687 L 135 687 L 249 687 L 564 31.5 L 680 31.5 L 580 31.5 L 696 690 L 605 690 L 797 690 M 329 842 L 335 867 L 357 893 L 381 904 L 410 902 L 437 889 L 454 864 L 476 845 L 512 836 L 545 849 L 562 867 L 569 895" />
<glyph unicode="&#xd2;" glyph-name="Ograve" horiz-adv-x="784" d="M 350 25.2 L 413 25.2 L 517 63 L 589 120 L 655 192 L 696 274 L 724 375 L 721 488 L 699 561 L 665 621 L 605 665 L 542 687 L 469 696 L 384 687 L 290 652 L 217 598 L 148 517 L 113 438 L 91.4 356 L 88.2 271 L 97.6 202 L 120 148 L 161 91.4 L 217 53.6 L 287 31.5 L 350 25.2 M 421 992 L 493 860" />
<glyph unicode="&#xd3;" glyph-name="Oacute" horiz-adv-x="784" d="M 350 25.2 L 413 25.2 L 517 63 L 589 120 L 655 192 L 696 274 L 724 375 L 721 488 L 699 561 L 665 621 L 605 665 L 542 687 L 469 696 L 384 687 L 290 652 L 217 598 L 148 517 L 113 438 L 91.4 356 L 88.2 271 L 97.6 202 L 120 148 L 161 91.4 L 217 53.6 L 287 31.5 L 350 25.2 M 616 1011.1 L 490 841" />
<glyph unicode="&#xd4;" glyph-name="Ocircumflex" horiz-adv-x="784" d="M 350 25.2 L 413 25.2 L 517 63 L 589 120 L 655 192 L 696 274 L 724 375 L 721 488 L 699 561 L 665 621 L 605 665 L 542 687 L 469 696 L 384 687 L 290 652 L 217 598 L 148 517 L 113 438 L 91.4 356 L 88.2 271 L 97.6 202 L 120 148 L 161 91.4 L 217 53.6 L 287 31.5 L 350 25.2 M 343 828 L 487 981 L 576 828" />
<glyph unicode="&#xd5;" glyph-name="Otilde" horiz-adv-x="784" d="M 350 25.2 L 413 25.2 L 517 63 L 589 120 L 655 192 L 696 274 L 724 375 L 721 488 L 699 561 L 665 621 L 605 665 L 542 687 L 469 696 L 384 687 L 290 652 L 217 598 L 148 517 L 113 438 L 91.4 356 L 88.2 271 L 97.6 202 L 120 148 L 161 91.4 L 217 53.6 L 287 31.5 L 350 25.2 M 326 842 L 333 867 L 355 893 L 379 904 L 408 902 L 434 889 L 452 864 L 474 845 L 509 836 L 542 849 L 560 867 L 567 895" />
<glyph unicode="&#xd6;" glyph-name="Odieresis" horiz-adv-x="784" d="M 350 25.2 L 413 25.2 L 517 63 L 589 120 L 655 192 L 696 274 L 724 375 L 721 488 L 699 561 L 665 621 L 605 665 L 542 687 L 469 696 L 384 687 L 290 652 L 217 598 L 148 517 L 113 438 L 91.4 356 L 88.2 271 L 97.6 202 L 120 148 L 161 91.4 L 217 53.6 L 287 31.5 L 350 25.2 M 361 945 L 332 929 L 317 898 L 329 879 L 348 873 L 367 876 L 389 898 L 392 926 L 383 939 L 361 945 M 613 945 L 584 929 L 569 898 L 581 879 L 600 873 L 619 876 L 641 898 L 644 926 L 635 939 L 613 945" />
<glyph unicode="&#xd7;" glyph-name="multiply" horiz-adv-x="614" d="M 135 -22.1 L 570 498 L 353 239 L 135 501 L 573 -18.9" />
<glyph unicode="&#xd8;" glyph-name="Oslash" horiz-adv-x="784" d="M 350 25.2 L 413 25.2 L 517 63 L 589 120 L 655 192 L 696 274 L 724 375 L 721 488 L 699 561 L 665 621 L 605 665 L 542 687 L 469 696 L 384 687 L 290 652 L 217 598 L 148 517 L 113 438 L 91.4 356 L 88.2 271 L 97.6 202 L 120 148 L 161 91.4 L 217 53.6 L 287 31.5 L 350 25.2 M 84.8 -33.2 L 719 733" />
<glyph unicode="&#xd9;" glyph-name="Ugrave" horiz-adv-x="778" d="M 117 690 L 309 690 L 220 690 L 135 208 L 145 158 L 170 110 L 208 69.3 L 255 37.8 L 312 25.2 L 384 25.2 L 454 50.4 L 517 88.2 L 567 132 L 598 180 L 611 227 L 693 687 L 602 687 L 797 687 M 417 992 L 490 860" />
<glyph unicode="&#xda;" glyph-name="Uacute" horiz-adv-x="778" d="M 117 690 L 309 690 L 220 690 L 135 208 L 145 158 L 170 110 L 208 69.3 L 255 37.8 L 312 25.2 L 384 25.2 L 454 50.4 L 517 88.2 L 567 132 L 598 180 L 611 227 L 693 687 L 602 687 L 797 687 M 632 1030.0 L 506 860" />
<glyph unicode="&#xdb;" glyph-name="Ucircumflex" horiz-adv-x="778" d="M 117 690 L 309 690 L 220 690 L 135 208 L 145 158 L 170 110 L 208 69.3 L 255 37.8 L 312 25.2 L 384 25.2 L 454 50.4 L 517 88.2 L 567 132 L 598 180 L 611 227 L 693 687 L 602 687 L 797 687 M 341 828 L 485 981 L 574 828" />
<glyph unicode="&#xdc;" glyph-name="Udieresis" horiz-adv-x="778" d="M 117 690 L 309 690 L 220 690 L 135 208 L 145 158 L 170 110 L 208 69.3 L 255 37.8 L 312 25.2 L 384 25.2 L 454 50.4 L 517 88.2 L 567 132 L 598 180 L 611 227 L 693 687 L 602 687 L 797 687 M 351 945 L 322 929 L 307 898 L 319 879 L 338 873 L 357 876 L 379 898 L 382 926 L 373 939 L 351 945 M 616 945 L 588 929 L 572 898 L 585 879 L 604 873 L 623 876 L 645 898 L 648 926 L 638 939 L 616 945" />
<glyph unicode="&#xdd;" glyph-name="Yacute" horiz-adv-x="649" d="M 186 31.5 L 378 31.5 L 274 31.5 L 324 321 L 180 687 L 91.4 687 L 280 687 L 176 687 L 324 318 L 602 690 L 513 690 L 699 690 M 543 1009.9 L 417 840" />
<glyph unicode="&#xe0;" glyph-name="agrave" horiz-adv-x="589" d="M 129 447 L 189 488 L 268 507 L 350 501 L 406 482 L 447 425 L 454 375 L 416 158 L 362 104 L 287 50.4 L 214 25.2 L 123 31.5 L 59.9 69.3 L 37.8 120 L 47.2 176 L 85 236 L 167 280 L 255 290 L 438 290 L 394 34.6 L 491 34.6 M 228 803 L 301 671" />
<glyph unicode="&#xe1;" glyph-name="aacute" horiz-adv-x="589" d="M 129 447 L 189 488 L 268 507 L 350 501 L 406 482 L 447 425 L 454 375 L 416 158 L 362 104 L 287 50.4 L 214 25.2 L 123 31.5 L 59.9 69.3 L 37.8 120 L 47.2 176 L 85 236 L 167 280 L 255 290 L 438 290 L 394 34.6 L 491 34.6 M 458 828 L 332 658" />
<glyph unicode="&#xe2;" glyph-name="acircumflex" horiz-adv-x="589" d="M 129 447 L 189 488 L 268 507 L 350 501 L 406 482 L 447 425 L 454 375 L 416 158 L 362 104 L 287 50.4 L 214 25.2 L 123 31.5 L 59.9 69.3 L 37.8 120 L 47.2 176 L 85 236 L 167 280 L 255 290 L 438 290 L 394 34.6 L 491 34.6 M 228 658 L 371 811 L 460 658" />
<glyph unicode="&#xe3;" glyph-name="atilde" horiz-adv-x="589" d="M 129 447 L 189 488 L 268 507 L 350 501 L 406 482 L 447 425 L 454 375 L 416 158 L 362 104 L 287 50.4 L 214 25.2 L 123 31.5 L 59.9 69.3 L 37.8 120 L 47.2 176 L 85 236 L 167 280 L 255 290 L 438 290 L 394 34.6 L 491 34.6 M 215 644 L 221 668 L 243 695 L 268 706 L 296 703 L 323 690 L 340 666 L 362 646 L 398 637 L 431 650 L 448 668 L 455 697" />
<glyph unicode="&#xe4;" glyph-name="adieresis" horiz-adv-x="589" d="M 129 447 L 189 488 L 268 507 L 350 501 L 406 482 L 447 425 L 454 375 L 416 158 L 362 104 L 287 50.4 L 214 25.2 L 123 31.5 L 59.9 69.3 L 37.8 120 L 47.2 176 L 85 236 L 167 280 L 255 290 L 438 290 L 394 34.6 L 491 34.6 M 264 724 L 235 709 L 220 677 L 232 658 L 251 652 L 270 655 L 292 677 L 295 706 L 286 718 L 264 724 M 514 724 L 486 709 L 470 677 L 483 658 L 502 652 L 521 655 L 543 677 L 546 706 L 536 718 L 514 724" />
<glyph unicode="&#xe5;" glyph-name="aring" horiz-adv-x="589" d="M 129 447 L 189 488 L 268 507 L 350 501 L 406 482 L 447 425 L 454 375 L 416 158 L 362 104 L 287 50.4 L 214 25.2 L 123 31.5 L 59.9 69.3 L 37.8 120 L 47.2 176 L 85 236 L 167 280 L 255 290 L 438 290 L 394 34.6 L 491 34.6 M 341 669 L 360 669 L 391 680 L 413 697 L 433 719 L 445 744 L 454 774 L 453 808 L 446 830 L 436 848 L 418 861 L 399 868 L 377 870 L 352 868 L 323 857 L 301 841 L 281 816 L 270 793 L 264 768 L 263 743 L 266 722 L 272 706 L 284 689 L 301 678 L 322 671 L 341 669" />
<glyph unicode="&#xe8;" glyph-name="egrave" horiz-adv-x="580" d="M 81.9 271 L 501 271 L 513 340 L 504 400 L 479 441 L 432 482 L 365 501 L 293 504 L 217 476 L 148 422 L 107 359 L 85 290 L 69.3 214 L 75.6 154 L 113 81.9 L 167 40.9 L 214 25.2 L 293 25.2 L 378 50.4 L 450 94.5 M 224 803 L 296 671" />
<glyph unicode="&#xe9;" glyph-name="eacute" horiz-adv-x="580" d="M 81.9 271 L 501 271 L 513 340 L 504 400 L 479 441 L 432 482 L 365 501 L 293 504 L 217 476 L 148 422 L 107 359 L 85 290 L 69.3 214 L 75.6 154 L 113 81.9 L 167 40.9 L 214 25.2 L 293 25.2 L 378 50.4 L 450 94.5 M 470 832 L 344 662" />
<glyph unicode="&#xea;" glyph-name="ecircumflex" horiz-adv-x="580" d="M 81.9 271 L 501 271 L 513 340 L 504 400 L 479 441 L 432 482 L 365 501 L 293 504 L 217 476 L 148 422 L 107 359 L 85 290 L 69.3 214 L 75.6 154 L 113 81.9 L 167 40.9 L 214 25.2 L 293 25.2 L 378 50.4 L 450 94.5 M 225 658 L 369 811 L 457 658" />
<glyph unicode="&#xeb;" glyph-name="edieresis" horiz-adv-x="580" d="M 81.9 271 L 501 271 L 513 340 L 504 400 L 479 441 L 432 482 L 365 501 L 293 504 L 217 476 L 148 422 L 107 359 L 85 290 L 69.3 214 L 75.6 154 L 113 81.9 L 167 40.9 L 214 25.2 L 293 25.2 L 378 50.4 L 450 94.5 M 258 724 L 230 709 L 214 677 L 227 658 L 246 652 L 264 655 L 286 677 L 290 706 L 280 718 L 258 724 M 510 724 L 482 709 L 466 677 L 479 658 L 498 652 L 517 655 L 539 677 L 542 706 L 533 718 L 510 724" />
<glyph unicode="&#xec;" glyph-name="igrave" horiz-adv-x="309" d="M 18.9 31.5 L 227 31.5 L 120 31.5 L 202 498 L 101 498  M 88.2 803 L 161 671" />
<glyph unicode="&#xed;" glyph-name="iacute" horiz-adv-x="309" d="M 18.9 31.5 L 227 31.5 L 120 31.5 L 202 498 L 101 498  M 323 810 L 197 640" />
<glyph unicode="&#xee;" glyph-name="icircumflex" horiz-adv-x="309" d="M 18.9 31.5 L 227 31.5 L 120 31.5 L 202 498 L 101 498  M 106 658 L 249 811 L 338 658" />
<glyph unicode="&#xef;" glyph-name="idieresis" horiz-adv-x="309" d="M 18.9 31.5 L 227 31.5 L 120 31.5 L 202 498 L 101 498  M 126 724 L 97.6 709 L 81.8 677 L 94.4 658 L 113 652 L 132 655 L 154 677 L 157 706 L 148 718 L 126 724 M 372 724 L 343 709 L 328 677 L 340 658 L 359 652 L 378 655 L 400 677 L 403 706 L 394 718 L 372 724" />
<glyph unicode="&#xf1;" glyph-name="ntilde" horiz-adv-x="680" d="M 25.2 31.5 L 205 31.5 L 120 31.5 L 202 495 L 107 495 L 202 495 L 180 365 L 243 435 L 299 472 L 359 501 L 413 504 L 472 495 L 523 469 L 551 422 L 558 381 L 551 331 L 498 37.8 L 410 37.8 L 602 37.8 M 236 644 L 243 668 L 265 695 L 289 706 L 318 703 L 344 690 L 362 666 L 384 646 L 419 637 L 452 650 L 470 668 L 476 697" />
<glyph unicode="&#xf2;" glyph-name="ograve" horiz-adv-x="602" d="M 258 25.2 L 328 31.5 L 406 69.3 L 472 129 L 510 205 L 529 287 L 529 356 L 504 422 L 460 466 L 397 498 L 343 504 L 258 495 L 167 438 L 110 369 L 75.6 280 L 66.1 195 L 88.2 120 L 132 59.9 L 202 28.4 L 258 25.2 M 235 803 L 307 671" />
<glyph unicode="&#xf3;" glyph-name="oacute" horiz-adv-x="602" d="M 258 25.2 L 328 31.5 L 406 69.3 L 472 129 L 510 205 L 529 287 L 529 356 L 504 422 L 460 466 L 397 498 L 343 504 L 258 495 L 167 438 L 110 369 L 75.6 280 L 66.1 195 L 88.2 120 L 132 59.9 L 202 28.4 L 258 25.2 M 461 792 L 335 622" />
<glyph unicode="&#xf4;" glyph-name="ocircumflex" horiz-adv-x="602" d="M 258 25.2 L 328 31.5 L 406 69.3 L 472 129 L 510 205 L 529 287 L 529 356 L 504 422 L 460 466 L 397 498 L 343 504 L 258 495 L 167 438 L 110 369 L 75.6 280 L 66.1 195 L 88.2 120 L 132 59.9 L 202 28.4 L 258 25.2 M 232 658 L 375 811 L 464 658" />
<glyph unicode="&#xf5;" glyph-name="otilde" horiz-adv-x="602" d="M 258 25.2 L 328 31.5 L 406 69.3 L 472 129 L 510 205 L 529 287 L 529 356 L 504 422 L 460 466 L 397 498 L 343 504 L 258 495 L 167 438 L 110 369 L 75.6 280 L 66.1 195 L 88.2 120 L 132 59.9 L 202 28.4 L 258 25.2 M 218 644 L 224 668 L 246 695 L 270 706 L 299 703 L 326 690 L 343 666 L 365 646 L 401 637 L 434 650 L 451 668 L 458 697" />
<glyph unicode="&#xf6;" glyph-name="odieresis" horiz-adv-x="602" d="M 258 25.2 L 328 31.5 L 406 69.3 L 472 129 L 510 205 L 529 287 L 529 356 L 504 422 L 460 466 L 397 498 L 343 504 L 258 495 L 167 438 L 110 369 L 75.6 280 L 66.1 195 L 88.2 120 L 132 59.9 L 202 28.4 L 258 25.2 M 270 724 L 242 709 L 226 677 L 239 658 L 258 652 L 277 655 L 299 677 L 302 706 L 292 718 L 270 724 M 520 724 L 492 709 L 476 677 L 489 658 L 508 652 L 527 655 L 549 677 L 552 706 L 542 718 L 520 724" />
<glyph unicode="&#xf7;" glyph-name="divide" horiz-adv-x="874" d="M 441 598 L 413 583 L 397 551 L 410 532 L 428 526 L 447 529 L 469 551 L 472 580 L 463 592 L 441 598 M 441 346 L 413 331 L 397 299 L 410 280 L 428 274 L 447 277 L 469 299 L 472 328 L 463 340 L 441 346 M 161 425 L 747 425" />
<glyph unicode="&#xf8;" glyph-name="oslash" horiz-adv-x="602" d="M 258 25.2 L 328 31.5 L 406 69.3 L 472 129 L 510 205 L 529 287 L 529 356 L 504 422 L 460 466 L 397 498 L 343 504 L 258 495 L 167 438 L 110 369 L 75.6 280 L 66.1 195 L 88.2 120 L 132 59.9 L 202 28.4 L 258 25.2 M 87.3 2.65 L 542 553" />
<glyph unicode="&#xf9;" glyph-name="ugrave" horiz-adv-x="665" d="M 72.5 495 L 180 495 L 123 170 L 120 129 L 135 88.2 L 161 56.7 L 195 31.5 L 252 22 L 315 31.5 L 384 56.7 L 441 104 L 495 158 L 472 31.5 L 573 31.5 L 472 31.5 L 554 498 L 454 498 M 266 803 L 339 671" />
<glyph unicode="&#xfa;" glyph-name="uacute" horiz-adv-x="665" d="M 72.5 495 L 180 495 L 123 170 L 120 129 L 135 88.2 L 161 56.7 L 195 31.5 L 252 22 L 315 31.5 L 384 56.7 L 441 104 L 495 158 L 472 31.5 L 573 31.5 L 472 31.5 L 554 498 L 454 498 M 507 815 L 381 645" />
<glyph unicode="&#xfb;" glyph-name="ucircumflex" horiz-adv-x="665" d="M 72.5 495 L 180 495 L 123 170 L 120 129 L 135 88.2 L 161 56.7 L 195 31.5 L 252 22 L 315 31.5 L 384 56.7 L 441 104 L 495 158 L 472 31.5 L 573 31.5 L 472 31.5 L 554 498 L 454 498 M 250 658 L 394 811 L 483 658" />
<glyph unicode="&#xfc;" glyph-name="udieresis" horiz-adv-x="665" d="M 72.5 495 L 180 495 L 123 170 L 120 129 L 135 88.2 L 161 56.7 L 195 31.5 L 252 22 L 315 31.5 L 384 56.7 L 441 104 L 495 158 L 472 31.5 L 573 31.5 L 472 31.5 L 554 498 L 454 498 M 306 724 L 277 709 L 262 677 L 274 658 L 293 652 L 312 655 L 334 677 L 337 706 L 328 718 L 306 724 M 548 724 L 519 709 L 504 677 L 516 658 L 535 652 L 554 655 L 576 677 L 579 706 L 570 718 L 548 724" />
<glyph unicode="&#xfd;" glyph-name="yacute" horiz-adv-x="636" d="M -12.6 -117 L 9.45 -142 L 41 -170 L 81.9 -170 L 123 -170 L 170 -145 L 220 -94.5 L 274 -6.3 L 554 491 L 636 491 L 457 491 M 69.3 495 L 249 495 L 158 495 L 293 31.5 M 489 804 L 363 634" />
<glyph unicode="&#xff;" glyph-name="ydieresis" horiz-adv-x="636" d="M -12.6 -117 L 9.45 -142 L 41 -170 L 81.9 -170 L 123 -170 L 170 -145 L 220 -94.5 L 274 -6.3 L 554 491 L 636 491 L 457 491 M 69.3 495 L 249 495 L 158 495 L 293 31.5 M 285 724 L 257 709 L 241 677 L 254 658 L 273 652 L 291 655 L 313 677 L 317 706 L 307 718 L 285 724 M 540 724 L 512 709 L 496 677 L 509 658 L 528 652 L 546 655 L 569 677 L 572 706 L 562 718 L 540 724" />
<glyph unicode="&#x2013;" glyph-name="endash" horiz-adv-x="874" d="M 161 331 L 747 331" />
<glyph unicode="&#x2014;" glyph-name="emdash" horiz-adv-x="1165.5" d="M 214 331 L 995 331" />
<glyph unicode="&#x201c;" glyph-name="quotedblleft" horiz-adv-x="442" d="M 183 695 L 215 576 M 325 695 L 357 576" />
<glyph unicode="&#x201d;" glyph-name="quotedblright" horiz-adv-x="442" d="M 130 695 L 97.8 576 M 272 695 L 240 576" />
<glyph unicode="&#x2039;" glyph-name="guilsinglleft" horiz-adv-x="205" d="M 186 383 L 23.9 214 L 156 42.8" />
<glyph unicode="&#x203a;" glyph-name="guilsinglright" horiz-adv-x="205" d="M 15.1 35.3 L 180 207 L 45.4 381" />
<glyph unicode="&#x20ac;" glyph-name="Euro" horiz-adv-x="699" d="M 693 696 L 658 498 L 674 592 L 621 630 L 573 665 L 523 690 L 457 696 L 394 693 L 321 671 L 243 627 L 176 554 L 129 479 L 104 400 L 88.2 299 L 97.6 214 L 123 139 L 186 69.3 L 274 31.5 L 416 28.4 L 495 50.4 L 551 81.9 L 592 117 M 44.1 268 L 435 268 M 44.1 394 L 435 394" />
<glyph unicode="&#x0178;" glyph-name="Ydieresis" horiz-adv-x="649" d="M 186 31.5 L 378 31.5 L 274 31.5 L 324 321 L 180 687 L 91.4 687 L 280 687 L 176 687 L 324 318 L 602 690 L 513 690 L 699 690 M 296 945 L 268 929 L 252 898 L 265 879 L 283 873 L 302 876 L 324 898 L 328 926 L 318 939 L 296 945 M 542 945 L 514 929 L 498 898 L 510 879 L 529 873 L 548 876 L 570 898 L 573 926 L 564 939 L 542 945" />
<glyph unicode="&#x102;" glyph-name="Abreve" horiz-adv-x="728" d="M -28.4 34.6 L 161 34.6 L 59.9 34.6 L 435 693 L 529 274 L 195 274 L 529 274 L 583 31.5 L 482 31.5 L 674 31.5 M631.152 1080.83C631.152 1080.83 619.981 927.106 471.565 925.998C323.15 924.889 344.818 1080.83 344.818 1080.83" />
<glyph unicode="&#x114;" glyph-name="Ebreve" horiz-adv-x="621" d="M 520 180 L 495 34.6 L 12.6 34.6 L 117 34.6 L 173 365 L 457 365 L 469 447 L 441 284 L 457 365 L 173 365 L 230 687 L 139 687 L 602 687 L 580 548 M597.152 1080.83C597.152 1080.83 585.981 927.106 437.565 925.998C289.15 924.889 310.818 1080.83 310.818 1080.83" />
<glyph unicode="&#x11E;" glyph-name="Gbreve" horiz-adv-x="772" d="M 542 369 L 740 369 L 636 369 L 576 28.4 L 595 135 L 529 85.1 L 460 47.2 L 381 25.2 L 318 25.2 L 265 31.5 L 192 59.9 L 148 113 L 101 195 L 94.5 312 L 107 413 L 161 523 L 236 611 L 331 677 L 419 699 L 507 693 L 589 662 L 646 617 L 668 570 L 655 501 L 690 693 M645.152 1080.83C645.152 1080.83 633.981 927.106 485.565 925.998C337.15 924.889 358.818 1080.83 358.818 1080.83" />
<glyph unicode="&#x12C;" glyph-name="Ibreve" horiz-adv-x="340" d="M 15.8 31.5 L 224 31.5 L 123 31.5 L 239 693 L 343 693 L 139 693 M508.152 1080.83C508.152 1080.83 496.981 927.106 348.565 925.998C200.15 924.889 221.818 1080.83 221.818 1080.83" />
<glyph unicode="&#x14E;" glyph-name="Obreve" horiz-adv-x="784" d="M 350 25.2 L 413 25.2 L 517 63 L 589 120 L 655 192 L 696 274 L 724 375 L 721 488 L 699 561 L 665 621 L 605 665 L 542 687 L 469 696 L 384 687 L 290 652 L 217 598 L 148 517 L 113 438 L 91.4 356 L 88.2 271 L 97.6 202 L 120 148 L 161 91.4 L 217 53.6 L 287 31.5 L 350 25.2 M649.152 1080.83C649.152 1080.83 637.981 927.106 489.565 925.998C341.15 924.889 362.818 1080.83 362.818 1080.83" />
<glyph unicode="&#x16C;" glyph-name="Ubreve" horiz-adv-x="778" d="M 117 690 L 309 690 L 220 690 L 135 208 L 145 158 L 170 110 L 208 69.3 L 255 37.8 L 312 25.2 L 384 25.2 L 454 50.4 L 517 88.2 L 567 132 L 598 180 L 611 227 L 693 687 L 602 687 L 797 687 M647.152 1080.83C647.152 1080.83 635.981 927.106 487.565 925.998C339.15 924.889 360.818 1080.83 360.818 1080.83" />
<glyph unicode="&#x103;" glyph-name="abreve" horiz-adv-x="589" d="M 129 447 L 189 488 L 268 507 L 350 501 L 406 482 L 447 425 L 454 375 L 416 158 L 362 104 L 287 50.4 L 214 25.2 L 123 31.5 L 59.9 69.3 L 37.8 120 L 47.2 176 L 85 236 L 167 280 L 255 290 L 438 290 L 394 34.6 L 491 34.6 M527.152 900.831C527.152 900.831 515.981 747.106 367.565 745.998C219.15 744.889 240.818 900.831 240.818 900.831" />
<glyph unicode="&#x115;" glyph-name="ebreve" horiz-adv-x="580" d="M 81.9 271 L 501 271 L 513 340 L 504 400 L 479 441 L 432 482 L 365 501 L 293 504 L 217 476 L 148 422 L 107 359 L 85 290 L 69.3 214 L 75.6 154 L 113 81.9 L 167 40.9 L 214 25.2 L 293 25.2 L 378 50.4 L 450 94.5 M524.152 900.831C524.152 900.831 512.981 747.106 364.565 745.998C216.15 744.889 237.818 900.831 237.818 900.831" />
<glyph unicode="&#x11F;" glyph-name="gbreve" horiz-adv-x="617" d="M 139 97.6 L 69.3 69.3 L 18.9 25.2 L -3.15 -28.4 L -6.3 -91.4 L 47.2 -145 L 120 -161 L 208 -167 L 299 -164 L 378 -142 L 432 -107 L 466 -63 L 479 0 L 460 53.6 L 406 85.1 L 334 104 L 274 104 L 211 101 L 151 97.6 L 104 107 L 56.7 126 L 53.5 161 L 78.8 195 L 132 227 L 173 205 L 236 189 L 309 189 L 384 208 L 457 252 L 488 306 L 504 384 L 495 432 L 472 466 L 523 498 L 617 498 L 595 381 L 617 498 L 529 498 L 472 466 L 422 491 L 334 504 L 243 491 L 142 441 L 104 369 L 97.6 302 L 117 249 L 135 224 M536.152 900.831C536.152 900.831 524.981 747.106 376.565 745.998C228.15 744.889 249.818 900.831 249.818 900.831" />
<glyph unicode="&#x12D;" glyph-name="ibreve" horiz-adv-x="309" d="M 18.9 31.5 L 227 31.5 L 120 31.5 L 202 498 L 101 498  M438.152 900.831C438.152 900.831 426.981 747.106 278.565 745.998C130.15 744.889 151.818 900.831 151.818 900.831" />
<glyph unicode="&#x14F;" glyph-name="obreve" horiz-adv-x="602" d="M 258 25.2 L 328 31.5 L 406 69.3 L 472 129 L 510 205 L 529 287 L 529 356 L 504 422 L 460 466 L 397 498 L 343 504 L 258 495 L 167 438 L 110 369 L 75.6 280 L 66.1 195 L 88.2 120 L 132 59.9 L 202 28.4 L 258 25.2 M531.152 900.831C531.152 900.831 519.981 747.106 371.565 745.998C223.15 744.889 244.818 900.831 244.818 900.831" />
<glyph unicode="&#x16D;" glyph-name="ubreve" horiz-adv-x="665" d="M 72.5 495 L 180 495 L 123 170 L 120 129 L 135 88.2 L 161 56.7 L 195 31.5 L 252 22 L 315 31.5 L 384 56.7 L 441 104 L 495 158 L 472 31.5 L 573 31.5 L 472 31.5 L 554 498 L 454 498 M551.152 900.831C551.152 900.831 539.981 747.106 391.565 745.998C243.15 744.889 264.818 900.831 264.818 900.831" />
<glyph unicode="&#x130;" glyph-name="Idotaccent" horiz-adv-x="340" d="M258.099 776.904L287.099 792.904L293.099 817.904L277.099 833.904L249.099 827.904L236.099 802.904L239.099 789.904L258.099 776.904M15.8 31.5L224 31.5L123 31.5L239 693L343 693L139 693" />
<glyph unicode="&#x15F;" glyph-name="scedilla" horiz-adv-x="564" d="M237.312 22.9604L222.886 -28.0915C321.848 -28.0915 241.539 -117.794 167.58 -95.5044M44.1 31.5L72.5 195L59.9 126C59.9 126 81.9742 100.304 94.5 88.2C107.026 76.0958 118.209 63.9484 135 53.6C151.791 43.2516 175.253 33.5418 195 28.4C214.747 23.2582 229.675 21.86 252 22C274.325 22.14 302.637 25.2081 328 31.5C353.363 37.7919 383.655 47.3827 403 59.9C422.345 72.4173 434.62 86.2515 444 101C453.38 115.749 457.2 129.108 460 145C462.8 160.892 466.804 179.482 460 195C453.196 210.518 436.906 220.784 422 230C407.094 239.216 395.607 242.526 372 249C348.393 255.474 310 259.834 280 265C250 270.166 214.97 273.104 192 280C169.03 286.896 156.249 292.714 142 302C127.751 311.286 113.78 321.392 107 334C100.22 346.608 100.601 358.598 101 372C101.399 385.402 103.336 398.824 110 413C116.664 427.176 126.79 440.38 142 454C157.21 467.62 182.166 483.429 202 491C221.834 498.571 234.943 498.957 258 501C281.057 503.043 317.685 504.418 340 501C362.315 497.582 376.271 492.099 391 485C405.729 477.901 416.384 470.029 428 460C439.616 449.971 451.016 435.015 460 425C468.984 414.985 482 400 482 400L472 334L501 495" />
<glyph unicode="&#xc7;" glyph-name="Ccedilla" horiz-adv-x="699" d="M344.522 28.6927L326.708 -34.3505C448.915 -34.3505 349.742 -145.122 258.411 -117.598M693 696L658 498L674 592L621 630L573 665L523 690L457 696L394 693L321 671L243 627L176 554L129 479L104 400L88.2 299L97.6 214L123 139L186 69.3L274 31.5L416 28.4L495 50.4L551 81.9L592 117" />
<glyph unicode="&#x15E;" glyph-name="Scedilla" horiz-adv-x="665" d="M306.347 23.9207L288.532 -39.1224C410.739 -39.1224 311.567 -149.894 220.236 -122.37M59.9 31.5L91.4 224L75.6 129C75.6 129 96.3763 110.344 113 97.6C129.624 84.8564 152.131 65.4027 176 53.6C199.869 41.7973 224.781 33.5944 255 28.4C285.219 23.2056 325.214 21.6369 356 25.2C386.786 28.7631 411.989 35.5319 438 47.2C464.011 58.8681 491.198 76.5527 510 94.5C528.802 112.447 540.461 128.135 551 151C561.539 173.865 571.933 205.701 570 230C568.067 254.299 559.613 272.668 545 290C530.387 307.332 507.597 317.275 485 328C462.403 338.725 442.974 342.412 410 353C377.026 363.588 323.304 378.341 287 391C250.696 403.659 213.728 413.814 192 428C170.272 442.186 163.095 450.679 154 466C144.905 481.321 139.298 495.731 139 517C138.702 538.269 147.213 567.101 158 589C168.787 610.899 184.416 630.637 202 646C219.584 661.363 237.745 671.697 261 680C284.255 688.303 310.422 690.583 340 693C369.578 695.417 411.431 697.717 438 693C464.569 688.283 480.097 680.198 498 671C515.903 661.802 531.372 649.606 545 639C558.628 628.394 570.026 618.608 580 608C589.973 597.392 605 576 605 576L592 498L627 693" />
<glyph unicode="&#xe7;" glyph-name="ccedilla" horiz-adv-x="561" d="M252.353 25.4009L234.538 -37.6423C356.745 -37.6423 257.572 -148.414 166.242 -120.889M520 498L491 337L501 400L444 457L359 498L287 498L220 479L161 438L110 375L81.9 302L66.1 217L75.6 145L113 72.4L180 31.5L233 25.2L293 25.2L387 53.6L447 97.6" />
<glyph unicode="&#xdf;" glyph-name="germandbls" horiz-adv-x="611" d="M193.327 491L98.6386 491M12.7887 23.9716L113.589 23.9716L196.813 495.958C221.466 609.091 342.624 688.013 442.177 688.013C541.73 688.013 571.793 637.278 560.501 573.238C549.209 509.197 406.674 506.047 394.044 434.42C381.415 362.793 584.358 359.145 553.721 185.396C523.085 11.6462 267.289 -23.6225 193.946 80.4611" />
<glyph unicode="&#xE6;" glyph-name="ae" horiz-adv-x="890" d="M437.91 278.98L857.01 278.98C873.092 353.601 879.684 442.738 759.259 488.94C638.835 535.141 502.38 458.12 464.001 353.052C425.622 247.984 401.907 142.856 483.881 70.0033C565.855 -2.8492 681.793 16.6202 806.01 94.5001M129 447C212.307 515.941 286.201 511.525 373.081 491.98C459.962 472.436 455.892 376.122 451.007 345.034C446.122 313.947 424.156 193.488 416 158C396.872 135.48 360.221 90.4028 287 52.3951C213.779 14.3874 41.0041 0.6747 40.7926 137.956C40.5812 275.237 200.485 273.83 255 280.025C309.515 286.219 404.485 279.524 438 280.025" />
<glyph unicode="&#xC6;" glyph-name="AE" horiz-adv-x="940" d="M864 177.004L839 31.6038L356.6 31.6038L461 31.6038L517 362.004L801 362.004L813 444.004L785 281.004L798.004 362.004L517 362.004L574 684.004L946 684.004L924 545.004M501 274L265 274M-4.4 34.6L185 34.6L83.9 34.6L579 693" />
<glyph unicode="&#xa3;" glyph-name="sterling" horiz-adv-x="586" d="M72.5787 331L459.979 331M460.446 546.574L463.325 580.914C467.261 627.856 431.978 699.505 348.798 695.539C229.014 689.828 215.123 553 215.123 553L208.17 513.568L123.715 34.6001L22.7154 34.6001L491.715 34.6001L516.119 173" />
<glyph unicode="&#x131;" glyph-name="dotlessi" horiz-adv-x="309" d="M18.9 31.5L227 31.5L120 31.5L202 498L101 498" />
<glyph unicode="&#x2D8;" glyph-name="breve" horiz-adv-x="485" d="M380.152 620.831C380.152 620.831 368.981 467.106 220.565 465.998C72.1497 464.889 93.8178 620.831 93.8178 620.831" />
<glyph unicode="&#xb8;" glyph-name="cedilla" horiz-adv-x="699" d="M344.522 28.6927L326.708 -34.3505C448.915 -34.3505 349.742 -145.122 258.411 -117.598" />
</font>
</defs>
</svg>
