<?xml version="1.0" encoding="UTF-8" ?>
<!DOCTYPE svg PUBLIC "-//W3C//DTD SVG 1.1//EN" "http://www.w3.org/Graphics/SVG/1.1/DTD/svg11.dtd" >

<svg xmlns="http://www.w3.org/2000/svg" xmlns:xlink="http://www.w3.org/1999/xlink" version="1.1">

<metadata>
Font name: Hershey Gothic English

Originally prepared in 2011 and converted to SVG fonts
in 2019 by Windell H. Oskay, www.evilmadscientist.com

Contents adapted from emergent.unpythonic.net/software/hershey
 by way of "Hershey Fonts in SVG" by Marty McGuire
 http://www.thingiverse.com/thing:6168
 
-------------------------------------------------------------------
The Hershey Fonts are a set of vector fonts with a liberal license.

USE RESTRICTION:
    This distribution of the Hershey Fonts may be used by anyone for
    any purpose, commercial or otherwise, providing that:
        1. The following acknowledgements must be distributed with
            the font data:
            - The Hershey Fonts were originally created by Dr.
                A. V. Hershey while working at the U. S.
                National Bureau of Standards.
            - The format of the Font data in this distribution
                was originally created by
                    James Hurt
                    Cognition, Inc.
                    900 Technology Park Drive
                    Billerica, MA 01821
                    (mit-eddie!ci-dandelion!hurt)
        2. The font data in this distribution may be converted into
            any other format *EXCEPT* the format distributed by
            the U.S. NTIS where each point is described
            in eight bytes as "xxx yyy:", where xxx and yyy are
            the coordinate values as ASCII numbers.

</metadata>
<defs>
<font id="HersheyGothEnglish" horiz-adv-x="378" >
<font-face
font-family="Hershey Gothic English"
units-per-em="1000"
ascent="800"
descent="-200"
cap-height="500"
x-height="300"
/>
<missing-glyph horiz-adv-x="378" />
<glyph unicode=" " glyph-name="space" horiz-adv-x="378" />
<glyph unicode="!" glyph-name="exclam" horiz-adv-x="378" d="M 296 662 L 265 630 L 202 598 L 265 567 L 296 220 M 296 567 L 328 598 L 296 630 L 265 598 L 296 567 L 296 220 M 296 662 L 328 630 L 391 598 L 328 567 L 296 220 M 296 94.5 L 233 31.5 L 296 0 L 359 31.5 L 296 94.5 M 296 63 L 265 31.5 L 328 31.5 L 296 63" />
<glyph unicode="&#x22;" glyph-name="quotedbl" horiz-adv-x="567" d="M 189 662 L 158 630 L 158 441 M 189 630 L 158 441 M 189 662 L 220 630 L 158 441 M 472 662 L 441 630 L 441 441 M 472 630 L 441 441 M 472 662 L 504 630 L 441 441" />
<glyph unicode="#" glyph-name="numbersign" horiz-adv-x="662" d="M 378 788 L 158 -220 M 567 788 L 346 -220 M 158 378 L 598 378 M 126 189 L 567 189" />
<glyph unicode="$" glyph-name="dollar" horiz-adv-x="630" d="M 284 788 L 284 -126 M 410 788 L 410 -126 M 410 662 L 472 630 L 504 567 L 504 504 L 567 536 L 536 598 L 504 630 L 410 662 L 284 662 L 189 630 L 126 567 L 126 472 L 158 410 L 252 346 L 441 284 L 504 252 L 536 189 L 536 94.5 L 504 31.5 M 536 536 L 504 598 M 158 472 L 189 410 L 252 378 L 441 315 L 504 284 L 536 220 M 189 63 L 158 126 M 189 630 L 158 567 L 158 504 L 189 441 L 252 410 L 441 346 L 536 284 L 567 220 L 567 126 L 536 63 L 504 31.5 L 410 0 L 284 0 L 189 31.5 L 158 63 L 126 126 L 189 158 L 189 94.5 L 220 31.5 L 284 0" />
<glyph unicode="%" glyph-name="percent" horiz-adv-x="756" d="M 693 662 L 126 0 M 284 662 L 346 598 L 346 536 L 315 472 L 252 441 L 189 441 L 126 504 L 126 567 L 158 630 L 220 662 L 284 662 L 346 630 L 441 598 L 536 598 L 630 630 L 693 662 M 567 220 L 504 189 L 472 126 L 472 63 L 536 0 L 598 0 L 662 31.5 L 693 94.5 L 693 158 L 630 220 L 567 220" />
<glyph unicode="&amp;" glyph-name="ampersand" horiz-adv-x="819" d="M 662 410 L 693 378 L 724 378 L 756 410 M 630 378 L 662 346 L 724 346 M 630 346 L 662 315 L 693 315 L 724 346 L 756 410 M 662 410 L 472 220 M 441 189 L 252 0 L 126 158 L 315 346 M 346 378 L 472 504 L 346 662 L 189 472 L 378 284 L 504 94.5 L 567 31.5 L 630 0 L 693 0 L 724 31.5 L 756 94.5 M 252 31.5 L 158 158 M 441 504 L 346 630 M 220 472 L 378 315 L 504 126 L 567 63 L 630 31.5 L 724 31.5 M 284 31.5 L 158 189 M 441 472 L 315 630 M 220 504 L 410 315 L 536 126 L 567 94.5 L 630 63 L 724 63 L 756 94.5" />
<glyph unicode="&apos;" glyph-name="quotesingle" horiz-adv-x="284" d="M 189 662 L 158 630 L 158 441 M 189 630 L 158 441 M 189 662 L 220 630 L 158 441" />
<glyph unicode="(" glyph-name="parenleft" horiz-adv-x="441" d="M 346 788 L 284 724 L 220 630 L 158 504 L 126 346 L 126 220 L 158 63 L 220 -63 L 284 -158 L 346 -220 M 220 598 L 189 504 L 158 378 L 158 189 L 189 63 L 220 -31.5 M 284 724 L 252 662 L 220 567 L 189 378 L 189 189 L 220 0 L 252 -94.5 L 284 -158" />
<glyph unicode=")" glyph-name="parenright" horiz-adv-x="441" d="M 158 788 L 220 724 L 284 630 L 346 504 L 378 346 L 378 220 L 346 63 L 284 -63 L 220 -158 L 158 -220 M 284 598 L 315 504 L 346 378 L 346 189 L 315 63 L 284 -31.5 M 220 724 L 252 662 L 284 567 L 315 378 L 315 189 L 284 0 L 252 -94.5 L 220 -158" />
<glyph unicode="*" glyph-name="asterisk" horiz-adv-x="504" d="M 284 662 L 252 630 L 315 315 L 284 284 M 284 662 L 284 284 M 284 662 L 315 630 L 252 315 L 284 284 M 126 567 L 158 567 L 410 378 L 441 378 M 126 567 L 441 378 M 126 567 L 126 536 L 441 410 L 441 378 M 441 567 L 410 567 L 158 378 L 126 378 M 441 567 L 126 378 M 441 567 L 441 536 L 126 410 L 126 378" />
<glyph unicode="+" glyph-name="plus" horiz-adv-x="788" d="M 410 567 L 410 31.5 L 441 31.5 M 410 567 L 441 567 L 441 31.5 M 158 315 L 693 315 L 693 284 M 158 315 L 158 284 L 693 284" />
<glyph unicode="," glyph-name="comma" horiz-adv-x="378" d="M 220 -94.5 L 220 -31.5 L 158 31.5 L 220 94.5 L 252 31.5 L 252 -31.5 L 220 -94.5 L 158 -126 M 220 63 L 189 31.5 L 220 0 L 220 63" />
<glyph unicode="-" glyph-name="hyphen" horiz-adv-x="819" d="M 158 284 L 724 284" />
<glyph unicode="." glyph-name="period" horiz-adv-x="378" d="M 220 94.5 L 158 31.5 L 220 0 L 284 31.5 L 220 94.5 M 220 63 L 189 31.5 L 252 31.5 L 220 63" />
<glyph unicode="/" glyph-name="slash" horiz-adv-x="724" d="M 662 788 L 94.5 -220 L 126 -220 M 662 788 L 693 788 L 126 -220" />
<glyph unicode="0" glyph-name="zero" horiz-adv-x="630" d="M 158 598 L 158 94.5 L 94.5 63 M 189 567 L 189 94.5 L 284 31.5 M 220 598 L 220 94.5 L 284 63 L 315 31.5 M 158 598 L 220 598 L 378 630 L 441 662 M 378 630 L 410 598 L 472 567 L 472 63 M 410 630 L 504 567 L 504 94.5 M 441 662 L 472 630 L 536 598 L 598 598 L 536 567 L 536 63 M 94.5 63 L 158 63 L 220 31.5 L 252 0 L 315 31.5 L 472 63 L 536 63" />
<glyph unicode="1" glyph-name="one" horiz-adv-x="630" d="M 252 598 L 284 567 L 315 504 L 315 94.5 L 252 63 M 315 567 L 284 598 L 315 630 L 346 567 L 346 63 L 410 31.5 M 252 598 L 346 662 L 378 598 L 378 94.5 L 441 63 L 472 63 M 252 63 L 284 63 L 346 31.5 L 378 0 L 410 31.5 L 472 63" />
<glyph unicode="2" glyph-name="two" horiz-adv-x="630" d="M 158 598 L 220 598 L 284 630 L 315 662 L 378 630 L 472 598 L 536 598 M 284 598 L 346 630 M 158 598 L 220 567 L 284 567 L 346 598 L 378 630 M 472 598 L 472 346 M 504 567 L 504 378 M 536 598 L 536 346 L 315 346 L 220 315 L 158 252 L 126 158 L 126 0 M 126 0 L 252 63 L 378 94.5 L 472 94.5 L 598 63 M 220 31.5 L 315 63 L 472 63 L 567 31.5 M 126 0 L 284 31.5 L 441 31.5 L 536 0 L 598 63" />
<glyph unicode="3" glyph-name="three" horiz-adv-x="630" d="M 158 598 L 189 598 L 252 630 L 284 662 L 346 630 L 472 598 L 536 598 M 252 598 L 315 630 M 158 598 L 220 567 L 284 567 L 346 630 M 472 598 L 472 378 M 504 567 L 504 410 M 536 598 L 536 378 L 472 378 L 378 346 L 315 315 M 315 346 L 378 315 L 472 284 L 536 284 L 536 63 M 504 252 L 504 94.5 M 472 284 L 472 63 M 126 63 L 189 94.5 L 252 94.5 L 315 63 L 346 31.5 M 252 63 L 315 31.5 M 126 63 L 189 63 L 252 31.5 L 284 0 L 346 31.5 L 472 63 L 536 63" />
<glyph unicode="4" glyph-name="four" horiz-adv-x="630" d="M 441 662 L 126 346 L 126 189 L 410 189 M 472 189 L 598 189 L 630 158 L 630 220 L 598 189 M 158 346 L 158 220 M 189 410 L 189 189 M 410 630 L 410 94.5 L 346 63 M 441 536 L 472 598 L 441 630 L 441 63 L 504 31.5 M 441 662 L 504 598 L 472 536 L 472 94.5 L 536 63 L 567 63 M 346 63 L 378 63 L 441 31.5 L 472 0 L 504 31.5 L 567 63" />
<glyph unicode="5" glyph-name="five" horiz-adv-x="630" d="M 158 662 L 158 378 M 158 662 L 536 662 M 189 630 L 472 630 M 158 598 L 441 598 L 504 630 L 536 662 M 472 472 L 441 441 L 378 410 L 252 378 L 158 378 M 378 410 L 410 410 L 472 378 L 472 63 M 441 441 L 504 410 L 504 94.5 M 472 472 L 504 441 L 567 410 L 598 410 L 536 378 L 536 63 M 126 63 L 189 94.5 L 252 94.5 L 315 63 L 346 31.5 M 252 63 L 315 31.5 M 126 63 L 189 63 L 252 31.5 L 284 0 L 346 31.5 L 472 63 L 536 63" />
<glyph unicode="6" glyph-name="six" horiz-adv-x="630" d="M 158 598 L 158 94.5 L 94.5 63 M 189 567 L 189 94.5 L 284 31.5 M 220 598 L 220 94.5 L 284 63 L 315 31.5 M 158 598 L 220 598 L 346 630 L 410 662 L 441 630 L 504 598 L 536 598 M 378 630 L 441 598 M 346 630 L 410 567 L 472 567 L 536 598 M 220 346 L 252 346 L 378 378 L 441 410 L 472 441 M 378 378 L 410 378 L 472 346 L 472 63 M 441 410 L 504 346 L 504 94.5 M 472 441 L 504 410 L 567 378 L 598 378 L 536 346 L 536 63 M 94.5 63 L 158 63 L 220 31.5 L 252 0 L 315 31.5 L 472 63 L 536 63" />
<glyph unicode="7" glyph-name="seven" horiz-adv-x="630" d="M 126 598 L 189 662 L 284 630 L 441 630 L 598 662 M 158 630 L 252 598 L 410 598 L 504 630 M 126 598 L 252 567 L 346 567 L 472 598 L 598 662 M 598 662 L 567 598 L 504 504 L 378 378 L 315 284 L 284 189 L 284 94.5 L 315 0 M 346 315 L 315 220 L 315 126 L 346 31.5 M 441 441 L 378 346 L 346 252 L 346 158 L 378 63 L 315 0" />
<glyph unicode="8" glyph-name="eight" horiz-adv-x="630" d="M 158 567 L 158 378 M 189 536 L 189 410 M 220 567 L 220 378 M 158 567 L 220 567 L 378 598 L 441 630 L 472 662 M 378 598 L 410 598 L 472 567 L 472 378 M 441 630 L 504 598 L 504 410 M 472 662 L 504 630 L 567 598 L 598 598 L 536 567 L 536 378 M 158 378 L 220 378 L 472 284 L 536 284 M 536 378 L 472 378 L 220 284 L 158 284 M 158 284 L 158 94.5 L 94.5 63 M 189 252 L 189 94.5 L 284 31.5 M 220 284 L 220 94.5 L 284 63 L 315 31.5 M 472 284 L 472 63 M 504 252 L 504 94.5 M 536 284 L 536 63 M 94.5 63 L 158 63 L 220 31.5 L 252 0 L 315 31.5 L 472 63 L 536 63" />
<glyph unicode="9" glyph-name="nine" horiz-adv-x="630" d="M 158 598 L 158 315 L 94.5 284 M 189 567 L 189 284 L 252 252 M 220 598 L 220 315 L 284 284 L 315 284 M 158 598 L 220 598 L 378 630 L 441 662 M 378 630 L 410 598 L 472 567 L 472 63 M 410 630 L 504 567 L 504 94.5 M 441 662 L 472 630 L 536 598 L 598 598 L 536 567 L 536 63 M 94.5 284 L 126 284 L 189 252 L 220 220 L 252 252 L 315 284 L 441 315 L 472 315 M 126 63 L 189 94.5 L 252 94.5 L 315 63 L 346 31.5 M 252 63 L 315 31.5 M 126 63 L 189 63 L 252 31.5 L 284 0 L 346 31.5 L 472 63 L 536 63" />
<glyph unicode=":" glyph-name="colon" horiz-adv-x="378" d="M 220 441 L 158 378 L 220 346 L 284 378 L 220 441 M 220 410 L 189 378 L 252 378 L 220 410 M 220 94.5 L 158 31.5 L 220 0 L 284 31.5 L 220 94.5 M 220 63 L 189 31.5 L 252 31.5 L 220 63" />
<glyph unicode=";" glyph-name="semicolon" horiz-adv-x="378" d="M 220 441 L 158 378 L 220 346 L 284 378 L 220 441 M 220 410 L 189 378 L 252 378 L 220 410 M 220 -94.5 L 220 -31.5 L 158 31.5 L 220 94.5 L 252 31.5 L 252 -31.5 L 220 -94.5 L 158 -126 M 220 63 L 189 31.5 L 220 0 L 220 63" />
<glyph unicode="&#x3c;" glyph-name="less" horiz-adv-x="756" d="M 662 567 L 158 284 L 662 0" />
<glyph unicode="=" glyph-name="equal" horiz-adv-x="788" d="M 158 441 L 693 441 L 693 410 M 158 441 L 158 410 L 693 410 M 158 189 L 693 189 L 693 158 M 158 189 L 158 158 L 693 158" />
<glyph unicode="&#x3e;" glyph-name="greater" horiz-adv-x="756" d="M 158 567 L 662 284 L 158 0" />
<glyph unicode="?" glyph-name="question" horiz-adv-x="567" d="M 126 536 L 158 598 L 189 630 L 284 662 L 346 662 L 441 630 L 472 598 L 504 536 L 504 472 L 472 410 L 410 346 L 346 315 M 158 536 L 189 598 M 441 598 L 472 567 L 472 441 L 441 410 M 126 536 L 189 504 L 189 567 L 220 630 L 284 662 M 346 662 L 410 630 L 441 567 L 441 441 L 410 378 L 346 315 M 315 315 L 315 220 L 346 315 L 284 315 L 315 220 M 315 94.5 L 252 31.5 L 315 0 L 378 31.5 L 315 94.5 M 315 63 L 284 31.5 L 346 31.5 L 315 63" />
<glyph unicode="@" glyph-name="at" horiz-adv-x="850" d="M 598 410 L 567 472 L 504 504 L 410 504 L 346 472 L 315 441 L 284 346 L 284 252 L 315 189 L 378 158 L 472 158 L 536 189 L 567 252 M 410 504 L 346 441 L 315 346 L 315 252 L 346 189 L 378 158 M 598 504 L 567 252 L 567 189 L 630 158 L 693 158 L 756 220 L 788 315 L 788 378 L 756 472 L 724 536 L 662 598 L 598 630 L 504 662 L 410 662 L 315 630 L 252 598 L 189 536 L 158 472 L 126 378 L 126 284 L 158 189 L 189 126 L 252 63 L 315 31.5 L 410 0 L 504 0 L 598 31.5 L 662 63 L 693 94.5 M 630 504 L 598 252 L 598 189 L 630 158" />
<glyph unicode="A" glyph-name="A" horiz-adv-x="693" d="M 189 567 L 252 630 L 315 662 L 378 662 L 410 630 L 630 126 L 662 94.5 L 724 94.5 M 346 630 L 378 598 L 598 94.5 L 630 31.5 L 662 63 L 598 94.5 M 252 630 L 315 630 L 346 598 L 567 94.5 L 598 31.5 L 630 0 L 662 0 L 724 94.5 M 189 441 L 220 472 L 284 504 L 315 504 L 346 472 M 315 472 L 315 441 M 220 472 L 284 472 L 315 410 M 31.5 0 L 94.5 63 L 158 94.5 L 252 94.5 L 315 63 M 126 63 L 252 63 L 284 31.5 M 31.5 0 L 126 31.5 L 220 31.5 L 252 0 L 315 63 M 378 536 L 189 94.5 M 252 252 L 504 252" />
<glyph unicode="B" glyph-name="B" horiz-adv-x="756" d="M 94.5 598 L 158 662 L 252 662 L 315 630 L 378 662 M 189 630 L 284 630 M 94.5 598 L 158 630 L 220 598 L 315 598 L 378 662 M 252 504 L 220 472 L 189 410 L 189 378 L 126 378 L 94.5 346 L 94.5 284 L 126 315 L 189 315 L 189 126 M 220 441 L 220 189 M 126 346 L 220 346 M 252 504 L 252 220 L 220 158 L 189 126 M 410 567 L 378 536 L 346 472 L 346 189 M 378 504 L 378 252 M 410 567 L 410 284 L 378 220 L 346 189 M 410 567 L 598 662 L 662 630 L 693 567 L 693 504 L 630 441 L 504 378 M 598 630 L 662 567 L 662 504 M 536 630 L 598 598 L 630 567 L 630 472 L 567 410 M 567 410 L 662 346 L 693 284 L 693 94.5 M 630 346 L 662 284 L 662 126 M 567 410 L 598 378 L 630 315 L 630 94.5 M 158 0 L 252 63 L 346 94.5 L 472 94.5 L 567 63 M 220 31.5 L 315 63 L 472 63 L 536 31.5 M 158 0 L 284 31.5 L 441 31.5 L 504 0 L 567 63 L 630 94.5 L 693 94.5 M 504 378 L 504 94.5 M 504 284 L 630 284 M 504 189 L 630 189" />
<glyph unicode="C" glyph-name="C" horiz-adv-x="756" d="M 315 630 L 252 598 L 189 536 L 158 472 L 126 378 L 126 252 L 158 158 L 189 94.5 L 284 31.5 L 378 0 L 472 0 L 567 31.5 L 630 63 L 693 126 L 724 189 M 189 504 L 158 410 L 158 252 L 220 126 L 315 63 L 410 31.5 L 504 31.5 L 598 63 M 315 630 L 252 567 L 220 504 L 189 410 L 189 284 L 220 189 L 315 94.5 L 410 63 L 504 63 L 598 94.5 L 662 126 L 724 189 M 378 536 L 378 158 M 410 536 L 410 220 M 441 567 L 441 252 L 410 189 L 378 158 M 378 536 L 441 567 L 536 662 L 598 630 L 662 630 L 693 662 M 504 630 L 567 598 L 630 598 M 472 598 L 536 567 L 598 567 L 662 598 L 693 662 M 598 567 L 598 94.5" />
<glyph unicode="D" glyph-name="D" horiz-adv-x="724" d="M 94.5 662 L 536 662 L 598 630 L 630 567 L 630 94.5 M 158 630 L 536 630 L 598 567 L 598 126 M 94.5 662 L 126 630 L 189 598 L 536 598 L 567 567 L 567 94.5 M 284 504 L 252 472 L 220 410 L 220 378 L 158 378 L 126 346 L 126 284 L 158 315 L 220 315 L 220 158 M 252 441 L 252 220 M 158 346 L 252 346 M 284 504 L 284 252 L 252 189 L 220 158 M 94.5 0 L 189 63 L 284 94.5 L 410 94.5 L 504 63 M 158 31.5 L 252 63 L 410 63 L 472 31.5 M 94.5 0 L 220 31.5 L 378 31.5 L 441 0 L 504 63 L 567 94.5 L 630 94.5 M 378 598 L 378 94.5 M 378 441 L 441 410 L 504 410 L 567 441 M 378 252 L 441 284 L 504 284 L 567 252" />
<glyph unicode="E" glyph-name="E" horiz-adv-x="693" d="M 94.5 598 L 158 662 L 220 662 L 284 630 L 346 662 M 189 630 L 252 630 M 94.5 598 L 158 630 L 220 598 L 284 598 L 346 662 M 252 504 L 220 472 L 189 410 L 189 378 L 126 378 L 94.5 346 L 94.5 284 L 126 315 L 189 315 L 189 126 M 220 441 L 220 189 M 126 346 L 220 346 M 252 504 L 252 220 L 220 158 L 189 126 M 346 441 L 378 536 L 410 598 L 441 630 L 504 662 L 567 662 L 662 630 M 441 598 L 504 630 L 567 630 L 630 598 M 378 536 L 410 567 L 472 598 L 536 598 L 598 567 L 662 630 M 346 189 L 378 284 L 410 346 L 441 378 L 504 378 L 567 346 M 441 346 L 504 346 L 536 315 M 378 284 L 410 315 L 472 315 L 504 284 L 567 346 M 158 0 L 252 63 L 378 94.5 L 536 94.5 L 662 63 M 220 31.5 L 315 63 L 536 63 L 630 31.5 M 158 0 L 284 31.5 L 504 31.5 L 598 0 L 662 63 M 346 441 L 346 94.5" />
<glyph unicode="F" glyph-name="F" horiz-adv-x="724" d="M 158 598 L 220 662 L 315 662 L 378 630 L 441 662 M 252 630 L 346 630 M 158 598 L 220 630 L 284 598 L 378 598 L 441 662 M 346 504 L 315 472 L 284 410 L 284 378 L 220 378 L 189 346 L 189 284 L 220 315 L 284 315 L 284 158 M 315 441 L 315 220 M 220 346 L 315 346 M 346 504 L 346 252 L 315 189 L 284 158 M 441 536 L 441 63 L 410 31.5 L 378 31.5 L 252 94.5 L 189 94.5 L 126 63 L 63 0 M 472 536 L 472 94.5 M 472 346 L 598 346 M 346 31.5 L 315 31.5 L 252 63 L 158 63 M 504 567 L 504 378 L 598 378 M 598 315 L 504 315 L 504 126 L 472 63 L 346 0 L 284 0 L 220 31.5 L 158 31.5 L 63 0 M 441 536 L 504 567 L 598 662 L 662 630 L 724 630 L 756 662 M 567 630 L 630 598 L 693 598 M 536 598 L 598 567 L 662 567 L 724 598 L 756 662 M 598 567 L 598 126" />
<glyph unicode="G" glyph-name="G" horiz-adv-x="788" d="M 315 630 L 252 598 L 189 536 L 158 472 L 126 378 L 126 284 L 158 189 L 189 126 L 252 63 L 315 31.5 L 410 0 L 536 0 L 630 31.5 L 693 94.5 L 724 158 L 724 252 L 693 315 L 662 346 L 598 378 L 536 378 M 189 504 L 158 410 L 158 252 L 189 158 M 315 630 L 252 567 L 220 504 L 189 410 L 189 252 L 220 158 L 252 94.5 L 315 31.5 M 662 94.5 L 693 126 L 693 252 L 662 315 M 536 0 L 598 31.5 L 630 63 L 662 126 L 662 252 L 630 315 L 598 346 L 536 378 M 378 536 L 378 126 M 410 536 L 410 189 M 441 567 L 441 220 L 410 158 L 378 126 M 378 536 L 441 567 L 536 662 L 598 630 L 662 630 L 693 662 M 504 630 L 567 598 L 630 598 M 472 598 L 536 567 L 598 567 L 662 598 L 693 662 M 662 598 L 536 378 L 536 0 M 536 252 L 662 252 M 536 158 L 662 158" />
<glyph unicode="H" glyph-name="H" horiz-adv-x="756" d="M 94.5 598 L 158 662 L 252 662 L 315 630 L 378 662 M 189 630 L 284 630 M 94.5 598 L 158 630 L 220 598 L 315 598 L 378 662 M 252 504 L 220 472 L 189 410 L 189 378 L 126 378 L 94.5 346 L 94.5 284 L 126 315 L 189 315 L 189 126 M 220 441 L 220 189 M 126 346 L 220 346 M 252 504 L 252 220 L 220 158 L 189 126 M 158 0 L 252 63 L 346 94.5 L 441 94.5 L 504 63 M 220 31.5 L 315 63 L 410 63 L 472 31.5 M 158 0 L 284 31.5 L 378 31.5 L 441 0 L 504 63 M 410 567 L 378 536 L 346 472 L 346 189 M 378 504 L 378 252 M 410 567 L 410 284 L 378 220 L 346 189 M 410 567 L 472 630 L 536 662 L 598 662 L 662 630 M 567 630 L 598 630 L 630 598 M 472 630 L 536 630 L 598 567 L 662 630 M 504 378 L 567 410 L 630 472 L 662 441 L 693 346 L 693 220 L 662 94.5 L 598 0 M 598 441 L 630 410 L 662 346 L 662 189 L 630 94.5 M 567 410 L 598 410 L 630 346 L 630 189 L 598 0 M 504 378 L 504 63 M 504 284 L 630 284 M 504 189 L 630 189" />
<glyph unicode="I" glyph-name="I" horiz-adv-x="598" d="M 126 598 L 189 662 L 284 662 L 378 630 L 441 662 M 220 630 L 346 630 M 126 598 L 189 630 L 284 598 L 378 598 L 441 662 M 346 504 L 315 472 L 284 410 L 284 378 L 220 378 L 189 346 L 189 284 L 220 315 L 284 315 L 284 158 M 315 441 L 315 220 M 220 346 L 315 346 M 346 504 L 346 252 L 315 189 L 284 158 M 536 598 L 472 536 L 441 441 L 441 94.5 L 410 31.5 L 346 31.5 L 220 94.5 L 158 94.5 L 94.5 63 L 31.5 0 M 472 504 L 472 126 M 315 31.5 L 284 31.5 L 220 63 L 126 63 M 536 598 L 504 536 L 504 158 L 472 94.5 L 410 31.5 L 346 0 L 252 0 L 189 31.5 L 94.5 31.5 L 31.5 0" />
<glyph unicode="J" glyph-name="J" horiz-adv-x="630" d="M 158 598 L 220 662 L 315 662 L 410 630 L 472 662 M 252 630 L 378 630 M 158 598 L 220 630 L 315 598 L 410 598 L 472 662 M 378 504 L 346 472 L 315 410 L 315 378 L 252 378 L 220 346 L 220 284 L 252 315 L 315 315 L 315 158 M 346 441 L 346 220 M 252 346 L 346 346 M 378 504 L 378 252 L 346 189 L 315 158 M 567 598 L 504 536 L 472 441 L 472 94.5 L 441 31.5 M 504 504 L 504 126 M 567 598 L 536 536 L 536 158 L 504 94.5 L 441 31.5 L 346 0 L 252 0 L 158 31.5 L 94.5 94.5 L 94.5 158 L 126 189 L 158 189 L 189 158 L 158 126 L 126 126 M 94.5 158 L 189 158" />
<glyph unicode="K" glyph-name="K" horiz-adv-x="756" d="M 94.5 598 L 158 662 L 252 662 L 315 630 L 378 662 M 189 630 L 284 630 M 94.5 598 L 158 630 L 220 598 L 315 598 L 378 662 M 252 504 L 220 472 L 189 410 L 189 378 L 126 378 L 94.5 346 L 94.5 284 L 126 315 L 189 315 L 189 126 M 220 441 L 220 189 M 126 346 L 220 346 M 252 504 L 252 220 L 220 158 L 189 126 M 158 0 L 252 63 L 346 94.5 L 441 94.5 L 504 63 M 220 31.5 L 284 63 L 410 63 L 472 31.5 M 158 0 L 284 31.5 L 378 31.5 L 441 0 L 504 63 M 410 567 L 378 536 L 346 472 L 346 189 M 378 504 L 378 252 M 410 567 L 410 284 L 378 220 L 346 189 M 410 567 L 472 630 L 536 662 L 598 662 L 662 630 M 567 630 L 598 630 L 630 598 M 472 630 L 536 630 L 598 567 L 662 630 M 504 378 L 598 472 L 630 441 L 693 410 M 567 441 L 630 410 L 693 410 M 693 410 L 630 315 L 567 252 L 504 189 M 567 252 L 630 220 L 662 94.5 L 693 31.5 L 724 31.5 M 630 158 L 662 31.5 M 567 252 L 598 220 L 630 31.5 L 662 0 L 693 0 L 724 31.5 M 504 378 L 504 63" />
<glyph unicode="L" glyph-name="L" horiz-adv-x="693" d="M 94.5 598 L 158 662 L 252 662 L 315 630 L 378 662 M 189 630 L 284 630 M 94.5 598 L 158 630 L 220 598 L 315 598 L 378 662 M 252 504 L 220 472 L 189 410 L 189 378 L 126 378 L 94.5 346 L 94.5 284 L 126 315 L 189 315 L 189 126 M 220 441 L 220 189 M 126 346 L 220 346 M 252 504 L 252 220 L 220 158 L 189 126 M 158 0 L 252 63 L 378 94.5 L 536 94.5 L 662 63 M 220 31.5 L 315 63 L 536 63 L 630 31.5 M 158 0 L 284 31.5 L 504 31.5 L 598 0 L 662 63 M 410 567 L 378 536 L 346 472 L 346 189 M 378 504 L 378 252 M 410 567 L 410 284 L 378 220 L 346 189 M 410 567 L 472 630 L 536 662 L 598 662 L 662 630 M 567 630 L 598 630 L 630 598 M 472 630 L 536 630 L 598 567 L 662 630 M 536 630 L 536 94.5" />
<glyph unicode="M" glyph-name="M" horiz-adv-x="882" d="M 284 536 L 252 504 L 220 441 L 220 378 L 158 378 L 126 346 L 126 284 L 158 315 L 220 315 L 220 189 M 252 472 L 252 252 M 158 346 L 252 346 M 284 536 L 284 284 L 252 220 L 220 189 M 63 0 L 126 63 L 189 94.5 L 252 94.5 L 315 63 L 346 63 L 378 94.5 M 158 63 L 252 63 L 315 31.5 M 63 0 L 126 31.5 L 220 31.5 L 284 0 L 315 0 L 346 31.5 L 378 94.5 M 284 536 L 410 662 L 536 536 L 536 126 L 567 63 L 598 63 M 410 630 L 504 536 L 504 94.5 L 472 63 L 504 31.5 L 536 63 L 504 94.5 M 410 346 L 504 346 M 346 598 L 378 598 L 472 504 L 472 378 L 378 378 M 378 315 L 472 315 L 472 94.5 L 441 63 L 504 0 L 598 63 L 630 94.5 M 536 536 L 662 662 L 788 536 L 788 126 L 819 63 L 850 63 M 662 630 L 756 536 L 756 94.5 L 819 31.5 M 662 346 L 756 346 M 598 598 L 630 598 L 724 504 L 724 378 L 630 378 M 630 315 L 724 315 L 724 63 L 788 0 L 850 63 M 378 598 L 378 94.5 M 630 598 L 630 94.5" />
<glyph unicode="N" glyph-name="N" horiz-adv-x="788" d="M 94.5 567 L 158 630 L 220 662 L 284 662 L 346 630 L 410 536 L 567 189 L 630 94.5 L 662 63 M 284 630 L 346 567 L 378 504 L 567 126 L 662 31.5 M 158 630 L 220 630 L 284 598 L 346 504 L 504 158 L 567 63 L 598 31.5 L 662 0 M 567 598 L 630 567 L 693 567 L 756 598 L 788 662 M 598 630 L 662 598 L 724 598 M 567 598 L 630 662 L 693 630 L 756 630 L 788 662 M 220 378 L 158 378 L 126 346 L 126 284 L 158 315 L 220 315 M 158 346 L 220 346 M 94.5 0 L 158 63 L 220 94.5 L 315 94.5 L 378 63 M 189 63 L 284 63 L 346 31.5 M 94.5 0 L 189 31.5 L 284 31.5 L 315 0 L 378 63 M 220 630 L 220 94.5 M 662 567 L 662 0 M 441 472 L 472 441 L 536 410 L 598 410 L 662 441 M 220 220 L 284 252 L 410 252 L 472 220" />
<glyph unicode="O" glyph-name="O" horiz-adv-x="819" d="M 315 662 L 252 630 L 189 567 L 158 504 L 126 410 L 126 284 L 158 189 L 189 126 L 252 63 L 315 31.5 L 410 0 L 472 0 L 567 31.5 L 630 63 L 693 126 L 724 189 L 756 284 L 756 410 L 724 504 L 693 567 L 630 630 L 567 662 L 536 630 L 441 567 L 346 536 M 189 536 L 158 441 L 158 252 L 189 158 M 315 662 L 252 598 L 220 536 L 189 441 L 189 252 L 220 158 L 252 94.5 L 315 31.5 M 693 158 L 724 252 L 724 441 L 662 567 L 630 598 M 567 31.5 L 630 94.5 L 662 158 L 693 252 L 693 441 L 662 504 L 598 598 L 536 630 M 346 536 L 346 126 M 378 536 L 378 189 M 410 536 L 410 220 L 378 158 L 346 126 M 536 630 L 536 31.5 M 536 441 L 598 410 L 630 410 L 693 441 M 536 252 L 598 284 L 630 284 L 693 252" />
<glyph unicode="P" glyph-name="P" horiz-adv-x="693" d="M 126 662 L 158 630 L 189 567 L 189 378 L 126 378 L 94.5 346 L 94.5 284 L 126 315 L 189 315 L 189 63 L 94.5 0 L 189 31.5 L 189 -220 L 252 -158 M 189 598 L 220 536 L 220 -158 M 126 346 L 220 346 M 126 662 L 189 630 L 220 598 L 252 536 L 252 -158 M 252 504 L 346 567 L 472 662 L 598 536 L 598 94.5 M 472 630 L 567 536 L 567 94.5 M 410 598 L 441 598 L 536 504 L 536 63 M 346 94.5 L 441 94.5 L 536 63 M 378 63 L 441 63 L 504 31.5 M 346 31.5 L 410 31.5 L 472 0 L 536 63 L 598 94.5 M 346 567 L 346 -126 M 346 441 L 410 410 L 472 410 L 536 441 M 346 252 L 410 284 L 472 284 L 536 252" />
<glyph unicode="Q" glyph-name="Q" horiz-adv-x="819" d="M 315 662 L 252 630 L 189 567 L 158 504 L 126 410 L 126 284 L 158 189 L 189 126 L 252 63 L 315 31.5 L 378 0 L 504 0 L 567 31.5 L 630 63 L 693 126 L 724 189 L 756 284 L 756 410 L 724 504 L 693 567 L 630 630 L 567 662 L 536 630 L 441 567 L 346 536 M 189 536 L 158 441 L 158 252 L 189 158 M 315 662 L 252 598 L 220 536 L 189 441 L 189 252 L 220 158 L 252 94.5 L 315 31.5 M 693 158 L 724 252 L 724 441 L 662 567 L 630 598 M 567 31.5 L 630 94.5 L 662 158 L 693 252 L 693 441 L 662 504 L 598 598 L 536 630 M 346 536 L 346 126 M 378 536 L 378 189 M 410 536 L 410 220 L 378 158 L 346 126 M 536 630 L 536 31.5 M 536 441 L 598 410 L 630 410 L 693 441 M 536 252 L 598 284 L 630 284 L 693 252 M 378 0 L 410 31.5 L 441 31.5 L 504 0 L 630 -158 L 693 -189 L 724 -189 M 504 -31.5 L 567 -126 L 630 -189 L 662 -189 M 441 31.5 L 472 0 L 567 -189 L 630 -220 L 693 -220 L 724 -189" />
<glyph unicode="R" glyph-name="R" horiz-adv-x="756" d="M 94.5 598 L 158 662 L 252 662 L 315 630 L 378 662 M 189 630 L 284 630 M 94.5 598 L 158 630 L 220 598 L 315 598 L 378 662 M 252 504 L 220 472 L 189 410 L 189 378 L 126 378 L 94.5 346 L 94.5 284 L 126 315 L 189 315 L 189 126 M 220 441 L 220 189 M 126 346 L 220 346 M 252 504 L 252 220 L 220 158 L 189 126 M 158 0 L 252 63 L 346 94.5 L 410 94.5 L 504 63 M 220 31.5 L 284 63 L 410 63 L 472 31.5 M 158 0 L 284 31.5 L 378 31.5 L 441 0 L 504 63 M 410 567 L 378 536 L 346 472 L 346 189 M 378 504 L 378 252 M 410 567 L 410 284 L 378 220 L 346 189 M 410 567 L 504 630 L 567 662 L 630 630 L 662 567 L 662 472 L 630 410 L 598 378 L 472 315 L 410 284 M 567 630 L 598 630 L 630 567 L 630 441 L 598 410 M 504 630 L 567 598 L 598 536 L 598 441 L 567 378 L 472 315 M 472 315 L 536 284 L 567 252 L 662 94.5 L 693 63 L 724 63 M 567 220 L 630 94.5 L 693 31.5 M 472 315 L 536 252 L 598 63 L 662 0 L 724 63" />
<glyph unicode="S" glyph-name="S" horiz-adv-x="724" d="M 472 567 L 441 598 L 378 630 L 284 662 M 504 598 L 441 630 M 536 630 L 410 662 L 284 662 L 189 630 L 158 598 L 126 536 L 158 472 L 189 441 L 284 410 L 536 410 L 598 378 L 630 346 L 630 284 L 598 189 M 158 504 L 189 472 L 284 441 L 567 441 L 630 410 L 662 378 L 662 315 L 630 252 M 158 598 L 158 536 L 189 504 L 284 472 L 598 472 L 662 441 L 693 378 L 693 315 L 598 189 L 472 0 M 94.5 378 L 126 346 L 189 315 L 472 315 L 504 284 L 504 252 L 472 189 M 126 315 L 189 284 L 441 284 L 472 252 M 94.5 378 L 94.5 346 L 126 284 L 189 252 L 410 252 L 472 220 L 472 189 M 94.5 0 L 189 63 L 315 94.5 L 410 94.5 L 504 63 M 158 31.5 L 252 63 L 378 63 L 472 31.5 M 94.5 0 L 220 31.5 L 378 31.5 L 472 0 M 536 630 L 472 567 L 410 472 M 378 410 L 315 315 M 284 252 L 220 189 L 158 158 L 126 158 L 126 189 L 158 158" />
<glyph unicode="T" glyph-name="T" horiz-adv-x="756" d="M 189 536 L 158 472 L 126 378 L 126 252 L 158 158 L 220 63 L 284 31.5 L 378 0 L 472 0 L 567 31.5 L 630 63 L 693 126 L 724 189 M 158 252 L 189 158 L 252 94.5 L 315 63 L 410 31.5 L 504 31.5 L 598 63 M 189 536 L 158 441 L 158 315 L 189 220 L 252 126 L 315 94.5 L 410 63 L 504 63 L 598 94.5 L 662 126 L 724 189 M 126 567 L 158 630 L 220 662 L 346 662 L 536 630 L 662 630 L 724 662 M 378 630 L 504 598 L 630 598 M 126 567 L 158 598 L 220 630 L 315 630 L 504 567 L 598 567 L 662 598 L 724 662 M 472 567 L 441 536 L 378 504 L 378 158 M 410 504 L 410 220 M 441 536 L 441 252 L 410 189 L 378 158 M 598 567 L 598 94.5" />
<glyph unicode="U" glyph-name="U" horiz-adv-x="756" d="M 94.5 598 L 158 662 L 220 662 L 315 630 L 378 662 M 189 630 L 284 630 M 94.5 598 L 158 630 L 252 598 L 315 598 L 378 662 M 189 536 L 158 472 L 126 378 L 126 252 L 158 158 L 189 94.5 L 252 31.5 L 346 0 L 441 0 L 536 31.5 L 598 63 L 662 0 L 724 63 M 158 252 L 189 158 L 284 63 L 378 31.5 L 472 31.5 M 189 536 L 158 410 L 158 315 L 189 220 L 220 158 L 284 94.5 L 378 63 L 504 63 L 598 94.5 M 504 567 L 378 536 L 346 472 L 346 158 M 378 504 L 378 220 M 410 536 L 410 252 L 378 189 L 346 158 M 504 567 L 567 598 L 630 662 L 662 630 L 724 598 L 662 567 L 662 126 L 693 63 L 724 63 M 630 567 L 662 598 L 630 630 L 598 598 L 630 567 L 630 94.5 L 693 31.5 M 567 598 L 598 567 L 598 94.5 M 504 567 L 504 63 M 504 410 L 598 410 M 504 284 L 598 284" />
<glyph unicode="V" glyph-name="V" horiz-adv-x="724" d="M 126 662 L 158 630 L 189 567 L 189 378 L 126 378 L 94.5 346 L 94.5 284 L 126 315 L 189 315 L 189 94.5 L 126 63 M 189 598 L 220 536 L 220 94.5 M 126 346 L 220 346 M 252 63 L 346 63 L 410 31.5 M 126 662 L 189 630 L 220 598 L 252 536 L 252 94.5 L 378 94.5 L 472 63 M 126 63 L 220 63 L 315 31.5 L 378 0 L 472 63 L 567 94.5 L 630 94.5 M 378 536 L 472 567 L 536 598 L 598 662 L 630 630 L 693 598 L 630 567 L 630 94.5 M 598 567 L 630 598 L 598 630 L 567 598 L 598 567 L 598 126 M 536 598 L 567 567 L 567 94.5 M 378 536 L 378 94.5 M 378 441 L 441 410 L 504 410 L 567 441 M 378 252 L 441 284 L 504 284 L 567 252" />
<glyph unicode="W" glyph-name="W" horiz-adv-x="850" d="M 126 662 L 158 630 L 189 567 L 189 378 L 126 378 L 94.5 346 L 94.5 284 L 126 315 L 189 315 L 189 94.5 L 126 63 M 189 598 L 220 536 L 220 94.5 M 126 346 L 220 346 M 252 63 L 315 63 L 378 31.5 M 126 662 L 189 630 L 220 598 L 252 536 L 252 94.5 L 346 94.5 L 410 63 M 126 63 L 220 63 L 315 31.5 L 346 0 L 410 63 L 504 94.5 L 567 63 L 598 0 L 662 63 L 756 94.5 M 346 598 L 441 662 L 504 598 L 504 94.5 L 598 94.5 L 662 63 M 441 630 L 472 598 L 472 94.5 M 346 598 L 410 598 L 441 567 L 441 94.5 L 410 63 M 598 63 L 630 31.5 M 598 598 L 693 662 L 756 598 L 756 94.5 M 693 630 L 724 598 L 724 94.5 M 598 598 L 662 598 L 693 567 L 693 94.5 L 662 63 M 346 598 L 346 94.5 M 598 598 L 598 94.5 M 346 410 L 441 410 M 346 284 L 441 284 M 598 410 L 693 410 M 598 284 L 693 284" />
<glyph unicode="X" glyph-name="X" horiz-adv-x="693" d="M 63 567 L 126 630 L 189 662 L 252 662 L 284 630 L 536 63 L 567 31.5 L 630 31.5 M 220 630 L 252 598 L 504 63 L 536 31.5 M 126 630 L 189 630 L 220 598 L 472 31.5 L 504 0 L 567 0 L 630 31.5 L 693 94.5 M 536 662 L 598 630 L 662 630 L 693 662 M 536 630 L 567 598 L 630 598 M 504 598 L 536 567 L 598 567 L 662 598 L 693 662 M 63 0 L 94.5 63 L 158 94.5 L 220 94.5 L 252 63 M 126 63 L 189 63 L 220 31.5 M 63 0 L 94.5 31.5 L 158 31.5 L 220 0 M 536 662 L 410 378 M 346 284 L 220 0 M 189 346 L 315 346 M 410 346 L 567 346" />
<glyph unicode="Y" glyph-name="Y" horiz-adv-x="724" d="M 126 662 L 158 630 L 189 567 L 189 378 L 126 378 L 94.5 346 L 94.5 284 L 126 315 L 189 315 L 189 94.5 L 126 63 M 189 598 L 220 536 L 220 94.5 M 126 346 L 220 346 M 252 63 L 346 63 L 410 31.5 M 126 662 L 189 630 L 220 598 L 252 536 L 252 94.5 L 378 94.5 L 472 63 M 126 63 L 220 63 L 315 31.5 L 378 0 L 472 63 L 567 94.5 M 378 536 L 472 567 L 536 598 L 598 662 L 630 630 L 693 598 L 630 567 L 630 -94.5 L 598 -158 L 536 -220 L 472 -189 L 346 -158 L 189 -158 M 598 567 L 630 598 L 598 630 L 567 598 L 598 567 L 598 63 M 536 598 L 567 567 L 567 94.5 L 630 0 M 567 -189 L 504 -158 L 410 -158 M 598 -158 L 504 -126 L 315 -126 L 189 -158 M 378 536 L 378 94.5 M 378 441 L 441 410 L 504 410 L 567 441 M 378 252 L 441 284 L 504 284 L 567 252" />
<glyph unicode="Z" glyph-name="Z" horiz-adv-x="630" d="M 536 630 L 504 567 L 346 378 L 252 252 L 189 126 L 94.5 0 M 472 504 L 220 158 M 598 662 L 504 536 L 441 410 L 346 284 L 189 94.5 L 158 31.5 M 94.5 598 L 158 662 L 252 630 L 441 630 L 598 662 M 126 630 L 252 598 L 378 598 L 504 630 M 94.5 598 L 220 567 L 346 567 L 472 598 L 536 630 M 158 31.5 L 220 63 L 346 94.5 L 472 94.5 L 598 63 M 189 31.5 L 315 63 L 441 63 L 567 31.5 M 94.5 0 L 252 31.5 L 441 31.5 L 536 0 L 598 63 M 189 346 L 315 346 M 410 346 L 536 346" />
<glyph unicode="[" glyph-name="bracketleft" horiz-adv-x="441" d="M 158 788 L 158 -220 M 189 788 L 189 -220 M 158 788 L 378 788 M 158 -220 L 378 -220" />
<glyph unicode="\" glyph-name="backslash" horiz-adv-x="441" d="M 31.5 662 L 472 -94.5" />
<glyph unicode="]" glyph-name="bracketright" horiz-adv-x="441" d="M 315 788 L 315 -220 M 346 788 L 346 -220 M 126 788 L 346 788 M 126 -220 L 346 -220" />
<glyph unicode="^" glyph-name="asciicircum" horiz-adv-x="693" d="M 126 220 L 378 378 L 630 220 M 126 220 L 378 346 L 630 220" />
<glyph unicode="_" glyph-name="underscore" horiz-adv-x="693" d="M 31.5 -220 L 724 -220" />
<glyph unicode="`" glyph-name="grave" horiz-adv-x="378" d="M 158 662 L 315 472 M 158 662 L 126 630 L 315 472" />
<glyph unicode="a" glyph-name="a" horiz-adv-x="536" d="M 220 284 L 158 220 L 126 158 L 126 94.5 L 158 31.5 L 220 0 L 284 63 L 378 94.5 M 126 158 L 158 94.5 L 189 63 L 252 31.5 M 158 220 L 158 158 L 189 94.5 L 252 63 L 284 63 M 158 346 L 220 346 L 315 378 L 378 410 L 410 441 L 472 378 L 441 346 L 441 94.5 L 472 63 L 504 63 M 189 410 L 158 378 L 252 378 M 346 378 L 441 378 L 410 410 L 410 63 L 441 31.5 M 126 378 L 189 441 L 220 410 L 284 378 L 378 346 L 378 63 L 441 0 L 504 63 M 126 378 L 284 220" />
<glyph unicode="b" glyph-name="b" horiz-adv-x="567" d="M 126 598 L 158 536 L 158 94.5 L 94.5 63 M 189 536 L 158 598 L 189 630 L 189 94.5 L 284 31.5 M 126 598 L 220 662 L 220 94.5 L 284 63 L 315 31.5 M 94.5 63 L 158 63 L 220 31.5 L 252 0 L 315 31.5 L 410 63 L 472 63 M 220 346 L 315 378 L 378 410 L 410 441 L 441 410 L 504 378 L 536 378 L 472 346 L 472 63 M 378 410 L 441 378 L 441 94.5 M 315 378 L 346 378 L 410 346 L 410 63" />
<glyph unicode="c" glyph-name="c" horiz-adv-x="441" d="M 158 378 L 158 94.5 L 94.5 63 L 126 63 L 189 31.5 L 220 0 M 189 378 L 189 63 L 252 31.5 M 220 378 L 220 94.5 L 284 63 L 315 63 L 252 31.5 L 220 0 M 158 378 L 284 410 L 346 441 L 378 410 L 441 378 L 472 378 M 315 410 L 346 378 L 410 378 M 220 378 L 284 410 L 346 346 L 410 346 L 472 378" />
<glyph unicode="d" glyph-name="d" horiz-adv-x="536" d="M 315 441 L 252 410 L 158 378 L 158 94.5 L 94.5 63 M 189 378 L 189 94.5 L 284 31.5 M 315 441 L 220 378 L 220 94.5 L 284 63 L 315 31.5 M 94.5 63 L 158 63 L 220 31.5 L 252 0 L 315 31.5 L 410 63 L 472 63 M 158 598 L 252 662 L 284 567 L 472 378 L 472 63 M 252 567 L 189 598 L 220 630 L 252 567 L 441 378 L 441 94.5 M 158 598 L 410 346 L 410 63" />
<glyph unicode="e" glyph-name="e" horiz-adv-x="441" d="M 158 378 L 158 94.5 L 94.5 63 L 126 63 L 189 31.5 L 220 0 M 189 378 L 189 63 L 252 31.5 M 220 378 L 220 94.5 L 284 63 L 315 63 L 252 31.5 L 220 0 M 158 378 L 284 410 L 346 441 L 441 315 L 378 284 L 220 189 M 315 410 L 410 315 M 220 378 L 284 410 L 378 284" />
<glyph unicode="f" glyph-name="f" horiz-adv-x="410" d="M 158 598 L 158 94.5 L 94.5 63 L 126 63 L 189 31.5 L 220 0 M 189 598 L 189 63 L 252 31.5 M 220 598 L 220 94.5 L 284 63 L 315 63 L 252 31.5 L 220 0 M 158 598 L 252 630 L 315 662 L 346 630 L 410 598 L 441 598 M 284 630 L 315 598 L 378 598 M 220 598 L 252 630 L 315 567 L 378 567 L 441 598 M 63 441 L 158 441 M 220 441 L 346 441" />
<glyph unicode="g" glyph-name="g" horiz-adv-x="567" d="M 158 378 L 158 94.5 L 94.5 63 L 126 63 L 189 31.5 L 220 0 L 252 31.5 L 315 63 L 410 94.5 M 189 346 L 189 63 L 252 31.5 M 220 378 L 220 94.5 L 284 63 L 315 63 M 158 378 L 220 378 L 315 410 L 378 441 L 410 410 L 472 378 L 536 378 L 472 346 L 472 -31.5 L 441 -126 L 378 -189 L 315 -220 L 284 -189 L 220 -158 L 158 -158 M 346 410 L 441 346 L 441 -31.5 M 346 -189 L 284 -158 L 252 -158 M 315 410 L 346 378 L 410 346 L 410 31.5 L 441 -63 L 441 -126 M 378 -189 L 346 -158 L 284 -126 L 220 -126 L 158 -158" />
<glyph unicode="h" glyph-name="h" horiz-adv-x="567" d="M 126 598 L 158 536 L 158 94.5 L 94.5 63 L 126 63 L 189 31.5 L 220 0 M 189 536 L 158 598 L 189 630 L 189 63 L 252 31.5 M 126 598 L 220 662 L 220 94.5 L 284 63 L 220 0 M 220 346 L 315 378 L 378 410 L 410 441 L 441 410 L 504 378 L 536 378 L 472 346 L 472 63 L 410 0 L 378 -63 M 378 410 L 441 378 L 441 63 L 410 0 M 315 378 L 346 378 L 410 346 L 410 63 L 378 -63 L 378 -158 L 410 -220 L 441 -220 L 378 -158" />
<glyph unicode="i" glyph-name="i" horiz-adv-x="315" d="M 189 662 L 126 598 L 189 567 L 252 598 L 189 662 M 189 630 L 158 598 L 220 598 L 189 630 M 189 441 L 158 410 L 94.5 378 L 158 346 L 158 63 L 220 0 L 284 63 M 189 346 L 220 378 L 189 410 L 158 378 L 189 346 L 189 63 L 220 31.5 M 189 441 L 220 410 L 284 378 L 220 346 L 220 94.5 L 252 63 L 284 63" />
<glyph unicode="j" glyph-name="j" horiz-adv-x="315" d="M 189 662 L 126 598 L 189 567 L 252 598 L 189 662 M 189 630 L 158 598 L 220 598 L 189 630 M 189 441 L 158 410 L 94.5 378 L 158 346 L 158 63 L 220 0 L 252 -63 M 189 346 L 220 378 L 189 410 L 158 378 L 189 346 L 189 63 L 220 0 M 189 441 L 220 410 L 284 378 L 220 346 L 220 63 L 252 -63 L 252 -158 L 189 -220 L 126 -220 L 126 -189 L 189 -220" />
<glyph unicode="k" glyph-name="k" horiz-adv-x="536" d="M 126 598 L 158 536 L 158 94.5 L 94.5 63 L 126 63 L 189 31.5 L 220 0 M 189 536 L 158 598 L 189 630 L 189 63 L 252 31.5 M 126 598 L 220 662 L 220 94.5 L 284 63 L 220 0 M 220 346 L 315 410 L 378 441 L 441 346 L 346 284 L 220 189 M 346 410 L 410 346 M 315 410 L 378 315 M 346 284 L 378 252 L 441 94.5 L 472 63 L 504 63 M 346 252 L 378 220 L 410 63 L 441 31.5 M 315 252 L 346 220 L 378 63 L 441 0 L 504 63" />
<glyph unicode="l" glyph-name="l" horiz-adv-x="315" d="M 126 598 L 158 536 L 158 94.5 L 94.5 63 L 126 63 L 189 31.5 L 220 0 M 189 536 L 158 598 L 189 630 L 189 63 L 252 31.5 M 126 598 L 220 662 L 220 94.5 L 284 63 L 315 63 L 252 31.5 L 220 0" />
<glyph unicode="m" glyph-name="m" horiz-adv-x="819" d="M 94.5 378 L 126 378 L 158 346 L 158 94.5 L 94.5 63 L 126 63 L 189 31.5 L 220 0 M 158 410 L 189 378 L 189 63 L 252 31.5 M 94.5 378 L 158 441 L 220 378 L 220 94.5 L 284 63 L 220 0 M 220 346 L 315 378 L 378 410 L 410 441 L 472 378 L 472 94.5 L 536 63 L 472 0 M 378 410 L 441 378 L 441 63 L 504 31.5 M 315 378 L 346 378 L 410 346 L 410 94.5 L 378 63 L 441 31.5 L 472 0 M 472 346 L 567 378 L 630 410 L 662 441 L 693 410 L 756 378 L 788 378 L 724 346 L 724 94.5 L 756 63 L 788 63 M 630 410 L 693 378 L 693 63 L 724 31.5 M 567 378 L 598 378 L 662 346 L 662 63 L 724 0 L 788 63" />
<glyph unicode="n" glyph-name="n" horiz-adv-x="567" d="M 94.5 378 L 126 378 L 158 346 L 158 94.5 L 94.5 63 L 126 63 L 189 31.5 L 220 0 M 158 410 L 189 378 L 189 63 L 252 31.5 M 94.5 378 L 158 441 L 220 378 L 220 94.5 L 284 63 L 220 0 M 220 346 L 315 378 L 378 410 L 410 441 L 441 410 L 504 378 L 536 378 L 472 346 L 472 94.5 L 504 63 L 536 63 M 378 410 L 441 378 L 441 63 L 472 31.5 M 315 378 L 346 378 L 410 346 L 410 63 L 472 0 L 536 63" />
<glyph unicode="o" glyph-name="o" horiz-adv-x="567" d="M 158 378 L 158 94.5 L 94.5 63 M 189 346 L 189 94.5 L 284 31.5 M 220 378 L 220 94.5 L 284 63 L 315 31.5 M 94.5 63 L 158 63 L 220 31.5 L 252 0 L 315 31.5 L 410 63 L 472 63 M 158 378 L 220 378 L 315 410 L 378 441 L 410 410 L 472 378 L 536 378 L 472 346 L 472 63 M 346 410 L 441 346 L 441 94.5 M 315 410 L 346 378 L 410 346 L 410 63" />
<glyph unicode="p" glyph-name="p" horiz-adv-x="567" d="M 126 441 L 158 378 L 158 94.5 L 94.5 63 L 158 63 L 158 -220 M 158 410 L 189 378 L 189 -189 L 220 -158 L 189 -94.5 M 189 63 L 220 63 L 284 31.5 M 126 441 L 189 410 L 220 378 L 220 94.5 L 284 63 L 315 31.5 M 220 31.5 L 252 0 L 315 31.5 L 410 63 L 472 63 M 220 31.5 L 220 -94.5 L 252 -158 L 158 -220 M 220 346 L 315 378 L 378 410 L 410 441 L 441 410 L 504 378 L 536 378 L 472 346 L 472 63 M 378 410 L 441 378 L 441 94.5 M 315 378 L 346 378 L 410 346 L 410 63" />
<glyph unicode="q" glyph-name="q" horiz-adv-x="567" d="M 158 378 L 158 94.5 L 94.5 63 M 189 346 L 189 63 L 252 31.5 M 220 378 L 220 94.5 L 284 63 L 315 63 M 94.5 63 L 126 63 L 189 31.5 L 220 0 L 252 31.5 L 315 63 L 410 94.5 M 158 378 L 220 378 L 315 410 L 378 441 L 410 410 L 472 378 L 536 378 L 472 346 L 472 -220 M 346 410 L 441 346 L 441 -189 L 410 -158 L 441 -94.5 M 315 410 L 346 378 L 410 346 L 410 -94.5 L 378 -158 L 472 -220" />
<glyph unicode="r" glyph-name="r" horiz-adv-x="441" d="M 94.5 378 L 126 378 L 158 346 L 158 94.5 L 94.5 63 L 126 63 L 189 31.5 L 220 0 M 126 410 L 189 378 L 189 63 L 252 31.5 M 94.5 378 L 158 441 L 220 378 L 220 94.5 L 284 63 L 315 63 L 252 31.5 L 220 0 M 220 378 L 346 441 L 378 410 L 441 378 L 472 378 M 315 410 L 346 378 L 410 378 M 284 410 L 346 346 L 410 346 L 472 378" />
<glyph unicode="s" glyph-name="s" horiz-adv-x="504" d="M 126 378 L 126 252 L 189 220 L 378 220 L 441 189 L 441 63 M 158 378 L 158 252 M 410 189 L 410 63 M 220 410 L 189 378 L 189 252 L 252 220 M 315 220 L 378 189 L 378 63 L 346 31.5 M 126 378 L 220 410 L 284 441 L 346 410 L 410 410 L 441 441 M 252 410 L 315 410 M 220 410 L 284 378 L 346 378 L 410 410 M 441 63 L 346 31.5 L 284 0 L 220 31.5 L 158 31.5 L 94.5 0 M 315 31.5 L 252 31.5 M 346 31.5 L 284 63 L 189 63 L 94.5 0 M 441 441 L 410 378 L 346 284 L 189 126 L 94.5 0" />
<glyph unicode="t" glyph-name="t" horiz-adv-x="315" d="M 126 598 L 158 536 L 158 94.5 L 94.5 63 L 126 63 L 189 31.5 L 220 0 M 189 536 L 158 598 L 189 630 L 189 63 L 252 31.5 M 126 598 L 220 662 L 220 94.5 L 284 63 L 315 63 L 252 31.5 L 220 0 M 63 441 L 158 441 M 220 441 L 315 441" />
<glyph unicode="u" glyph-name="u" horiz-adv-x="567" d="M 94.5 378 L 126 378 L 158 346 L 158 94.5 L 94.5 63 M 126 410 L 189 378 L 189 63 L 252 31.5 M 94.5 378 L 158 441 L 220 378 L 220 94.5 L 284 63 L 315 63 M 94.5 63 L 126 63 L 189 31.5 L 220 0 L 252 31.5 L 315 63 L 410 94.5 M 410 441 L 441 410 L 504 378 L 536 378 L 472 346 L 472 94.5 L 504 63 L 536 63 M 378 410 L 441 378 L 441 63 L 472 31.5 M 410 441 L 346 378 L 410 346 L 410 63 L 472 0 L 536 63" />
<glyph unicode="v" glyph-name="v" horiz-adv-x="567" d="M 126 441 L 158 378 L 158 94.5 L 252 0 L 315 63 L 410 94.5 L 472 94.5 M 158 410 L 189 378 L 189 94.5 L 284 31.5 M 126 441 L 189 410 L 220 378 L 220 126 L 252 94.5 L 315 63 M 410 441 L 441 410 L 504 378 L 536 378 L 472 346 L 472 94.5 M 378 410 L 441 378 L 441 126 M 410 441 L 346 378 L 410 346 L 410 94.5" />
<glyph unicode="w" glyph-name="w" horiz-adv-x="819" d="M 126 441 L 158 378 L 158 94.5 L 252 0 L 315 63 L 410 94.5 M 158 410 L 189 378 L 189 94.5 L 284 31.5 M 126 441 L 189 410 L 220 378 L 220 126 L 252 94.5 L 315 63 M 410 441 L 346 378 L 410 346 L 410 94.5 L 504 0 L 567 63 L 662 94.5 L 724 94.5 M 378 410 L 441 378 L 441 94.5 L 536 31.5 M 410 441 L 441 410 L 504 378 L 472 346 L 472 126 L 504 94.5 L 567 63 M 662 441 L 693 410 L 756 378 L 788 378 L 724 346 L 724 94.5 M 630 410 L 693 378 L 693 126 M 662 441 L 598 378 L 662 346 L 662 94.5" />
<glyph unicode="x" glyph-name="x" horiz-adv-x="598" d="M 126 378 L 158 378 L 220 346 L 252 315 L 378 63 L 410 31.5 L 472 0 L 536 63 M 189 410 L 252 378 L 410 63 L 472 31.5 M 126 378 L 189 441 L 252 410 L 284 378 L 410 126 L 441 94.5 L 504 63 L 536 63 M 346 252 L 441 441 L 472 410 L 536 410 L 567 441 M 441 410 L 472 378 L 504 378 M 410 378 L 472 346 L 536 378 L 567 441 M 315 189 L 220 0 L 189 31.5 L 126 31.5 L 94.5 0 M 220 31.5 L 189 63 L 158 63 M 252 63 L 189 94.5 L 126 63 L 94.5 0 M 189 220 L 284 220 M 378 220 L 472 220" />
<glyph unicode="y" glyph-name="y" horiz-adv-x="567" d="M 94.5 378 L 126 378 L 158 346 L 158 94.5 L 94.5 63 M 126 410 L 189 378 L 189 63 L 252 31.5 M 94.5 378 L 158 441 L 220 378 L 220 94.5 L 284 63 L 315 63 M 94.5 63 L 126 63 L 189 31.5 L 220 0 L 252 31.5 L 315 63 L 410 94.5 M 410 441 L 441 410 L 504 378 L 536 378 L 472 346 L 472 -31.5 L 441 -126 L 378 -189 L 315 -220 L 284 -189 L 220 -158 L 158 -158 M 378 410 L 441 378 L 441 -31.5 M 346 -189 L 284 -158 L 252 -158 M 410 441 L 346 378 L 410 346 L 410 31.5 L 441 -63 L 441 -126 M 378 -189 L 346 -158 L 284 -126 L 220 -126 L 158 -158" />
<glyph unicode="z" glyph-name="z" horiz-adv-x="567" d="M 504 441 L 126 0 M 126 378 L 189 346 L 284 346 L 378 378 L 504 441 M 158 410 L 220 378 L 346 378 M 126 378 L 189 441 L 252 410 L 378 410 L 504 441 M 126 0 L 252 63 L 346 94.5 L 441 94.5 L 504 63 M 284 63 L 410 63 L 472 31.5 M 126 0 L 252 31.5 L 378 31.5 L 441 0 L 504 63 M 189 220 L 441 220" />
<glyph unicode="{" glyph-name="braceleft" horiz-adv-x="441" d="M 315 788 L 252 756 L 220 724 L 189 662 L 189 598 L 220 536 L 252 504 L 284 441 L 284 378 L 220 315 M 252 756 L 220 693 L 220 630 L 252 567 L 284 536 L 315 472 L 315 410 L 284 346 L 158 284 L 284 220 L 315 158 L 315 94.5 L 284 31.5 L 252 0 L 220 -63 L 220 -126 L 252 -189 M 220 252 L 284 189 L 284 126 L 252 63 L 220 31.5 L 189 -31.5 L 189 -94.5 L 220 -158 L 252 -189 L 315 -220" />
<glyph unicode="|" glyph-name="bar" horiz-adv-x="252" d="M 158 788 L 158 -220" />
<glyph unicode="}" glyph-name="braceright" horiz-adv-x="441" d="M 189 788 L 252 756 L 284 724 L 315 662 L 315 598 L 284 536 L 252 504 L 220 441 L 220 378 L 284 315 M 252 756 L 284 693 L 284 630 L 252 567 L 220 536 L 189 472 L 189 410 L 220 346 L 346 284 L 220 220 L 189 158 L 189 94.5 L 220 31.5 L 252 0 L 284 -63 L 284 -126 L 252 -189 M 284 252 L 220 189 L 220 126 L 252 63 L 284 31.5 L 315 -31.5 L 315 -94.5 L 284 -158 L 252 -189 L 189 -220" />
<glyph unicode="~" glyph-name="asciitilde" horiz-adv-x="756" d="M 126 189 L 126 252 L 158 346 L 220 378 L 284 378 L 346 346 L 472 252 L 536 220 L 598 220 L 662 252 L 693 315 M 126 252 L 158 315 L 220 346 L 284 346 L 346 315 L 472 220 L 536 189 L 598 189 L 662 220 L 693 315 L 693 378" />
<glyph unicode="&#xa0;" glyph-name="nbspace" horiz-adv-x="378" />
<glyph unicode="&#xa1;" glyph-name="exclamdown" horiz-adv-x="378" d="M 220 0 L 252 31.5 L 315 63 L 252 94.5 L 220 441 M 220 94.5 L 189 63 L 220 31.5 L 252 63 L 220 94.5 L 220 441 M 220 0 L 189 31.5 L 126 63 L 189 94.5 L 220 441 M 220 567 L 284 630 L 220 662 L 158 630 L 220 567 M 220 598 L 252 630 L 189 630 L 220 598" />
<glyph unicode="&#xa2;" glyph-name="cent" horiz-adv-x="151" d="M 158 378 L 158 94.5 L 94.5 63 L 126 63 L 189 31.5 L 220 0 M 189 378 L 189 63 L 252 31.5 M 220 378 L 220 94.5 L 284 63 L 315 63 L 252 31.5 L 220 0 M 158 378 L 284 410 L 346 441 L 378 410 L 441 378 L 472 378 M 315 410 L 346 378 L 410 378 M 220 378 L 284 410 L 346 346 L 410 346 L 472 378 M 321 472 L 321 -132" />
<glyph unicode="&#xa5;" glyph-name="yen" horiz-adv-x="693" d="M 126 662 L 346 315 L 346 0 M 158 662 L 378 315 L 378 31.5 M 189 662 L 410 315 L 410 0 M 598 630 L 410 315 M 63 662 L 284 662 M 504 662 L 693 662 M 252 0 L 504 0 M 94.5 662 L 158 630 M 252 662 L 189 630 M 536 662 L 598 630 M 662 662 L 598 630 M 346 31.5 L 284 0 M 346 63 L 315 0 M 410 63 L 441 0 M 410 31.5 L 472 0 M 208 170 L 548 170 M 208 265 L 548 265" />
<glyph unicode="&#xa6;" glyph-name="brokenbar" horiz-adv-x="75.6" d="M 217 236 L 217 -66.1 M 217 709 L 217 406" />
<glyph unicode="&#xa8;" glyph-name="dieresis" horiz-adv-x="567" d=" M 225 724 L 162 662 L 225 630 L 288 662 L 225 724 M 225 693 L 194 662 L 257 662 L 225 693 M 468 724 L 405 662 L 468 630 L 531 662 L 468 724 M 468 693 L 436 662 L 499 662 L 468 693" />
<glyph unicode="&#xa9;" glyph-name="copyright" horiz-adv-x="693" d="M 378 662 L 315 630 L 252 567 L 220 504 L 189 410 L 189 252 L 220 158 L 252 94.5 L 315 31.5 L 378 0 L 504 0 L 567 31.5 L 630 94.5 L 662 158 L 693 252 L 693 410 L 662 504 L 630 567 L 567 630 L 504 662 L 378 662 M 410 630 L 315 598 L 252 504 L 220 410 L 220 252 L 252 158 L 315 63 L 410 31.5 L 472 31.5 L 567 63 L 630 158 L 662 252 L 662 410 L 630 504 L 567 598 L 472 630 L 410 630 M 551 410 L 536 441 L 504 472 L 472 488 L 410 488 L 378 472 L 346 441 L 331 410 L 315 362 L 315 284 L 331 236 L 346 205 L 378 173 L 410 158 L 472 158 L 504 173 L 536 205 L 551 236 M 551 410 L 536 410 L 520 441 L 504 457 L 472 472 L 410 472 L 378 457 L 346 410 L 331 362 L 331 284 L 346 236 L 378 189 L 410 173 L 472 173 L 504 189 L 520 205 L 536 236 L 551 236" />
<glyph unicode="&#xaa;" glyph-name="ordfeminine" horiz-adv-x="268" d="M 236 772 L 205 740 L 189 709 L 189 677 L 205 646 L 236 630 L 268 662 L 315 677 M 189 709 L 205 677 L 220 662 L 252 646 M 205 740 L 205 709 L 220 677 L 252 662 L 268 662 M 205 803 L 236 803 L 284 819 L 315 835 L 331 850 L 362 819 L 346 803 L 346 677 L 362 662 L 378 662 M 220 835 L 205 819 L 252 819 M 299 819 L 346 819 L 331 835 L 331 662 L 346 646 M 189 819 L 220 850 L 236 835 L 268 819 L 315 803 L 315 662 L 346 630 L 378 662 M 189 819 L 268 740" />
<glyph unicode="&#xab;" glyph-name="guillemotleft" horiz-adv-x="454" d="M 265 454 L 63 227 L 265 0 M 391 454 L 189 227 L 391 0" />
<glyph unicode="&#xae;" glyph-name="registered" horiz-adv-x="693" d="M 378 662 L 315 630 L 252 567 L 220 504 L 189 410 L 189 252 L 220 158 L 252 94.5 L 315 31.5 L 378 0 L 504 0 L 567 31.5 L 630 94.5 L 662 158 L 693 252 L 693 410 L 662 504 L 630 567 L 567 630 L 504 662 L 378 662 M 410 630 L 315 598 L 252 504 L 220 410 L 220 252 L 252 158 L 315 63 L 410 31.5 L 472 31.5 L 567 63 L 630 158 L 662 252 L 662 410 L 630 504 L 567 598 L 472 630 L 410 630 M 331 488 L 331 158 M 346 472 L 346 158 L 331 158 M 331 488 L 457 488 L 504 472 L 520 457 L 536 425 L 536 378 L 520 346 L 504 331 L 457 315 L 346 315 M 346 472 L 457 472 L 504 457 L 520 425 L 520 378 L 504 346 L 457 331 L 346 331 M 425 315 L 520 158 L 536 158 M 441 315 L 536 158" />
<glyph unicode="&#xb0;" glyph-name="degree" horiz-adv-x="249" d="M 236 765 L 217 756 L 198 737 L 189 718 L 180 690 L 180 643 L 189 614 L 198 595 L 217 576 L 236 567 L 274 567 L 293 576 L 312 595 L 321 614 L 331 643 L 331 690 L 321 718 L 312 737 L 293 756 L 274 765 L 236 765" />
<glyph unicode="&#xb1;" glyph-name="plusminus" horiz-adv-x="630" d="M 580 37.8 L 1033.2 37.8 M 781 643 L 781 214 L 806 214 M 781 643 L 806 643 L 806 214 M 580 441 L 1008.0 441 L 1008.0 416 M 580 441 L 580 416 L 1008.0 416" />
<glyph unicode="&#xb2;" glyph-name="twosuperior" horiz-adv-x="315" d="M 205 929 L 236 929 L 268 945 L 284 961 L 315 945 L 362 929 L 394 929 M 268 929 L 299 945 M 205 929 L 236 914 L 268 914 L 299 929 L 315 945 M 362 929 L 362 803 M 378 914 L 378 819 M 394 929 L 394 803 L 284 803 L 236 788 L 205 756 L 189 709 L 189 630 M 189 630 L 252 662 L 315 677 L 362 677 L 425 662 M 236 646 L 284 662 L 362 662 L 410 646 M 189 630 L 268 646 L 346 646 L 394 630 L 425 662" />
<glyph unicode="&#xb3;" glyph-name="threesuperior" horiz-adv-x="315" d="M 205 929 L 220 929 L 252 945 L 268 961 L 299 945 L 362 929 L 394 929 M 252 929 L 284 945 M 205 929 L 236 914 L 268 914 L 299 945 M 362 929 L 362 819 M 378 914 L 378 835 M 394 929 L 394 819 L 362 819 L 315 803 L 284 788 M 284 803 L 315 788 L 362 772 L 394 772 L 394 662 M 378 756 L 378 677 M 362 772 L 362 662 M 189 662 L 220 677 L 252 677 L 284 662 L 299 646 M 252 662 L 284 646 M 189 662 L 220 662 L 252 646 L 268 630 L 299 646 L 362 662 L 394 662" />
<glyph unicode="&#xb4;" glyph-name="acute" horiz-adv-x="378" d=" M 378 788 L 220 598 M 378 788 L 410 756 L 220 598" />
<glyph unicode="&#xb7;" glyph-name="middot" horiz-adv-x="454" d="M 340 416 L 265 340 L 340 302 L 416 340 L 340 416 M 340 378 L 302 340 L 378 340 L 340 378" />
<glyph unicode="&#xb9;" glyph-name="onesuperior" horiz-adv-x="315" d="M 252 929 L 268 914 L 284 882 L 284 677 L 252 662 M 284 914 L 268 929 L 284 945 L 299 914 L 299 662 L 331 646 M 252 929 L 299 961 L 315 929 L 315 677 L 346 662 L 362 662 M 252 662 L 268 662 L 299 646 L 315 630 L 331 646 L 362 662" />
<glyph unicode="&#xba;" glyph-name="ordmasculine" horiz-adv-x="249" d="M 236 765 L 217 756 L 198 737 L 189 718 L 180 690 L 180 643 L 189 614 L 198 595 L 217 576 L 236 567 L 274 567 L 293 576 L 312 595 L 321 614 L 331 643 L 331 690 L 321 718 L 312 737 L 293 756 L 274 765 L 236 765" />
<glyph unicode="&#xbb;" glyph-name="guillemotright" horiz-adv-x="454" d="M 63 454 L 265 227 L 63 0 M 189 454 L 391 227 L 189 0" />
<glyph unicode="&#xbc;" glyph-name="onequarter" horiz-adv-x="680" d="M 151 737 L 170 718 L 189 680 L 189 435 L 151 416 M 189 718 L 170 737 L 189 756 L 208 718 L 208 416 L 246 397 M 151 737 L 208 775 L 227 737 L 227 435 L 265 416 L 284 416 M 151 416 L 170 416 L 208 397 L 227 378 L 246 397 L 284 416 M 724 850 L 158 -158 L 189 -158 M 724 850 L 756 850 L 189 -158 M 756 397 L 567 208 L 567 113 L 737 113 M 775 113 L 850 113 L 869 94.5 L 869 132 L 850 113 M 586 208 L 586 132 M 605 246 L 605 113 M 737 378 L 737 56.7 L 699 37.8 M 756 321 L 775 359 L 756 378 L 756 37.8 L 794 18.9 M 756 397 L 794 359 L 775 321 L 775 56.7 L 813 37.8 L 832 37.8 M 699 37.8 L 718 37.8 L 756 18.9 L 775 0 L 794 18.9 L 832 37.8" />
<glyph unicode="&#xbd;" glyph-name="onehalf" horiz-adv-x="680" d="M 151 737 L 170 718 L 189 680 L 189 435 L 151 416 M 189 718 L 170 737 L 189 756 L 208 718 L 208 416 L 246 397 M 151 737 L 208 775 L 227 737 L 227 435 L 265 416 L 284 416 M 151 416 L 170 416 L 208 397 L 227 378 L 246 397 L 284 416 M 724 850 L 158 -158 L 189 -158 M 724 850 L 756 850 L 189 -158 M 586 359 L 624 359 L 662 378 L 680 397 L 718 378 L 775 359 L 813 359 M 662 359 L 699 378 M 586 359 L 624 340 L 662 340 L 699 359 L 718 378 M 775 359 L 775 208 M 794 340 L 794 227 M 813 359 L 813 208 L 680 208 L 624 189 L 586 151 L 567 94.5 L 567 0 M 567 0 L 643 37.8 L 718 56.7 L 775 56.7 L 850 37.8 M 624 18.9 L 680 37.8 L 775 37.8 L 832 18.9 M 567 0 L 662 18.9 L 756 18.9 L 813 0 L 850 37.8" />
<glyph unicode="&#xbe;" glyph-name="threequarters" horiz-adv-x="680" d="M 94.5 737 L 113 737 L 151 756 L 170 775 L 208 756 L 284 737 L 321 737 M 151 737 L 189 756 M 94.5 737 L 132 718 L 170 718 L 208 756 M 284 737 L 284 605 M 302 718 L 302 624 M 321 737 L 321 605 L 284 605 L 227 586 L 189 567 M 189 586 L 227 567 L 284 548 L 321 548 L 321 416 M 302 529 L 302 435 M 284 548 L 284 416 M 75.6 416 L 113 435 L 151 435 L 189 416 L 208 397 M 151 416 L 189 397 M 75.6 416 L 113 416 L 151 397 L 170 378 L 208 397 L 284 416 L 321 416 M 724 850 L 158 -158 L 189 -158 M 724 850 L 756 850 L 189 -158 M 756 397 L 567 208 L 567 113 L 737 113 M 775 113 L 850 113 L 869 94.5 L 869 132 L 850 113 M 586 208 L 586 132 M 605 246 L 605 113 M 737 378 L 737 56.7 L 699 37.8 M 756 321 L 775 359 L 756 378 L 756 37.8 L 794 18.9 M 756 397 L 794 359 L 775 321 L 775 56.7 L 813 37.8 L 832 37.8 M 699 37.8 L 718 37.8 L 756 18.9 L 775 0 L 794 18.9 L 832 37.8" />
<glyph unicode="&#xbf;" glyph-name="questiondown" horiz-adv-x="567" d="M 504 126 L 472 63 L 441 31.5 L 346 0 L 284 0 L 189 31.5 L 158 63 L 126 126 L 126 189 L 158 252 L 220 315 L 284 346 M 472 126 L 441 63 M 189 63 L 158 94.5 L 158 220 L 189 252 M 504 126 L 441 158 L 441 94.5 L 410 31.5 L 346 0 M 284 0 L 220 31.5 L 189 94.5 L 189 220 L 220 284 L 284 346 M 315 346 L 315 441 L 284 346 L 346 346 L 315 441 M 315 567 L 378 630 L 315 662 L 252 630 L 315 567 M 315 598 L 346 630 L 284 630 L 315 598" />
<glyph unicode="&#xc0;" glyph-name="Agrave" horiz-adv-x="693" d="M 189 567 L 252 630 L 315 662 L 378 662 L 410 630 L 630 126 L 662 94.5 L 724 94.5 M 346 630 L 378 598 L 598 94.5 L 630 31.5 L 662 63 L 598 94.5 M 252 630 L 315 630 L 346 598 L 567 94.5 L 598 31.5 L 630 0 L 662 0 L 724 94.5 M 189 441 L 220 472 L 284 504 L 315 504 L 346 472 M 315 472 L 315 441 M 220 472 L 284 472 L 315 410 M 31.5 0 L 94.5 63 L 158 94.5 L 252 94.5 L 315 63 M 126 63 L 252 63 L 284 31.5 M 31.5 0 L 126 31.5 L 220 31.5 L 252 0 L 315 63 M 378 536 L 189 94.5 M 252 252 L 504 252 M 220 1039.5 L 378 850 M 220 1039.5 L 189 1008.0 L 378 850" />
<glyph unicode="&#xc1;" glyph-name="Aacute" horiz-adv-x="693" d="M 189 567 L 252 630 L 315 662 L 378 662 L 410 630 L 630 126 L 662 94.5 L 724 94.5 M 346 630 L 378 598 L 598 94.5 L 630 31.5 L 662 63 L 598 94.5 M 252 630 L 315 630 L 346 598 L 567 94.5 L 598 31.5 L 630 0 L 662 0 L 724 94.5 M 189 441 L 220 472 L 284 504 L 315 504 L 346 472 M 315 472 L 315 441 M 220 472 L 284 472 L 315 410 M 31.5 0 L 94.5 63 L 158 94.5 L 252 94.5 L 315 63 M 126 63 L 252 63 L 284 31.5 M 31.5 0 L 126 31.5 L 220 31.5 L 252 0 L 315 63 M 378 536 L 189 94.5 M 252 252 L 504 252 M 567 1039.5 L 410 850 M 567 1039.5 L 598 1008.0 L 410 850" />
<glyph unicode="&#xc2;" glyph-name="Acircumflex" horiz-adv-x="693" d="M 189 567 L 252 630 L 315 662 L 378 662 L 410 630 L 630 126 L 662 94.5 L 724 94.5 M 346 630 L 378 598 L 598 94.5 L 630 31.5 L 662 63 L 598 94.5 M 252 630 L 315 630 L 346 598 L 567 94.5 L 598 31.5 L 630 0 L 662 0 L 724 94.5 M 189 441 L 220 472 L 284 504 L 315 504 L 346 472 M 315 472 L 315 441 M 220 472 L 284 472 L 315 410 M 31.5 0 L 94.5 63 L 158 94.5 L 252 94.5 L 315 63 M 126 63 L 252 63 L 284 31.5 M 31.5 0 L 126 31.5 L 220 31.5 L 252 0 L 315 63 M 378 536 L 189 94.5 M 252 252 L 504 252 M 299 772 L 425 850 L 551 772 M 299 772 L 425 835 L 551 772" />
<glyph unicode="&#xc3;" glyph-name="Atilde" horiz-adv-x="693" d="M 189 567 L 252 630 L 315 662 L 378 662 L 410 630 L 630 126 L 662 94.5 L 724 94.5 M 346 630 L 378 598 L 598 94.5 L 630 31.5 L 662 63 L 598 94.5 M 252 630 L 315 630 L 346 598 L 567 94.5 L 598 31.5 L 630 0 L 662 0 L 724 94.5 M 189 441 L 220 472 L 284 504 L 315 504 L 346 472 M 315 472 L 315 441 M 220 472 L 284 472 L 315 410 M 31.5 0 L 94.5 63 L 158 94.5 L 252 94.5 L 315 63 M 126 63 L 252 63 L 284 31.5 M 31.5 0 L 126 31.5 L 220 31.5 L 252 0 L 315 63 M 378 536 L 189 94.5 M 252 252 L 504 252 M 214 756 L 214 794 L 233 850 L 271 869 L 309 869 L 346 850 L 422 794 L 460 775 L 498 775 L 535 794 L 554 832 M 214 794 L 233 832 L 271 850 L 309 850 L 346 832 L 422 775 L 460 756 L 498 756 L 535 775 L 554 832 L 554 869" />
<glyph unicode="&#xc4;" glyph-name="Adieresis" horiz-adv-x="693" d="M 189 567 L 252 630 L 315 662 L 378 662 L 410 630 L 630 126 L 662 94.5 L 724 94.5 M 346 630 L 378 598 L 598 94.5 L 630 31.5 L 662 63 L 598 94.5 M 252 630 L 315 630 L 346 598 L 567 94.5 L 598 31.5 L 630 0 L 662 0 L 724 94.5 M 189 441 L 220 472 L 284 504 L 315 504 L 346 472 M 315 472 L 315 441 M 220 472 L 284 472 L 315 410 M 31.5 0 L 94.5 63 L 158 94.5 L 252 94.5 L 315 63 M 126 63 L 252 63 L 284 31.5 M 31.5 0 L 126 31.5 L 220 31.5 L 252 0 L 315 63 M 378 536 L 189 94.5 M 252 252 L 504 252 M 323 945 L 260 882 L 323 850 L 386 882 L 323 945 M 323 914 L 291 882 L 354 882 L 323 914 M 559 945 L 496 882 L 559 850 L 622 882 L 559 945 M 559 914 L 528 882 L 591 882 L 559 914" />
<glyph unicode="&#xc5;" glyph-name="Aring" horiz-adv-x="630" d="M 410 662 L 158 0 M 410 567 L 189 0 L 158 0 M 410 567 L 630 0 L 662 0 M 410 662 L 662 0 M 252 189 L 567 189 M 220 158 L 598 158 M 397 1048.9 L 378 1039.5 L 359 1020.6 L 350 1001.7 L 340 973 L 340 926 L 350 898 L 359 879 L 378 860 L 397 850 L 435 850 L 454 860 L 472 879 L 482 898 L 491 926 L 491 973 L 482 1001.7 L 472 1020.6 L 454 1039.5 L 435 1048.9 L 397 1048.9 M 406 1039.5 L 378 1030.0 L 359 1001.7 L 350 973 L 350 926 L 359 898 L 378 869 L 406 860 L 425 860 L 454 869 L 472 898 L 482 926 L 482 973 L 472 1001.7 L 454 1030.0 L 425 1039.5 L 406 1039.5" />
<glyph unicode="&#xc8;" glyph-name="Egrave" horiz-adv-x="693" d="M 94.5 598 L 158 662 L 220 662 L 284 630 L 346 662 M 189 630 L 252 630 M 94.5 598 L 158 630 L 220 598 L 284 598 L 346 662 M 252 504 L 220 472 L 189 410 L 189 378 L 126 378 L 94.5 346 L 94.5 284 L 126 315 L 189 315 L 189 126 M 220 441 L 220 189 M 126 346 L 220 346 M 252 504 L 252 220 L 220 158 L 189 126 M 346 441 L 378 536 L 410 598 L 441 630 L 504 662 L 567 662 L 662 630 M 441 598 L 504 630 L 567 630 L 630 598 M 378 536 L 410 567 L 472 598 L 536 598 L 598 567 L 662 630 M 346 189 L 378 284 L 410 346 L 441 378 L 504 378 L 567 346 M 441 346 L 504 346 L 536 315 M 378 284 L 410 315 L 472 315 L 504 284 L 567 346 M 158 0 L 252 63 L 378 94.5 L 536 94.5 L 662 63 M 220 31.5 L 315 63 L 536 63 L 630 31.5 M 158 0 L 284 31.5 L 504 31.5 L 598 0 L 662 63 M 346 441 L 346 94.5 M 220 1039.5 L 378 850 M 220 1039.5 L 189 1008.0 L 378 850" />
<glyph unicode="&#xc9;" glyph-name="Eacute" horiz-adv-x="693" d="M 94.5 598 L 158 662 L 220 662 L 284 630 L 346 662 M 189 630 L 252 630 M 94.5 598 L 158 630 L 220 598 L 284 598 L 346 662 M 252 504 L 220 472 L 189 410 L 189 378 L 126 378 L 94.5 346 L 94.5 284 L 126 315 L 189 315 L 189 126 M 220 441 L 220 189 M 126 346 L 220 346 M 252 504 L 252 220 L 220 158 L 189 126 M 346 441 L 378 536 L 410 598 L 441 630 L 504 662 L 567 662 L 662 630 M 441 598 L 504 630 L 567 630 L 630 598 M 378 536 L 410 567 L 472 598 L 536 598 L 598 567 L 662 630 M 346 189 L 378 284 L 410 346 L 441 378 L 504 378 L 567 346 M 441 346 L 504 346 L 536 315 M 378 284 L 410 315 L 472 315 L 504 284 L 567 346 M 158 0 L 252 63 L 378 94.5 L 536 94.5 L 662 63 M 220 31.5 L 315 63 L 536 63 L 630 31.5 M 158 0 L 284 31.5 L 504 31.5 L 598 0 L 662 63 M 346 441 L 346 94.5 M 567 1039.5 L 410 850 M 567 1039.5 L 598 1008.0 L 410 850" />
<glyph unicode="&#xca;" glyph-name="Ecircumflex" horiz-adv-x="693" d="M 94.5 598 L 158 662 L 220 662 L 284 630 L 346 662 M 189 630 L 252 630 M 94.5 598 L 158 630 L 220 598 L 284 598 L 346 662 M 252 504 L 220 472 L 189 410 L 189 378 L 126 378 L 94.5 346 L 94.5 284 L 126 315 L 189 315 L 189 126 M 220 441 L 220 189 M 126 346 L 220 346 M 252 504 L 252 220 L 220 158 L 189 126 M 346 441 L 378 536 L 410 598 L 441 630 L 504 662 L 567 662 L 662 630 M 441 598 L 504 630 L 567 630 L 630 598 M 378 536 L 410 567 L 472 598 L 536 598 L 598 567 L 662 630 M 346 189 L 378 284 L 410 346 L 441 378 L 504 378 L 567 346 M 441 346 L 504 346 L 536 315 M 378 284 L 410 315 L 472 315 L 504 284 L 567 346 M 158 0 L 252 63 L 378 94.5 L 536 94.5 L 662 63 M 220 31.5 L 315 63 L 536 63 L 630 31.5 M 158 0 L 284 31.5 L 504 31.5 L 598 0 L 662 63 M 346 441 L 346 94.5 M 299 772 L 425 850 L 551 772 M 299 772 L 425 835 L 551 772" />
<glyph unicode="&#xcb;" glyph-name="Edieresis" horiz-adv-x="693" d="M 94.5 598 L 158 662 L 220 662 L 284 630 L 346 662 M 189 630 L 252 630 M 94.5 598 L 158 630 L 220 598 L 284 598 L 346 662 M 252 504 L 220 472 L 189 410 L 189 378 L 126 378 L 94.5 346 L 94.5 284 L 126 315 L 189 315 L 189 126 M 220 441 L 220 189 M 126 346 L 220 346 M 252 504 L 252 220 L 220 158 L 189 126 M 346 441 L 378 536 L 410 598 L 441 630 L 504 662 L 567 662 L 662 630 M 441 598 L 504 630 L 567 630 L 630 598 M 378 536 L 410 567 L 472 598 L 536 598 L 598 567 L 662 630 M 346 189 L 378 284 L 410 346 L 441 378 L 504 378 L 567 346 M 441 346 L 504 346 L 536 315 M 378 284 L 410 315 L 472 315 L 504 284 L 567 346 M 158 0 L 252 63 L 378 94.5 L 536 94.5 L 662 63 M 220 31.5 L 315 63 L 536 63 L 630 31.5 M 158 0 L 284 31.5 L 504 31.5 L 598 0 L 662 63 M 346 441 L 346 94.5 M 314 945 L 251 882 L 314 850 L 377 882 L 314 945 M 314 914 L 282 882 L 345 882 L 314 914 M 568 945 L 505 882 L 568 850 L 631 882 L 568 945 M 568 914 L 537 882 L 600 882 L 568 914" />
<glyph unicode="&#xcc;" glyph-name="Igrave" horiz-adv-x="598" d="M 126 598 L 189 662 L 284 662 L 378 630 L 441 662 M 220 630 L 346 630 M 126 598 L 189 630 L 284 598 L 378 598 L 441 662 M 346 504 L 315 472 L 284 410 L 284 378 L 220 378 L 189 346 L 189 284 L 220 315 L 284 315 L 284 158 M 315 441 L 315 220 M 220 346 L 315 346 M 346 504 L 346 252 L 315 189 L 284 158 M 536 598 L 472 536 L 441 441 L 441 94.5 L 410 31.5 L 346 31.5 L 220 94.5 L 158 94.5 L 94.5 63 L 31.5 0 M 472 504 L 472 126 M 315 31.5 L 284 31.5 L 220 63 L 126 63 M 536 598 L 504 536 L 504 158 L 472 94.5 L 410 31.5 L 346 0 L 252 0 L 189 31.5 L 94.5 31.5 L 31.5 0 M 173 1039.5 L 331 850 M 173 1039.5 L 142 1008.0 L 331 850" />
<glyph unicode="&#xcd;" glyph-name="Iacute" horiz-adv-x="598" d="M 126 598 L 189 662 L 284 662 L 378 630 L 441 662 M 220 630 L 346 630 M 126 598 L 189 630 L 284 598 L 378 598 L 441 662 M 346 504 L 315 472 L 284 410 L 284 378 L 220 378 L 189 346 L 189 284 L 220 315 L 284 315 L 284 158 M 315 441 L 315 220 M 220 346 L 315 346 M 346 504 L 346 252 L 315 189 L 284 158 M 536 598 L 472 536 L 441 441 L 441 94.5 L 410 31.5 L 346 31.5 L 220 94.5 L 158 94.5 L 94.5 63 L 31.5 0 M 472 504 L 472 126 M 315 31.5 L 284 31.5 L 220 63 L 126 63 M 536 598 L 504 536 L 504 158 L 472 94.5 L 410 31.5 L 346 0 L 252 0 L 189 31.5 L 94.5 31.5 L 31.5 0 M 520 1039.5 L 362 850 M 520 1039.5 L 551 1008.0 L 362 850" />
<glyph unicode="&#xce;" glyph-name="Icircumflex" horiz-adv-x="598" d="M 126 598 L 189 662 L 284 662 L 378 630 L 441 662 M 220 630 L 346 630 M 126 598 L 189 630 L 284 598 L 378 598 L 441 662 M 346 504 L 315 472 L 284 410 L 284 378 L 220 378 L 189 346 L 189 284 L 220 315 L 284 315 L 284 158 M 315 441 L 315 220 M 220 346 L 315 346 M 346 504 L 346 252 L 315 189 L 284 158 M 536 598 L 472 536 L 441 441 L 441 94.5 L 410 31.5 L 346 31.5 L 220 94.5 L 158 94.5 L 94.5 63 L 31.5 0 M 472 504 L 472 126 M 315 31.5 L 284 31.5 L 220 63 L 126 63 M 536 598 L 504 536 L 504 158 L 472 94.5 L 410 31.5 L 346 0 L 252 0 L 189 31.5 L 94.5 31.5 L 31.5 0 M 276 772 L 402 850 L 528 772 M 276 772 L 402 835 L 528 772" />
<glyph unicode="&#xcf;" glyph-name="Idieresis" horiz-adv-x="598" d="M 126 598 L 189 662 L 284 662 L 378 630 L 441 662 M 220 630 L 346 630 M 126 598 L 189 630 L 284 598 L 378 598 L 441 662 M 346 504 L 315 472 L 284 410 L 284 378 L 220 378 L 189 346 L 189 284 L 220 315 L 284 315 L 284 158 M 315 441 L 315 220 M 220 346 L 315 346 M 346 504 L 346 252 L 315 189 L 284 158 M 536 598 L 472 536 L 441 441 L 441 94.5 L 410 31.5 L 346 31.5 L 220 94.5 L 158 94.5 L 94.5 63 L 31.5 0 M 472 504 L 472 126 M 315 31.5 L 284 31.5 L 220 63 L 126 63 M 536 598 L 504 536 L 504 158 L 472 94.5 L 410 31.5 L 346 0 L 252 0 L 189 31.5 L 94.5 31.5 L 31.5 0 M 272 945 L 209 882 L 272 850 L 335 882 L 272 945 M 272 914 L 240 882 L 303 882 L 272 914 M 516 945 L 453 882 L 516 850 L 579 882 L 516 945 M 516 914 L 484 882 L 547 882 L 516 914" />
<glyph unicode="&#xd0;" glyph-name="Eth" horiz-adv-x="724" d="M 94.5 246 L 435 246 M 94.5 662 L 536 662 L 598 630 L 630 567 L 630 94.5 M 158 630 L 536 630 L 598 567 L 598 126 M 94.5 662 L 126 630 L 189 598 L 536 598 L 567 567 L 567 94.5 M 284 504 L 252 472 L 220 410 L 220 378 L 158 378 L 126 346 L 126 284 L 158 315 L 220 315 L 220 158 M 252 441 L 252 220 M 158 346 L 252 346 M 284 504 L 284 252 L 252 189 L 220 158 M 94.5 0 L 189 63 L 284 94.5 L 410 94.5 L 504 63 M 158 31.5 L 252 63 L 410 63 L 472 31.5 M 94.5 0 L 220 31.5 L 378 31.5 L 441 0 L 504 63 L 567 94.5 L 630 94.5 M 378 598 L 378 94.5 M 378 441 L 441 410 L 504 410 L 567 441 M 378 252 L 441 284 L 504 284 L 567 252" />
<glyph unicode="&#xd1;" glyph-name="Ntilde" horiz-adv-x="788" d="M 94.5 567 L 158 630 L 220 662 L 284 662 L 346 630 L 410 536 L 567 189 L 630 94.5 L 662 63 M 284 630 L 346 567 L 378 504 L 567 126 L 662 31.5 M 158 630 L 220 630 L 284 598 L 346 504 L 504 158 L 567 63 L 598 31.5 L 662 0 M 567 598 L 630 567 L 693 567 L 756 598 L 788 662 M 598 630 L 662 598 L 724 598 M 567 598 L 630 662 L 693 630 L 756 630 L 788 662 M 220 378 L 158 378 L 126 346 L 126 284 L 158 315 L 220 315 M 158 346 L 220 346 M 94.5 0 L 158 63 L 220 94.5 L 315 94.5 L 378 63 M 189 63 L 284 63 L 346 31.5 M 94.5 0 L 189 31.5 L 284 31.5 L 315 0 L 378 63 M 220 630 L 220 94.5 M 662 567 L 662 0 M 441 472 L 472 441 L 536 410 L 598 410 L 662 441 M 220 220 L 284 252 L 410 252 L 472 220 M 233 756 L 233 794 L 252 850 L 290 869 L 328 869 L 365 850 L 441 794 L 479 775 L 517 775 L 554 794 L 573 832 M 233 794 L 252 832 L 290 850 L 328 850 L 365 832 L 441 775 L 479 756 L 517 756 L 554 775 L 573 832 L 573 869" />
<glyph unicode="&#xd2;" glyph-name="Ograve" horiz-adv-x="819" d="M 315 662 L 252 630 L 189 567 L 158 504 L 126 410 L 126 284 L 158 189 L 189 126 L 252 63 L 315 31.5 L 410 0 L 472 0 L 567 31.5 L 630 63 L 693 126 L 724 189 L 756 284 L 756 410 L 724 504 L 693 567 L 630 630 L 567 662 L 536 630 L 441 567 L 346 536 M 189 536 L 158 441 L 158 252 L 189 158 M 315 662 L 252 598 L 220 536 L 189 441 L 189 252 L 220 158 L 252 94.5 L 315 31.5 M 693 158 L 724 252 L 724 441 L 662 567 L 630 598 M 567 31.5 L 630 94.5 L 662 158 L 693 252 L 693 441 L 662 504 L 598 598 L 536 630 M 346 536 L 346 126 M 378 536 L 378 189 M 410 536 L 410 220 L 378 158 L 346 126 M 536 630 L 536 31.5 M 536 441 L 598 410 L 630 410 L 693 441 M 536 252 L 598 284 L 630 284 L 693 252 M 284 1039.5 L 441 850 M 284 1039.5 L 252 1008.0 L 441 850" />
<glyph unicode="&#xd3;" glyph-name="Oacute" horiz-adv-x="819" d="M 315 662 L 252 630 L 189 567 L 158 504 L 126 410 L 126 284 L 158 189 L 189 126 L 252 63 L 315 31.5 L 410 0 L 472 0 L 567 31.5 L 630 63 L 693 126 L 724 189 L 756 284 L 756 410 L 724 504 L 693 567 L 630 630 L 567 662 L 536 630 L 441 567 L 346 536 M 189 536 L 158 441 L 158 252 L 189 158 M 315 662 L 252 598 L 220 536 L 189 441 L 189 252 L 220 158 L 252 94.5 L 315 31.5 M 693 158 L 724 252 L 724 441 L 662 567 L 630 598 M 567 31.5 L 630 94.5 L 662 158 L 693 252 L 693 441 L 662 504 L 598 598 L 536 630 M 346 536 L 346 126 M 378 536 L 378 189 M 410 536 L 410 220 L 378 158 L 346 126 M 536 630 L 536 31.5 M 536 441 L 598 410 L 630 410 L 693 441 M 536 252 L 598 284 L 630 284 L 693 252 M 630 1039.5 L 472 850 M 630 1039.5 L 662 1008.0 L 472 850" />
<glyph unicode="&#xd4;" glyph-name="Ocircumflex" horiz-adv-x="819" d="M 315 662 L 252 630 L 189 567 L 158 504 L 126 410 L 126 284 L 158 189 L 189 126 L 252 63 L 315 31.5 L 410 0 L 472 0 L 567 31.5 L 630 63 L 693 126 L 724 189 L 756 284 L 756 410 L 724 504 L 693 567 L 630 630 L 567 662 L 536 630 L 441 567 L 346 536 M 189 536 L 158 441 L 158 252 L 189 158 M 315 662 L 252 598 L 220 536 L 189 441 L 189 252 L 220 158 L 252 94.5 L 315 31.5 M 693 158 L 724 252 L 724 441 L 662 567 L 630 598 M 567 31.5 L 630 94.5 L 662 158 L 693 252 L 693 441 L 662 504 L 598 598 L 536 630 M 346 536 L 346 126 M 378 536 L 378 189 M 410 536 L 410 220 L 378 158 L 346 126 M 536 630 L 536 31.5 M 536 441 L 598 410 L 630 410 L 693 441 M 536 252 L 598 284 L 630 284 L 693 252 M 331 772 L 457 850 L 583 772 M 331 772 L 457 835 L 583 772" />
<glyph unicode="&#xd5;" glyph-name="Otilde" horiz-adv-x="819" d="M 315 662 L 252 630 L 189 567 L 158 504 L 126 410 L 126 284 L 158 189 L 189 126 L 252 63 L 315 31.5 L 410 0 L 472 0 L 567 31.5 L 630 63 L 693 126 L 724 189 L 756 284 L 756 410 L 724 504 L 693 567 L 630 630 L 567 662 L 536 630 L 441 567 L 346 536 M 189 536 L 158 441 L 158 252 L 189 158 M 315 662 L 252 598 L 220 536 L 189 441 L 189 252 L 220 158 L 252 94.5 L 315 31.5 M 693 158 L 724 252 L 724 441 L 662 567 L 630 598 M 567 31.5 L 630 94.5 L 662 158 L 693 252 L 693 441 L 662 504 L 598 598 L 536 630 M 346 536 L 346 126 M 378 536 L 378 189 M 410 536 L 410 220 L 378 158 L 346 126 M 536 630 L 536 31.5 M 536 441 L 598 410 L 630 410 L 693 441 M 536 252 L 598 284 L 630 284 L 693 252 M 239 756 L 239 794 L 258 850 L 296 869 L 334 869 L 372 850 L 447 794 L 485 775 L 523 775 L 561 794 L 580 832 M 239 794 L 258 832 L 296 850 L 334 850 L 372 832 L 447 775 L 485 756 L 523 756 L 561 775 L 580 832 L 580 869" />
<glyph unicode="&#xd6;" glyph-name="Odieresis" horiz-adv-x="819" d="M 315 662 L 252 630 L 189 567 L 158 504 L 126 410 L 126 284 L 158 189 L 189 126 L 252 63 L 315 31.5 L 410 0 L 472 0 L 567 31.5 L 630 63 L 693 126 L 724 189 L 756 284 L 756 410 L 724 504 L 693 567 L 630 630 L 567 662 L 536 630 L 441 567 L 346 536 M 189 536 L 158 441 L 158 252 L 189 158 M 315 662 L 252 598 L 220 536 L 189 441 L 189 252 L 220 158 L 252 94.5 L 315 31.5 M 693 158 L 724 252 L 724 441 L 662 567 L 630 598 M 567 31.5 L 630 94.5 L 662 158 L 693 252 L 693 441 L 662 504 L 598 598 L 536 630 M 346 536 L 346 126 M 378 536 L 378 189 M 410 536 L 410 220 L 378 158 L 346 126 M 536 630 L 536 31.5 M 536 441 L 598 410 L 630 410 L 693 441 M 536 252 L 598 284 L 630 284 L 693 252 M 375 945 L 312 882 L 375 850 L 438 882 L 375 945 M 375 914 L 343 882 L 406 882 L 375 914 M 633 945 L 570 882 L 633 850 L 696 882 L 633 945 M 633 914 L 602 882 L 665 882 L 633 914" />
<glyph unicode="&#xd7;" glyph-name="multiply" horiz-adv-x="567" d="M 189 441 L 536 0 L 567 0 M 189 441 L 220 441 L 567 0 M 567 441 L 536 441 L 189 0 M 567 441 L 220 0 L 189 0" />
<glyph unicode="&#xd8;" glyph-name="Oslash" horiz-adv-x="819" d="M 441 662 L 346 630 L 284 598 L 220 536 L 189 472 L 158 378 L 158 284 L 189 189 L 220 126 L 284 63 L 346 31.5 L 441 0 L 504 0 L 598 31.5 L 662 63 L 724 126 L 756 189 L 788 284 L 788 378 L 756 472 L 724 536 L 662 598 L 598 630 L 504 662 L 441 662 M 220 504 L 189 410 L 189 252 L 220 158 M 346 630 L 284 567 L 252 504 L 220 410 L 220 252 L 252 158 L 284 94.5 L 346 31.5 M 724 158 L 756 252 L 756 410 L 724 504 M 598 31.5 L 662 94.5 L 693 158 L 724 252 L 724 410 L 693 504 L 662 567 L 598 630 M 709 765 L 198 -142 L 227 -142 M 709 765 L 737 765 L 227 -142" />
<glyph unicode="&#xd9;" glyph-name="Ugrave" horiz-adv-x="756" d="M 94.5 598 L 158 662 L 220 662 L 315 630 L 378 662 M 189 630 L 284 630 M 94.5 598 L 158 630 L 252 598 L 315 598 L 378 662 M 189 536 L 158 472 L 126 378 L 126 252 L 158 158 L 189 94.5 L 252 31.5 L 346 0 L 441 0 L 536 31.5 L 598 63 L 662 0 L 724 63 M 158 252 L 189 158 L 284 63 L 378 31.5 L 472 31.5 M 189 536 L 158 410 L 158 315 L 189 220 L 220 158 L 284 94.5 L 378 63 L 504 63 L 598 94.5 M 504 567 L 378 536 L 346 472 L 346 158 M 378 504 L 378 220 M 410 536 L 410 252 L 378 189 L 346 158 M 504 567 L 567 598 L 630 662 L 662 630 L 724 598 L 662 567 L 662 126 L 693 63 L 724 63 M 630 567 L 662 598 L 630 630 L 598 598 L 630 567 L 630 94.5 L 693 31.5 M 567 598 L 598 567 L 598 94.5 M 504 567 L 504 63 M 504 410 L 598 410 M 504 284 L 598 284 M 252 1039.5 L 410 850 M 252 1039.5 L 220 1008.0 L 410 850" />
<glyph unicode="&#xda;" glyph-name="Uacute" horiz-adv-x="756" d="M 94.5 598 L 158 662 L 220 662 L 315 630 L 378 662 M 189 630 L 284 630 M 94.5 598 L 158 630 L 252 598 L 315 598 L 378 662 M 189 536 L 158 472 L 126 378 L 126 252 L 158 158 L 189 94.5 L 252 31.5 L 346 0 L 441 0 L 536 31.5 L 598 63 L 662 0 L 724 63 M 158 252 L 189 158 L 284 63 L 378 31.5 L 472 31.5 M 189 536 L 158 410 L 158 315 L 189 220 L 220 158 L 284 94.5 L 378 63 L 504 63 L 598 94.5 M 504 567 L 378 536 L 346 472 L 346 158 M 378 504 L 378 220 M 410 536 L 410 252 L 378 189 L 346 158 M 504 567 L 567 598 L 630 662 L 662 630 L 724 598 L 662 567 L 662 126 L 693 63 L 724 63 M 630 567 L 662 598 L 630 630 L 598 598 L 630 567 L 630 94.5 L 693 31.5 M 567 598 L 598 567 L 598 94.5 M 504 567 L 504 63 M 504 410 L 598 410 M 504 284 L 598 284 M 598 1039.5 L 441 850 M 598 1039.5 L 630 1008.0 L 441 850" />
<glyph unicode="&#xdb;" glyph-name="Ucircumflex" horiz-adv-x="756" d="M 94.5 598 L 158 662 L 220 662 L 315 630 L 378 662 M 189 630 L 284 630 M 94.5 598 L 158 630 L 252 598 L 315 598 L 378 662 M 189 536 L 158 472 L 126 378 L 126 252 L 158 158 L 189 94.5 L 252 31.5 L 346 0 L 441 0 L 536 31.5 L 598 63 L 662 0 L 724 63 M 158 252 L 189 158 L 284 63 L 378 31.5 L 472 31.5 M 189 536 L 158 410 L 158 315 L 189 220 L 220 158 L 284 94.5 L 378 63 L 504 63 L 598 94.5 M 504 567 L 378 536 L 346 472 L 346 158 M 378 504 L 378 220 M 410 536 L 410 252 L 378 189 L 346 158 M 504 567 L 567 598 L 630 662 L 662 630 L 724 598 L 662 567 L 662 126 L 693 63 L 724 63 M 630 567 L 662 598 L 630 630 L 598 598 L 630 567 L 630 94.5 L 693 31.5 M 567 598 L 598 567 L 598 94.5 M 504 567 L 504 63 M 504 410 L 598 410 M 504 284 L 598 284 M 315 772 L 441 850 L 567 772 M 315 772 L 441 835 L 567 772" />
<glyph unicode="&#xdc;" glyph-name="Udieresis" horiz-adv-x="756" d="M 94.5 598 L 158 662 L 220 662 L 315 630 L 378 662 M 189 630 L 284 630 M 94.5 598 L 158 630 L 252 598 L 315 598 L 378 662 M 189 536 L 158 472 L 126 378 L 126 252 L 158 158 L 189 94.5 L 252 31.5 L 346 0 L 441 0 L 536 31.5 L 598 63 L 662 0 L 724 63 M 158 252 L 189 158 L 284 63 L 378 31.5 L 472 31.5 M 189 536 L 158 410 L 158 315 L 189 220 L 220 158 L 284 94.5 L 378 63 L 504 63 L 598 94.5 M 504 567 L 378 536 L 346 472 L 346 158 M 378 504 L 378 220 M 410 536 L 410 252 L 378 189 L 346 158 M 504 567 L 567 598 L 630 662 L 662 630 L 724 598 L 662 567 L 662 126 L 693 63 L 724 63 M 630 567 L 662 598 L 630 630 L 598 598 L 630 567 L 630 94.5 L 693 31.5 M 567 598 L 598 567 L 598 94.5 M 504 567 L 504 63 M 504 410 L 598 410 M 504 284 L 598 284 M 341 945 L 278 882 L 341 850 L 404 882 L 341 945 M 341 914 L 309 882 L 372 882 L 341 914 M 604 945 L 541 882 L 604 850 L 667 882 L 604 945 M 604 914 L 573 882 L 636 882 L 604 914" />
<glyph unicode="&#xdd;" glyph-name="Yacute" horiz-adv-x="724" d="M 126 662 L 158 630 L 189 567 L 189 378 L 126 378 L 94.5 346 L 94.5 284 L 126 315 L 189 315 L 189 94.5 L 126 63 M 189 598 L 220 536 L 220 94.5 M 126 346 L 220 346 M 252 63 L 346 63 L 410 31.5 M 126 662 L 189 630 L 220 598 L 252 536 L 252 94.5 L 378 94.5 L 472 63 M 126 63 L 220 63 L 315 31.5 L 378 0 L 472 63 L 567 94.5 M 378 536 L 472 567 L 536 598 L 598 662 L 630 630 L 693 598 L 630 567 L 630 -94.5 L 598 -158 L 536 -220 L 472 -189 L 346 -158 L 189 -158 M 598 567 L 630 598 L 598 630 L 567 598 L 598 567 L 598 63 M 536 598 L 567 567 L 567 94.5 L 630 0 M 567 -189 L 504 -158 L 410 -158 M 598 -158 L 504 -126 L 315 -126 L 189 -158 M 378 536 L 378 94.5 M 378 441 L 441 410 L 504 410 L 567 441 M 378 252 L 441 284 L 504 284 L 567 252 M 583 1039.5 L 425 850 M 583 1039.5 L 614 1008.0 L 425 850" />
<glyph unicode="&#xe0;" glyph-name="agrave" horiz-adv-x="536" d="M 220 284 L 158 220 L 126 158 L 126 94.5 L 158 31.5 L 220 0 L 284 63 L 378 94.5 M 126 158 L 158 94.5 L 189 63 L 252 31.5 M 158 220 L 158 158 L 189 94.5 L 252 63 L 284 63 M 158 346 L 220 346 L 315 378 L 378 410 L 410 441 L 472 378 L 441 346 L 441 94.5 L 472 63 L 504 63 M 189 410 L 158 378 L 252 378 M 346 378 L 441 378 L 410 410 L 410 63 L 441 31.5 M 126 378 L 189 441 L 220 410 L 284 378 L 378 346 L 378 63 L 441 0 L 504 63 M 126 378 L 284 220 M 173 788 L 331 598 M 173 788 L 142 756 L 331 598" />
<glyph unicode="&#xe1;" glyph-name="aacute" horiz-adv-x="536" d="M 220 284 L 158 220 L 126 158 L 126 94.5 L 158 31.5 L 220 0 L 284 63 L 378 94.5 M 126 158 L 158 94.5 L 189 63 L 252 31.5 M 158 220 L 158 158 L 189 94.5 L 252 63 L 284 63 M 158 346 L 220 346 L 315 378 L 378 410 L 410 441 L 472 378 L 441 346 L 441 94.5 L 472 63 L 504 63 M 189 410 L 158 378 L 252 378 M 346 378 L 441 378 L 410 410 L 410 63 L 441 31.5 M 126 378 L 189 441 L 220 410 L 284 378 L 378 346 L 378 63 L 441 0 L 504 63 M 126 378 L 284 220 M 457 788 L 299 598 M 457 788 L 488 756 L 299 598" />
<glyph unicode="&#xe2;" glyph-name="acircumflex" horiz-adv-x="536" d="M 220 284 L 158 220 L 126 158 L 126 94.5 L 158 31.5 L 220 0 L 284 63 L 378 94.5 M 126 158 L 158 94.5 L 189 63 L 252 31.5 M 158 220 L 158 158 L 189 94.5 L 252 63 L 284 63 M 158 346 L 220 346 L 315 378 L 378 410 L 410 441 L 472 378 L 441 346 L 441 94.5 L 472 63 L 504 63 M 189 410 L 158 378 L 252 378 M 346 378 L 441 378 L 410 410 L 410 63 L 441 31.5 M 126 378 L 189 441 L 220 410 L 284 378 L 378 346 L 378 63 L 441 0 L 504 63 M 126 378 L 284 220 M 165 567 L 291 646 L 417 567 M 165 567 L 291 630 L 417 567" />
<glyph unicode="&#xe3;" glyph-name="atilde" horiz-adv-x="536" d="M 220 284 L 158 220 L 126 158 L 126 94.5 L 158 31.5 L 220 0 L 284 63 L 378 94.5 M 126 158 L 158 94.5 L 189 63 L 252 31.5 M 158 220 L 158 158 L 189 94.5 L 252 63 L 284 63 M 158 346 L 220 346 L 315 378 L 378 410 L 410 441 L 472 378 L 441 346 L 441 94.5 L 472 63 L 504 63 M 189 410 L 158 378 L 252 378 M 346 378 L 441 378 L 410 410 L 410 63 L 441 31.5 M 126 378 L 189 441 L 220 410 L 284 378 L 378 346 L 378 63 L 441 0 L 504 63 M 126 378 L 284 220 M 164 567 L 164 605 L 183 662 L 220 680 L 258 680 L 296 662 L 372 605 L 410 586 L 447 586 L 485 605 L 504 643 M 164 605 L 183 643 L 220 662 L 258 662 L 296 643 L 372 586 L 410 567 L 447 567 L 485 586 L 504 643 L 504 680" />
<glyph unicode="&#xe4;" glyph-name="adieresis" horiz-adv-x="536" d="M 220 284 L 158 220 L 126 158 L 126 94.5 L 158 31.5 L 220 0 L 284 63 L 378 94.5 M 126 158 L 158 94.5 L 189 63 L 252 31.5 M 158 220 L 158 158 L 189 94.5 L 252 63 L 284 63 M 158 346 L 220 346 L 315 378 L 378 410 L 410 441 L 472 378 L 441 346 L 441 94.5 L 472 63 L 504 63 M 189 410 L 158 378 L 252 378 M 346 378 L 441 378 L 410 410 L 410 63 L 441 31.5 M 126 378 L 189 441 L 220 410 L 284 378 L 378 346 L 378 63 L 441 0 L 504 63 M 126 378 L 284 220 M 209 724 L 146 662 L 209 630 L 272 662 L 209 724 M 209 693 L 178 662 L 241 662 L 209 693 M 452 724 L 389 662 L 452 630 L 515 662 L 452 724 M 452 693 L 421 662 L 484 662 L 452 693" />
<glyph unicode="&#xe5;" glyph-name="aring" horiz-adv-x="630" d="M 567 441 L 567 0 L 598 0 M 567 441 L 598 441 L 598 0 M 567 346 L 504 410 L 441 441 L 346 441 L 284 410 L 220 346 L 189 252 L 189 189 L 220 94.5 L 284 31.5 L 346 0 L 441 0 L 504 31.5 L 567 94.5 M 567 346 L 441 410 L 346 410 L 284 378 L 252 346 L 220 252 L 220 189 L 252 94.5 L 284 63 L 346 31.5 L 441 31.5 L 567 94.5 M 397 860 L 378 850 L 359 832 L 350 813 L 340 784 L 340 737 L 350 709 L 359 690 L 378 671 L 397 662 L 435 662 L 454 671 L 472 690 L 482 709 L 491 737 L 491 784 L 482 813 L 472 832 L 454 850 L 435 860 L 397 860 M 406 850 L 378 841 L 359 813 L 350 784 L 350 737 L 359 709 L 378 680 L 406 671 L 425 671 L 454 680 L 472 709 L 482 737 L 482 784 L 472 813 L 454 841 L 425 850 L 406 850" />
<glyph unicode="&#xe8;" glyph-name="egrave" horiz-adv-x="441" d="M 158 378 L 158 94.5 L 94.5 63 L 126 63 L 189 31.5 L 220 0 M 189 378 L 189 63 L 252 31.5 M 220 378 L 220 94.5 L 284 63 L 315 63 L 252 31.5 L 220 0 M 158 378 L 284 410 L 346 441 L 441 315 L 378 284 L 220 189 M 315 410 L 410 315 M 220 378 L 284 410 L 378 284 M 126 788 L 284 598 M 126 788 L 94.5 756 L 284 598" />
<glyph unicode="&#xe9;" glyph-name="eacute" horiz-adv-x="441" d="M 158 378 L 158 94.5 L 94.5 63 L 126 63 L 189 31.5 L 220 0 M 189 378 L 189 63 L 252 31.5 M 220 378 L 220 94.5 L 284 63 L 315 63 L 252 31.5 L 220 0 M 158 378 L 284 410 L 346 441 L 441 315 L 378 284 L 220 189 M 315 410 L 410 315 M 220 378 L 284 410 L 378 284 M 410 788 L 252 598 M 410 788 L 441 756 L 252 598" />
<glyph unicode="&#xea;" glyph-name="ecircumflex" horiz-adv-x="441" d="M 158 378 L 158 94.5 L 94.5 63 L 126 63 L 189 31.5 L 220 0 M 189 378 L 189 63 L 252 31.5 M 220 378 L 220 94.5 L 284 63 L 315 63 L 252 31.5 L 220 0 M 158 378 L 284 410 L 346 441 L 441 315 L 378 284 L 220 189 M 315 410 L 410 315 M 220 378 L 284 410 L 378 284 M 142 567 L 268 646 L 394 567 M 142 567 L 268 630 L 394 567" />
<glyph unicode="&#xeb;" glyph-name="edieresis" horiz-adv-x="441" d="M 158 378 L 158 94.5 L 94.5 63 L 126 63 L 189 31.5 L 220 0 M 189 378 L 189 63 L 252 31.5 M 220 378 L 220 94.5 L 284 63 L 315 63 L 252 31.5 L 220 0 M 158 378 L 284 410 L 346 441 L 441 315 L 378 284 L 220 189 M 315 410 L 410 315 M 220 378 L 284 410 L 378 284 M 160 724 L 96.8 662 L 160 630 L 223 662 L 160 724 M 160 693 L 128 662 L 191 662 L 160 693 M 407 724 L 344 662 L 407 630 L 470 662 L 407 724 M 407 693 L 376 662 L 439 662 L 407 693" />
<glyph unicode="&#xec;" glyph-name="igrave" horiz-adv-x="315" d="M 189 441 L 158 410 L 94.5 378 L 158 346 L 158 63 L 220 0 L 284 63 M 189 346 L 220 378 L 189 410 L 158 378 L 189 346 L 189 63 L 220 31.5 M 189 441 L 220 410 L 284 378 L 220 346 L 220 94.5 L 252 63 L 284 63 M 63 788 L 220 598 M 63 788 L 31.5 756 L 220 598" />
<glyph unicode="&#xed;" glyph-name="iacute" horiz-adv-x="315" d="M 189 441 L 158 410 L 94.5 378 L 158 346 L 158 63 L 220 0 L 284 63 M 189 346 L 220 378 L 189 410 L 158 378 L 189 346 L 189 63 L 220 31.5 M 189 441 L 220 410 L 284 378 L 220 346 L 220 94.5 L 252 63 L 284 63 M 346 788 L 189 598 M 346 788 L 378 756 L 189 598" />
<glyph unicode="&#xee;" glyph-name="icircumflex" horiz-adv-x="315" d="M 189 441 L 158 410 L 94.5 378 L 158 346 L 158 63 L 220 0 L 284 63 M 189 346 L 220 378 L 189 410 L 158 378 L 189 346 L 189 63 L 220 31.5 M 189 441 L 220 410 L 284 378 L 220 346 L 220 94.5 L 252 63 L 284 63 M 110 567 L 236 646 L 362 567 M 110 567 L 236 630 L 362 567" />
<glyph unicode="&#xef;" glyph-name="idieresis" horiz-adv-x="315" d="M 189 441 L 158 410 L 94.5 378 L 158 346 L 158 63 L 220 0 L 284 63 M 189 346 L 220 378 L 189 410 L 158 378 L 189 346 L 189 63 L 220 31.5 M 189 441 L 220 410 L 284 378 L 220 346 L 220 94.5 L 252 63 L 284 63 M 101 724 L 37.9 662 L 101 630 L 164 662 L 101 724 M 101 693 L 69.4 662 L 132 662 L 101 693 M 340 724 L 277 662 L 340 630 L 403 662 L 340 724 M 340 693 L 309 662 L 372 662 L 340 693" />
<glyph unicode="&#xf1;" glyph-name="ntilde" horiz-adv-x="567" d="M 94.5 378 L 126 378 L 158 346 L 158 94.5 L 94.5 63 L 126 63 L 189 31.5 L 220 0 M 158 410 L 189 378 L 189 63 L 252 31.5 M 94.5 378 L 158 441 L 220 378 L 220 94.5 L 284 63 L 220 0 M 220 346 L 315 378 L 378 410 L 410 441 L 441 410 L 504 378 L 536 378 L 472 346 L 472 94.5 L 504 63 L 536 63 M 378 410 L 441 378 L 441 63 L 472 31.5 M 315 378 L 346 378 L 410 346 L 410 63 L 472 0 L 536 63 M 170 567 L 170 605 L 189 662 L 227 680 L 265 680 L 302 662 L 378 605 L 416 586 L 454 586 L 491 605 L 510 643 M 170 605 L 189 643 L 227 662 L 265 662 L 302 643 L 378 586 L 416 567 L 454 567 L 491 586 L 510 643 L 510 680" />
<glyph unicode="&#xf2;" glyph-name="ograve" horiz-adv-x="567" d="M 158 378 L 158 94.5 L 94.5 63 M 189 346 L 189 94.5 L 284 31.5 M 220 378 L 220 94.5 L 284 63 L 315 31.5 M 94.5 63 L 158 63 L 220 31.5 L 252 0 L 315 31.5 L 410 63 L 472 63 M 158 378 L 220 378 L 315 410 L 378 441 L 410 410 L 472 378 L 536 378 L 472 346 L 472 63 M 346 410 L 441 346 L 441 94.5 M 315 410 L 346 378 L 410 346 L 410 63 M 189 788 L 346 598 M 189 788 L 158 756 L 346 598" />
<glyph unicode="&#xf3;" glyph-name="oacute" horiz-adv-x="567" d="M 158 378 L 158 94.5 L 94.5 63 M 189 346 L 189 94.5 L 284 31.5 M 220 378 L 220 94.5 L 284 63 L 315 31.5 M 94.5 63 L 158 63 L 220 31.5 L 252 0 L 315 31.5 L 410 63 L 472 63 M 158 378 L 220 378 L 315 410 L 378 441 L 410 410 L 472 378 L 536 378 L 472 346 L 472 63 M 346 410 L 441 346 L 441 94.5 M 315 410 L 346 378 L 410 346 L 410 63 M 472 788 L 315 598 M 472 788 L 504 756 L 315 598" />
<glyph unicode="&#xf4;" glyph-name="ocircumflex" horiz-adv-x="567" d="M 158 378 L 158 94.5 L 94.5 63 M 189 346 L 189 94.5 L 284 31.5 M 220 378 L 220 94.5 L 284 63 L 315 31.5 M 94.5 63 L 158 63 L 220 31.5 L 252 0 L 315 31.5 L 410 63 L 472 63 M 158 378 L 220 378 L 315 410 L 378 441 L 410 410 L 472 378 L 536 378 L 472 346 L 472 63 M 346 410 L 441 346 L 441 94.5 M 315 410 L 346 378 L 410 346 L 410 63 M 173 567 L 299 646 L 425 567 M 173 567 L 299 630 L 425 567" />
<glyph unicode="&#xf5;" glyph-name="otilde" horiz-adv-x="567" d="M 158 378 L 158 94.5 L 94.5 63 M 189 346 L 189 94.5 L 284 31.5 M 220 378 L 220 94.5 L 284 63 L 315 31.5 M 94.5 63 L 158 63 L 220 31.5 L 252 0 L 315 31.5 L 410 63 L 472 63 M 158 378 L 220 378 L 315 410 L 378 441 L 410 410 L 472 378 L 536 378 L 472 346 L 472 63 M 346 410 L 441 346 L 441 94.5 M 315 410 L 346 378 L 410 346 L 410 63 M 170 567 L 170 605 L 189 662 L 227 680 L 265 680 L 302 662 L 378 605 L 416 586 L 454 586 L 491 605 L 510 643 M 170 605 L 189 643 L 227 662 L 265 662 L 302 643 L 378 586 L 416 567 L 454 567 L 491 586 L 510 643 L 510 680" />
<glyph unicode="&#xf6;" glyph-name="odieresis" horiz-adv-x="567" d="M 158 378 L 158 94.5 L 94.5 63 M 189 346 L 189 94.5 L 284 31.5 M 220 378 L 220 94.5 L 284 63 L 315 31.5 M 94.5 63 L 158 63 L 220 31.5 L 252 0 L 315 31.5 L 410 63 L 472 63 M 158 378 L 220 378 L 315 410 L 378 441 L 410 410 L 472 378 L 536 378 L 472 346 L 472 63 M 346 410 L 441 346 L 441 94.5 M 315 410 L 346 378 L 410 346 L 410 63 M 219 724 L 156 662 L 219 630 L 282 662 L 219 724 M 219 693 L 187 662 L 250 662 L 219 693 M 474 724 L 411 662 L 474 630 L 537 662 L 474 724 M 474 693 L 443 662 L 506 662 L 474 693" />
<glyph unicode="&#xf7;" glyph-name="divide" horiz-adv-x="614" d="M 346 583 L 284 520 L 346 488 L 410 520 L 346 583 M 346 551 L 315 520 L 378 520 L 346 551 M 346 268 L 284 205 L 346 173 L 410 205 L 346 268 M 346 236 L 315 205 L 378 205 L 346 236 M 118 378 L 543 378" />
<glyph unicode="&#xf8;" glyph-name="oslash" horiz-adv-x="567" d="M 158 378 L 158 94.5 L 94.5 63 M 189 346 L 189 94.5 L 284 31.5 M 220 378 L 220 94.5 L 284 63 L 315 31.5 M 94.5 63 L 158 63 L 220 31.5 L 252 0 L 315 31.5 L 410 63 L 472 63 M 158 378 L 220 378 L 315 410 L 378 441 L 410 410 L 472 378 L 536 378 L 472 346 L 472 63 M 346 410 L 441 346 L 441 94.5 M 315 410 L 346 378 L 410 346 L 410 63 M 463 551 L 66.1 -154 L 88.2 -154 M 463 551 L 485 551 L 88.2 -154" />
<glyph unicode="&#xf9;" glyph-name="ugrave" horiz-adv-x="567" d="M 94.5 378 L 126 378 L 158 346 L 158 94.5 L 94.5 63 M 126 410 L 189 378 L 189 63 L 252 31.5 M 94.5 378 L 158 441 L 220 378 L 220 94.5 L 284 63 L 315 63 M 94.5 63 L 126 63 L 189 31.5 L 220 0 L 252 31.5 L 315 63 L 410 94.5 M 410 441 L 441 410 L 504 378 L 536 378 L 472 346 L 472 94.5 L 504 63 L 536 63 M 378 410 L 441 378 L 441 63 L 472 31.5 M 410 441 L 346 378 L 410 346 L 410 63 L 472 0 L 536 63 M 189 788 L 346 598 M 189 788 L 158 756 L 346 598" />
<glyph unicode="&#xfa;" glyph-name="uacute" horiz-adv-x="567" d="M 94.5 378 L 126 378 L 158 346 L 158 94.5 L 94.5 63 M 126 410 L 189 378 L 189 63 L 252 31.5 M 94.5 378 L 158 441 L 220 378 L 220 94.5 L 284 63 L 315 63 M 94.5 63 L 126 63 L 189 31.5 L 220 0 L 252 31.5 L 315 63 L 410 94.5 M 410 441 L 441 410 L 504 378 L 536 378 L 472 346 L 472 94.5 L 504 63 L 536 63 M 378 410 L 441 378 L 441 63 L 472 31.5 M 410 441 L 346 378 L 410 346 L 410 63 L 472 0 L 536 63 M 472 788 L 315 598 M 472 788 L 504 756 L 315 598" />
<glyph unicode="&#xfb;" glyph-name="ucircumflex" horiz-adv-x="567" d="M 94.5 378 L 126 378 L 158 346 L 158 94.5 L 94.5 63 M 126 410 L 189 378 L 189 63 L 252 31.5 M 94.5 378 L 158 441 L 220 378 L 220 94.5 L 284 63 L 315 63 M 94.5 63 L 126 63 L 189 31.5 L 220 0 L 252 31.5 L 315 63 L 410 94.5 M 410 441 L 441 410 L 504 378 L 536 378 L 472 346 L 472 94.5 L 504 63 L 536 63 M 378 410 L 441 378 L 441 63 L 472 31.5 M 410 441 L 346 378 L 410 346 L 410 63 L 472 0 L 536 63 M 173 567 L 299 646 L 425 567 M 173 567 L 299 630 L 425 567" />
<glyph unicode="&#xfc;" glyph-name="udieresis" horiz-adv-x="567" d="M 94.5 378 L 126 378 L 158 346 L 158 94.5 L 94.5 63 M 126 410 L 189 378 L 189 63 L 252 31.5 M 94.5 378 L 158 441 L 220 378 L 220 94.5 L 284 63 L 315 63 M 94.5 63 L 126 63 L 189 31.5 L 220 0 L 252 31.5 L 315 63 L 410 94.5 M 410 441 L 441 410 L 504 378 L 536 378 L 472 346 L 472 94.5 L 504 63 L 536 63 M 378 410 L 441 378 L 441 63 L 472 31.5 M 410 441 L 346 378 L 410 346 L 410 63 L 472 0 L 536 63 M 220 724 L 157 662 L 220 630 L 283 662 L 220 724 M 220 693 L 189 662 L 252 662 L 220 693 M 473 724 L 410 662 L 473 630 L 536 662 L 473 724 M 473 693 L 441 662 L 504 662 L 473 693" />
<glyph unicode="&#xfd;" glyph-name="yacute" horiz-adv-x="567" d="M 94.5 378 L 126 378 L 158 346 L 158 94.5 L 94.5 63 M 126 410 L 189 378 L 189 63 L 252 31.5 M 94.5 378 L 158 441 L 220 378 L 220 94.5 L 284 63 L 315 63 M 94.5 63 L 126 63 L 189 31.5 L 220 0 L 252 31.5 L 315 63 L 410 94.5 M 410 441 L 441 410 L 504 378 L 536 378 L 472 346 L 472 -31.5 L 441 -126 L 378 -189 L 315 -220 L 284 -189 L 220 -158 L 158 -158 M 378 410 L 441 378 L 441 -31.5 M 346 -189 L 284 -158 L 252 -158 M 410 441 L 346 378 L 410 346 L 410 31.5 L 441 -63 L 441 -126 M 378 -189 L 346 -158 L 284 -126 L 220 -126 L 158 -158 M 472 788 L 315 598 M 472 788 L 504 756 L 315 598" />
<glyph unicode="&#xff;" glyph-name="ydieresis" horiz-adv-x="567" d="M 94.5 378 L 126 378 L 158 346 L 158 94.5 L 94.5 63 M 126 410 L 189 378 L 189 63 L 252 31.5 M 94.5 378 L 158 441 L 220 378 L 220 94.5 L 284 63 L 315 63 M 94.5 63 L 126 63 L 189 31.5 L 220 0 L 252 31.5 L 315 63 L 410 94.5 M 410 441 L 441 410 L 504 378 L 536 378 L 472 346 L 472 -31.5 L 441 -126 L 378 -189 L 315 -220 L 284 -189 L 220 -158 L 158 -158 M 378 410 L 441 378 L 441 -31.5 M 346 -189 L 284 -158 L 252 -158 M 410 441 L 346 378 L 410 346 L 410 31.5 L 441 -63 L 441 -126 M 378 -189 L 346 -158 L 284 -126 L 220 -126 L 158 -158 M 228 724 L 165 662 L 228 630 L 291 662 L 228 724 M 228 693 L 197 662 L 260 662 L 228 693 M 465 724 L 402 662 L 465 630 L 528 662 L 465 724 M 465 693 L 433 662 L 496 662 L 465 693" />
<glyph unicode="&#x2013;" glyph-name="endash" horiz-adv-x="614" d="M 118 284 L 543 284" />
<glyph unicode="&#x2014;" glyph-name="emdash" horiz-adv-x="819" d="M 158 284 L 724 284" />
<glyph unicode="&#x201c;" glyph-name="quotedblleft" horiz-adv-x="378" d="M 198 709 L 170 652 L 156 595 L 156 567 L 170 539 L 184 567 L 170 595 M 340 709 L 312 652 L 298 595 L 298 567 L 312 539 L 326 567 L 312 595" />
<glyph unicode="&#x201d;" glyph-name="quotedblright" horiz-adv-x="378" d="M 198 567 L 184 595 L 198 624 L 213 595 L 213 567 L 198 510 L 170 454 M 340 567 L 326 595 L 340 624 L 354 595 L 354 567 L 340 510 L 312 454" />
<glyph unicode="&#x2039;" glyph-name="guilsinglleft" horiz-adv-x="302" d="M 265 454 L 63 227 L 265 0" />
<glyph unicode="&#x203a;" glyph-name="guilsinglright" horiz-adv-x="302" d="M 63 454 L 265 227 L 63 0" />
<glyph unicode="&#x20ac;" glyph-name="Euro" horiz-adv-x="819" d="M 788 662 L 756 598 L 724 536 L 662 598 L 598 630 L 504 662 L 441 662 L 346 630 L 284 598 L 220 536 L 189 472 L 158 378 L 158 284 L 189 189 L 220 126 L 284 63 L 346 31.5 L 441 0 L 504 0 L 598 31.5 L 662 63 L 724 126 L 756 63 L 788 0 M 756 598 L 724 441 L 724 220 L 756 63 M 724 504 L 693 536 M 724 410 L 693 504 L 662 567 L 598 630 M 220 504 L 189 410 L 189 252 L 220 158 M 346 630 L 284 567 L 252 504 L 220 410 L 220 252 L 252 158 L 284 94.5 L 346 31.5 M 693 126 L 724 158 M 598 31.5 L 662 94.5 L 693 158 L 724 252 M 75.6 252 L 529 252 M 75.6 353 L 529 353" />
<glyph unicode="&#x0178;" glyph-name="Ydieresis" horiz-adv-x="724" d="M 126 662 L 158 630 L 189 567 L 189 378 L 126 378 L 94.5 346 L 94.5 284 L 126 315 L 189 315 L 189 94.5 L 126 63 M 189 598 L 220 536 L 220 94.5 M 126 346 L 220 346 M 252 63 L 346 63 L 410 31.5 M 126 662 L 189 630 L 220 598 L 252 536 L 252 94.5 L 378 94.5 L 472 63 M 126 63 L 220 63 L 315 31.5 L 378 0 L 472 63 L 567 94.5 M 378 536 L 472 567 L 536 598 L 598 662 L 630 630 L 693 598 L 630 567 L 630 -94.5 L 598 -158 L 536 -220 L 472 -189 L 346 -158 L 189 -158 M 598 567 L 630 598 L 598 630 L 567 598 L 598 567 L 598 63 M 536 598 L 567 567 L 567 94.5 L 630 0 M 567 -189 L 504 -158 L 410 -158 M 598 -158 L 504 -126 L 315 -126 L 189 -158 M 378 536 L 378 94.5 M 378 441 L 441 410 L 504 410 L 567 441 M 378 252 L 441 284 L 504 284 L 567 252 M 335 945 L 272 882 L 335 850 L 398 882 L 335 945 M 335 914 L 303 882 L 366 882 L 335 914 M 579 945 L 516 882 L 579 850 L 642 882 L 579 945 M 579 914 L 547 882 L 610 882 L 579 914" />
<glyph unicode="&#x102;" glyph-name="Abreve" horiz-adv-x="693" d="M 189 567 L 252 630 L 315 662 L 378 662 L 410 630 L 630 126 L 662 94.5 L 724 94.5 M 346 630 L 378 598 L 598 94.5 L 630 31.5 L 662 63 L 598 94.5 M 252 630 L 315 630 L 346 598 L 567 94.5 L 598 31.5 L 630 0 L 662 0 L 724 94.5 M 189 441 L 220 472 L 284 504 L 315 504 L 346 472 M 315 472 L 315 441 M 220 472 L 284 472 L 315 410 M 31.5 0 L 94.5 63 L 158 94.5 L 252 94.5 L 315 63 M 126 63 L 252 63 L 284 31.5 M 31.5 0 L 126 31.5 L 220 31.5 L 252 0 L 315 63 M 378 536 L 189 94.5 M 252 252 L 504 252 M249.137 938.207C249.137 938.207 363.695 819.793 438 819.793C512.305 819.793 626.863 938.207 626.863 938.207M249.137 938.207C249.137 938.207 367.615 843.776 438 843.776C508.385 843.776 626.863 938.207 626.863 938.207" />
<glyph unicode="&#x114;" glyph-name="Ebreve" horiz-adv-x="693" d="M 94.5 598 L 158 662 L 220 662 L 284 630 L 346 662 M 189 630 L 252 630 M 94.5 598 L 158 630 L 220 598 L 284 598 L 346 662 M 252 504 L 220 472 L 189 410 L 189 378 L 126 378 L 94.5 346 L 94.5 284 L 126 315 L 189 315 L 189 126 M 220 441 L 220 189 M 126 346 L 220 346 M 252 504 L 252 220 L 220 158 L 189 126 M 346 441 L 378 536 L 410 598 L 441 630 L 504 662 L 567 662 L 662 630 M 441 598 L 504 630 L 567 630 L 630 598 M 378 536 L 410 567 L 472 598 L 536 598 L 598 567 L 662 630 M 346 189 L 378 284 L 410 346 L 441 378 L 504 378 L 567 346 M 441 346 L 504 346 L 536 315 M 378 284 L 410 315 L 472 315 L 504 284 L 567 346 M 158 0 L 252 63 L 378 94.5 L 536 94.5 L 662 63 M 220 31.5 L 315 63 L 536 63 L 630 31.5 M 158 0 L 284 31.5 L 504 31.5 L 598 0 L 662 63 M 346 441 L 346 94.5 M249.137 938.207C249.137 938.207 363.695 819.793 438 819.793C512.305 819.793 626.863 938.207 626.863 938.207M249.137 938.207C249.137 938.207 367.615 843.776 438 843.776C508.385 843.776 626.863 938.207 626.863 938.207" />
<glyph unicode="&#x11E;" glyph-name="Gbreve" horiz-adv-x="788" d="M 315 630 L 252 598 L 189 536 L 158 472 L 126 378 L 126 284 L 158 189 L 189 126 L 252 63 L 315 31.5 L 410 0 L 536 0 L 630 31.5 L 693 94.5 L 724 158 L 724 252 L 693 315 L 662 346 L 598 378 L 536 378 M 189 504 L 158 410 L 158 252 L 189 158 M 315 630 L 252 567 L 220 504 L 189 410 L 189 252 L 220 158 L 252 94.5 L 315 31.5 M 662 94.5 L 693 126 L 693 252 L 662 315 M 536 0 L 598 31.5 L 630 63 L 662 126 L 662 252 L 630 315 L 598 346 L 536 378 M 378 536 L 378 126 M 410 536 L 410 189 M 441 567 L 441 220 L 410 158 L 378 126 M 378 536 L 441 567 L 536 662 L 598 630 L 662 630 L 693 662 M 504 630 L 567 598 L 630 598 M 472 598 L 536 567 L 598 567 L 662 598 L 693 662 M 662 598 L 536 378 L 536 0 M 536 252 L 662 252 M 536 158 L 662 158 M279.137 938.207C279.137 938.207 393.695 819.793 468 819.793C542.305 819.793 656.863 938.207 656.863 938.207M279.137 938.207C279.137 938.207 397.615 843.776 468 843.776C538.385 843.776 656.863 938.207 656.863 938.207" />
<glyph unicode="&#x12C;" glyph-name="Ibreve" horiz-adv-x="598" d="M 126 598 L 189 662 L 284 662 L 378 630 L 441 662 M 220 630 L 346 630 M 126 598 L 189 630 L 284 598 L 378 598 L 441 662 M 346 504 L 315 472 L 284 410 L 284 378 L 220 378 L 189 346 L 189 284 L 220 315 L 284 315 L 284 158 M 315 441 L 315 220 M 220 346 L 315 346 M 346 504 L 346 252 L 315 189 L 284 158 M 536 598 L 472 536 L 441 441 L 441 94.5 L 410 31.5 L 346 31.5 L 220 94.5 L 158 94.5 L 94.5 63 L 31.5 0 M 472 504 L 472 126 M 315 31.5 L 284 31.5 L 220 63 L 126 63 M 536 598 L 504 536 L 504 158 L 472 94.5 L 410 31.5 L 346 0 L 252 0 L 189 31.5 L 94.5 31.5 L 31.5 0 M219.137 938.207C219.137 938.207 333.695 819.793 408 819.793C482.305 819.793 596.863 938.207 596.863 938.207M219.137 938.207C219.137 938.207 337.615 843.776 408 843.776C478.385 843.776 596.863 938.207 596.863 938.207" />
<glyph unicode="&#x14E;" glyph-name="Obreve" horiz-adv-x="819" d="M 315 662 L 252 630 L 189 567 L 158 504 L 126 410 L 126 284 L 158 189 L 189 126 L 252 63 L 315 31.5 L 410 0 L 472 0 L 567 31.5 L 630 63 L 693 126 L 724 189 L 756 284 L 756 410 L 724 504 L 693 567 L 630 630 L 567 662 L 536 630 L 441 567 L 346 536 M 189 536 L 158 441 L 158 252 L 189 158 M 315 662 L 252 598 L 220 536 L 189 441 L 189 252 L 220 158 L 252 94.5 L 315 31.5 M 693 158 L 724 252 L 724 441 L 662 567 L 630 598 M 567 31.5 L 630 94.5 L 662 158 L 693 252 L 693 441 L 662 504 L 598 598 L 536 630 M 346 536 L 346 126 M 378 536 L 378 189 M 410 536 L 410 220 L 378 158 L 346 126 M 536 630 L 536 31.5 M 536 441 L 598 410 L 630 410 L 693 441 M 536 252 L 598 284 L 630 284 L 693 252 M289.137 938.207C289.137 938.207 403.695 819.793 478 819.793C552.305 819.793 666.863 938.207 666.863 938.207M289.137 938.207C289.137 938.207 407.615 843.776 478 843.776C548.385 843.776 666.863 938.207 666.863 938.207" />
<glyph unicode="&#x16C;" glyph-name="Ubreve" horiz-adv-x="756" d="M 94.5 598 L 158 662 L 220 662 L 315 630 L 378 662 M 189 630 L 284 630 M 94.5 598 L 158 630 L 252 598 L 315 598 L 378 662 M 189 536 L 158 472 L 126 378 L 126 252 L 158 158 L 189 94.5 L 252 31.5 L 346 0 L 441 0 L 536 31.5 L 598 63 L 662 0 L 724 63 M 158 252 L 189 158 L 284 63 L 378 31.5 L 472 31.5 M 189 536 L 158 410 L 158 315 L 189 220 L 220 158 L 284 94.5 L 378 63 L 504 63 L 598 94.5 M 504 567 L 378 536 L 346 472 L 346 158 M 378 504 L 378 220 M 410 536 L 410 252 L 378 189 L 346 158 M 504 567 L 567 598 L 630 662 L 662 630 L 724 598 L 662 567 L 662 126 L 693 63 L 724 63 M 630 567 L 662 598 L 630 630 L 598 598 L 630 567 L 630 94.5 L 693 31.5 M 567 598 L 598 567 L 598 94.5 M 504 567 L 504 63 M 504 410 L 598 410 M 504 284 L 598 284 M269.137 938.207C269.137 938.207 383.695 819.793 458 819.793C532.305 819.793 646.863 938.207 646.863 938.207M269.137 938.207C269.137 938.207 387.615 843.776 458 843.776C528.385 843.776 646.863 938.207 646.863 938.207" />
<glyph unicode="&#x103;" glyph-name="abreve" horiz-adv-x="536" d="M 220 284 L 158 220 L 126 158 L 126 94.5 L 158 31.5 L 220 0 L 284 63 L 378 94.5 M 126 158 L 158 94.5 L 189 63 L 252 31.5 M 158 220 L 158 158 L 189 94.5 L 252 63 L 284 63 M 158 346 L 220 346 L 315 378 L 378 410 L 410 441 L 472 378 L 441 346 L 441 94.5 L 472 63 L 504 63 M 189 410 L 158 378 L 252 378 M 346 378 L 441 378 L 410 410 L 410 63 L 441 31.5 M 126 378 L 189 441 L 220 410 L 284 378 L 378 346 L 378 63 L 441 0 L 504 63 M 126 378 L 284 220 M119.137 758.207C119.137 758.207 233.695 639.793 308 639.793C382.305 639.793 496.863 758.207 496.863 758.207M119.137 758.207C119.137 758.207 237.615 663.776 308 663.776C378.385 663.776 496.863 758.207 496.863 758.207" />
<glyph unicode="&#x115;" glyph-name="ebreve" horiz-adv-x="441" d="M 158 378 L 158 94.5 L 94.5 63 L 126 63 L 189 31.5 L 220 0 M 189 378 L 189 63 L 252 31.5 M 220 378 L 220 94.5 L 284 63 L 315 63 L 252 31.5 L 220 0 M 158 378 L 284 410 L 346 441 L 441 315 L 378 284 L 220 189 M 315 410 L 410 315 M 220 378 L 284 410 L 378 284 M89.1368 758.207C89.1368 758.207 203.695 639.793 278 639.793C352.305 639.793 466.863 758.207 466.863 758.207M89.1368 758.207C89.1368 758.207 207.615 663.776 278 663.776C348.385 663.776 466.863 758.207 466.863 758.207" />
<glyph unicode="&#x11F;" glyph-name="gbreve" horiz-adv-x="567" d="M 158 378 L 158 94.5 L 94.5 63 L 126 63 L 189 31.5 L 220 0 L 252 31.5 L 315 63 L 410 94.5 M 189 346 L 189 63 L 252 31.5 M 220 378 L 220 94.5 L 284 63 L 315 63 M 158 378 L 220 378 L 315 410 L 378 441 L 410 410 L 472 378 L 536 378 L 472 346 L 472 -31.5 L 441 -126 L 378 -189 L 315 -220 L 284 -189 L 220 -158 L 158 -158 M 346 410 L 441 346 L 441 -31.5 M 346 -189 L 284 -158 L 252 -158 M 315 410 L 346 378 L 410 346 L 410 31.5 L 441 -63 L 441 -126 M 378 -189 L 346 -158 L 284 -126 L 220 -126 L 158 -158 M129.137 758.207C129.137 758.207 243.695 639.793 318 639.793C392.305 639.793 506.863 758.207 506.863 758.207M129.137 758.207C129.137 758.207 247.615 663.776 318 663.776C388.385 663.776 506.863 758.207 506.863 758.207" />
<glyph unicode="&#x12D;" glyph-name="ibreve" horiz-adv-x="315" d="M 189 441 L 158 410 L 94.5 378 L 158 346 L 158 63 L 220 0 L 284 63 M 189 346 L 220 378 L 189 410 L 158 378 L 189 346 L 189 63 L 220 31.5 M 189 441 L 220 410 L 284 378 L 220 346 L 220 94.5 L 252 63 L 284 63 M49.1368 758.207C49.1368 758.207 163.695 639.793 238 639.793C312.305 639.793 426.863 758.207 426.863 758.207M49.1368 758.207C49.1368 758.207 167.615 663.776 238 663.776C308.385 663.776 426.863 758.207 426.863 758.207" />
<glyph unicode="&#x14F;" glyph-name="obreve" horiz-adv-x="567" d="M 158 378 L 158 94.5 L 94.5 63 M 189 346 L 189 94.5 L 284 31.5 M 220 378 L 220 94.5 L 284 63 L 315 31.5 M 94.5 63 L 158 63 L 220 31.5 L 252 0 L 315 31.5 L 410 63 L 472 63 M 158 378 L 220 378 L 315 410 L 378 441 L 410 410 L 472 378 L 536 378 L 472 346 L 472 63 M 346 410 L 441 346 L 441 94.5 M 315 410 L 346 378 L 410 346 L 410 63 M129.137 758.207C129.137 758.207 243.695 639.793 318 639.793C392.305 639.793 506.863 758.207 506.863 758.207M129.137 758.207C129.137 758.207 247.615 663.776 318 663.776C388.385 663.776 506.863 758.207 506.863 758.207" />
<glyph unicode="&#x16D;" glyph-name="ubreve" horiz-adv-x="567" d="M 94.5 378 L 126 378 L 158 346 L 158 94.5 L 94.5 63 M 126 410 L 189 378 L 189 63 L 252 31.5 M 94.5 378 L 158 441 L 220 378 L 220 94.5 L 284 63 L 315 63 M 94.5 63 L 126 63 L 189 31.5 L 220 0 L 252 31.5 L 315 63 L 410 94.5 M 410 441 L 441 410 L 504 378 L 536 378 L 472 346 L 472 94.5 L 504 63 L 536 63 M 378 410 L 441 378 L 441 63 L 472 31.5 M 410 441 L 346 378 L 410 346 L 410 63 L 472 0 L 536 63 M129.137 758.207C129.137 758.207 243.695 639.793 318 639.793C392.305 639.793 506.863 758.207 506.863 758.207M129.137 758.207C129.137 758.207 247.615 663.776 318 663.776C388.385 663.776 506.863 758.207 506.863 758.207" />
<glyph unicode="&#xdf;" glyph-name="germandbls" horiz-adv-x="550" d="M397.556 251.015C397.556 251.015 568.941 137.793 458.875 62.2012M316.305 451.433L347.305 451.433L441.763 396.59M379.305 483.433L468.955 430.493M413.209 -89.1803C413.209 -89.1803 351.231 -46.1496 366.444 -13.1816C381.656 19.7864 532.317 54.277 532.317 141.155C532.317 228.033 309.596 305.217 309.596 305.217L533.498 434.3C485.316 461.178 449.172 476.565 411.305 514.433L379.305 483.433L316.305 451.433L221.305 419.433M95.8051 76.4327L159.305 76.4327L221.305 44.9327L253.305 13.4327L304.884 62.0651L334.197 95.4687M127.305 611.433L221.305 675.433L221.305 107.933L295.305 74.4327M190.305 549.433L159.305 611.433L190.305 643.433L190.305 107.933L285.305 44.9327M127.305 611.433L159.305 549.433L159.305 107.933L95.8051 76.4327M309.596 285.217C309.596 285.217 577.242 133.053 388.592 24.1357" />
<glyph unicode="&#xa3;" glyph-name="sterling" horiz-adv-x="693" d="M410.589 309.962L474.089 341.962L536.089 309.962L591.089 309.962L654.089 373.962M505.089 341.962L560.089 341.962M410.589 309.962L474.089 373.962L528.089 373.962L591.089 341.962L654.089 373.962M452 630L516 630L578 567L642 630M547 630L578 630L610 598M390 567L452 630L516 662L578 662L642 630M390 567L390 244L358 180L326 149M358 504L358 212M390 567L358 536L326 472L326 149M158 -0L284 31.5L504 31.5L598 -0L662 63M220 31.5L315 63L536 63L630 31.5M158 -0L252 63L378 94.5L536 94.5L662 63M252 504L252 220L220 158L189 126M126 346L220 346M220 441L220 189M252 504L220 472L189 410L189 378L126 378L94.5 346L94.5 284L126 315L189 315L189 126M94.5 598L158 630L220 598L315 598L378 662M189 630L284 630M94.5 598L158 662L252 662L315 630L378 662" />
<glyph unicode="&#xc7;" glyph-name="Ccedilla" horiz-adv-x="756" d="M472 -0L464.413 -35.2187L504.862 -53.196L507.858 -128.101L419.47 -153.569L364.04 -110.124L401.493 -111.622L462.915 -104.132L461.417 -74.1695L414.976 -62.1847L416.474 -0.762239ZM446.436 -11.249C445.826 -71.4469 491.557 -66.2929 491.379 -116.117L425.463 -129.599L364.04 -110.124M315 630L252 598L189 536L158 472L126 378L126 252L158 158L189 94.5L284 31.5L378 -0L472 -0L567 31.5L630 63L693 126L724 189M189 504L158 410L158 252L220 126L315 63L410 31.5L504 31.5L598 63M315 630L252 567L220 504L189 410L189 284L220 189L315 94.5L410 63L504 63L598 94.5L662 126L724 189M378 536L378 158M410 536L410 220M441 567L441 252L410 189L378 158M378 536L441 567L536 662L598 630L662 630L693 662M504 630L567 598L630 598M472 598L536 567L598 567L662 598L693 662M598 567L598 94.5" />
<glyph unicode="&#xe7;" glyph-name="ccedilla" horiz-adv-x="441" d="M213.551 -32.4208C212.941 -92.6187 258.672 -87.4647 258.494 -137.288L192.578 -150.771L131.155 -131.296M231.675 -21.8482L231.528 -56.3905L271.977 -74.3678L274.974 -149.273L186.585 -174.741L131.155 -131.296L168.608 -132.794L230.03 -125.303L228.532 -95.3413L182.091 -83.3565L183.589 -21.934M158 378L158 94.5L94.5 63L126 63L189 31.5L220 -0M189 378L189 63L252 31.5M220 378L220 94.5L284 63L315 63L252 31.5L220 -0M158 378L284 410L346 441L378 410L441 378L472 378M315 410L346 378L410 378M220 378L284 410L346 346L410 346L472 378" />
<glyph unicode="&#x130;" glyph-name="Idotaccent" horiz-adv-x="598" d="M329.322 839.873L266.322 775.873L329.322 744.873L392.322 775.873L329.322 839.873M329.322 807.873L298.322 775.873L360.322 775.873L329.322 807.873M126 598L189 662L284 662L378 630L441 662M220 630L346 630M126 598L189 630L284 598L378 598L441 662M346 504L315 472L284 410L284 378L220 378L189 346L189 284L220 315L284 315L284 158M315 441L315 220M220 346L315 346M346 504L346 252L315 189L284 158M536 598L472 536L441 441L441 94.5L410 31.5L346 31.5L220 94.5L158 94.5L94.5 63L31.5 -0M472 504L472 126M315 31.5L284 31.5L220 63L126 63M536 598L504 536L504 158L472 94.5L410 31.5L346 -0L252 -0L189 31.5L94.5 31.5L31.5 -0" />
<glyph unicode="&#xE6;" glyph-name="ae" horiz-adv-x="710" d="M528 410L622 284M559 410L654 315M476.258 381.71L528 410L590 441L685 315L622 284L464 189M220 284L158 220L126 158L126 94.5L158 31.5L220 -0L284 63L378 94.5M126 158L158 94.5L189 63L252 31.5M158 220L158 158L189 94.5L252 63L284 63M158 346L220 346L315 378L378 410L410 441L472 378L441 346L441 94.5L472 63L504 63M189 410L158 378L252 378M346 378L441 378L410 410L410 63L441 31.5M126 378L189 441L220 410L284 378L378 346L378 63L441 -0L504 63M126 378L284 220" />
<glyph unicode="&#xC6;" glyph-name="AE" horiz-adv-x="1050.0" d="M441.07 643.673L498.809 618.47L514.419 576.74L515.535 86.8747L518.743 16.7341L535.469 -24.9372L564.796 -37.7389C628.401 2.34888 691.174 43.7104 754 85C795.971 97.522 834.626 94.5 878 94.5L1004 63M527.22 606.068L543.746 563.938L543.946 74.473L548.071 3.93231L590 20L543.946 74.473M318.128 631.138L441.07 663.673L511.611 667.797L569.35 642.594L585.876 600.464L585.876 110.541L602.602 68.8695L659.424 44.066M688 441L688 94.5M680 1.62258e-06L786 31.5L846 31.5L940 -2.46545e-06L1004 63M702.172 31.5L778.596 63L896.381 63L972 31.5M720 284L752 315L814 315L846 284L909 346M783 346L846 346L878 315M688 189L720 284L752 346L783 378L846 378L909 346M720 536L752 567L814 598L878 598L940 567L1004 630M783 598L846 630L909 630L972 598M688 441L720 536L752 598L783 630L846 662L909 662L1004 630M252 252L504 252M189 94.5L398.043 578.949L475.306 578.949M31.5 -4.83368e-06L126 31.5L220 31.5L252 1.20282e-06L315 63M126 63L252 63L284 31.5M31.5 -4.83368e-06L94.5 63L158 94.5L252 94.5L315 63M220 472L284 472L315 410M315 472L315 441M189 441L220 472L284 504L315 504L346 472" />
<glyph unicode="&#x15F;" glyph-name="scedilla" horiz-adv-x="504" d="M282.436 -11.249C281.826 -71.4468 327.557 -66.2928 327.379 -116.116L261.463 -129.599L200.04 -110.124M308 2.77417e-05L300.413 -35.2187L340.862 -53.196L343.858 -128.101L255.47 -153.569L200.04 -110.124L237.493 -111.622L298.915 -104.132L297.417 -74.1695L250.976 -62.1846L252.474 -0.762211M126 378L126 252L189 220L378 220L441 189L441 63M158 378L158 252M410 189L410 63M220 410L189 378L189 252L252 220M315 220L378 189L378 63L346 31.5M126 378L220 410L284 441L346 410L410 410L441 441M252 410L315 410M220 410L284 378L346 378L410 410M441 63L346 31.5L284 -0L220 31.5L158 31.5L94.5 -0M315 31.5L252 31.5M346 31.5L284 63L189 63L94.5 -0M441 441L410 378L346 284L189 126L94.5 -0" />
<glyph unicode="&#x15E;" glyph-name="Scedilla" horiz-adv-x="724" d="M340.436 -11.249C339.826 -71.4468 385.557 -66.2928 385.379 -116.116L319.463 -129.599L258.04 -110.124M366 2.8e-05L358.413 -35.2187L398.862 -53.196L401.858 -128.101L313.47 -153.569L258.04 -110.124L295.493 -111.622L356.915 -104.132L355.417 -74.1695L308.976 -62.1846L310.474 -0.762211ZM472 567L441 598L378 630L284 662M504 598L441 630M536 630L410 662L284 662L189 630L158 598L126 536L158 472L189 441L284 410L536 410L598 378L630 346L630 284L598 189M158 504L189 472L284 441L567 441L630 410L662 378L662 315L630 252M158 598L158 536L189 504L284 472L598 472L662 441L693 378L693 315L598 189L472 -0M94.5 378L126 346L189 315L472 315L504 284L504 252L472 189M126 315L189 284L441 284L472 252M94.5 378L94.5 346L126 284L189 252L410 252L472 220L472 189M94.5 -0L189 63L315 94.5L410 94.5L504 63M158 31.5L252 63L378 63L472 31.5M94.5 -0L220 31.5L378 31.5L472 -0M536 630L472 567L410 472M378 410L315 315M284 252L220 189L158 158L126 158L126 189L158 158" />
<glyph unicode="&#x2D8;" glyph-name="breve" horiz-adv-x="693" d="M189.137 358.207C189.137 358.207 303.695 239.793 378 239.793C452.305 239.793 566.863 358.207 566.863 358.207M189.137 358.207C189.137 358.207 307.615 263.776 378 263.776C448.385 263.776 566.863 358.207 566.863 358.207" />
<glyph unicode="&#xb8;" glyph-name="cedilla" horiz-adv-x="756" d="M472 -0L464.413 -35.2187L504.862 -53.196L507.858 -128.101L419.47 -153.569L364.04 -110.124L401.493 -111.622L462.915 -104.132L461.417 -74.1695L414.976 -62.1847L416.474 -0.762239Z" />
<glyph unicode="&#xb8;" glyph-name="cedilla" horiz-adv-x="756" d="M446.436 -11.249C445.826 -71.4469 491.557 -66.2929 491.379 -116.117L425.463 -129.599L364.04 -110.124" />
<glyph unicode="&#x131;" glyph-name="dotlessi" horiz-adv-x="315" d="M189 441L158 410L94.5 378L158 346L158 63L220 -0L284 63M189 346L220 378L189 410L158 378L189 346L189 63L220 31.5M189 441L220 410L284 378L220 346L220 94.5L252 63L284 63" />
</font>
</defs>
</svg>
