<?xml version="1.0" encoding="UTF-8" ?>
<!DOCTYPE svg PUBLIC "-//W3C//DTD SVG 1.1//EN" "http://www.w3.org/Graphics/SVG/1.1/DTD/svg11.dtd" >

<svg xmlns="http://www.w3.org/2000/svg" xmlns:xlink="http://www.w3.org/1999/xlink" version="1.1">

<metadata>
Font name: Hershey Script 1-stroke

Originally prepared in 2011 and converted to SVG fonts
in 2019 by Windell H. Oskay, www.evilmadscientist.com

Contents adapted from emergent.unpythonic.net/software/hershey
 by way of "Hershey Fonts in SVG" by Marty McGuire
 http://www.thingiverse.com/thing:6168
 
-------------------------------------------------------------------
The Hershey Fonts are a set of vector fonts with a liberal license.

USE RESTRICTION:
    This distribution of the Hershey Fonts may be used by anyone for
    any purpose, commercial or otherwise, providing that:
        1. The following acknowledgements must be distributed with
            the font data:
            - The Hershey Fonts were originally created by Dr.
                A. V. Hershey while working at the U. S.
                National Bureau of Standards.
            - The format of the Font data in this distribution
                was originally created by
                    James Hurt
                    Cognition, Inc.
                    900 Technology Park Drive
                    Billerica, MA 01821
                    (mit-eddie!ci-dandelion!hurt)
        2. The font data in this distribution may be converted into
            any other format *EXCEPT* the format distributed by
            the U.S. NTIS where each point is described
            in eight bytes as "xxx yyy:", where xxx and yyy are
            the coordinate values as ASCII numbers.

</metadata>
<defs>
<font id="HersheyScript1" horiz-adv-x="378" >
<font-face
font-family="Hershey Script 1-stroke"
units-per-em="1000"
ascent="800"
descent="-200"
cap-height="500"
x-height="300"
/>
<missing-glyph horiz-adv-x="378" />
<glyph unicode=" " glyph-name="space" horiz-adv-x="378" />
<glyph unicode="!" glyph-name="exclam" horiz-adv-x="346" d="M 353 662 L 321 630 L 258 252 M 353 630 L 258 252 M 353 662 L 384 630 L 258 252 M 195 63 L 164 31.5 L 195 0 L 227 31.5 L 195 63" />
<glyph unicode="&#x22;" glyph-name="quotedbl" horiz-adv-x="567" d="M 252 662 L 189 441 M 284 662 L 189 441 M 536 662 L 472 441 M 567 662 L 472 441" />
<glyph unicode="#" glyph-name="numbersign" horiz-adv-x="662" d="M 378 788 L 158 -220 M 567 788 L 346 -220 M 158 378 L 598 378 M 126 189 L 567 189" />
<glyph unicode="$" glyph-name="dollar" horiz-adv-x="662" d="M 410 788 L 158 -126 M 567 788 L 315 -126 M 598 536 L 567 504 L 598 472 L 630 504 L 630 536 L 598 598 L 567 630 L 472 662 L 346 662 L 252 630 L 189 567 L 189 504 L 220 441 L 252 410 L 472 284 L 536 220 M 189 504 L 252 441 L 472 315 L 504 284 L 536 220 L 536 126 L 504 63 L 472 31.5 L 378 0 L 252 0 L 158 31.5 L 126 63 L 94.5 126 L 94.5 158 L 126 189 L 158 158 L 126 126" />
<glyph unicode="%" glyph-name="percent" horiz-adv-x="756" d="M 693 662 L 126 0 M 284 662 L 346 598 L 346 536 L 315 472 L 252 441 L 189 441 L 126 504 L 126 567 L 158 630 L 220 662 L 284 662 L 346 630 L 441 598 L 536 598 L 630 630 L 693 662 M 567 220 L 504 189 L 472 126 L 472 63 L 536 0 L 598 0 L 662 31.5 L 693 94.5 L 693 158 L 630 220 L 567 220" />
<glyph unicode="&amp;" glyph-name="ampersand" horiz-adv-x="819" d="M 756 410 L 724 378 L 756 346 L 788 378 L 788 410 L 756 441 L 724 441 L 662 410 L 598 346 L 441 94.5 L 378 31.5 L 315 0 L 220 0 L 126 31.5 L 94.5 94.5 L 94.5 158 L 126 220 L 158 252 L 220 284 L 378 346 L 441 378 L 504 441 L 536 504 L 536 567 L 504 630 L 441 662 L 378 630 L 346 567 L 346 472 L 378 284 L 410 189 L 472 94.5 L 536 31.5 L 598 0 L 662 0 L 693 63 L 693 94.5 M 220 0 L 158 31.5 L 126 94.5 L 126 158 L 158 220 L 189 252 L 378 346 M 346 472 L 378 315 L 410 220 L 472 126 L 536 63 L 598 31.5 L 662 31.5 L 693 63" />
<glyph unicode="&apos;" glyph-name="quotesingle" horiz-adv-x="346" d="M 284 598 L 252 630 L 284 662 L 315 630 L 315 598 L 284 536 L 220 472" />
<glyph unicode="(" glyph-name="parenleft" horiz-adv-x="472" d="M 504 788 L 378 693 L 284 598 L 220 504 L 158 378 L 126 220 L 126 94.5 L 158 -63 L 189 -158 L 220 -220 M 378 693 L 284 567 L 220 441 L 189 346 L 158 189 L 158 31.5 L 189 -126 L 220 -220" />
<glyph unicode=")" glyph-name="parenright" horiz-adv-x="472" d="M 315 788 L 346 724 L 378 630 L 410 472 L 410 346 L 378 189 L 315 63 L 252 -31.5 L 158 -126 L 31.5 -220 M 315 788 L 346 693 L 378 536 L 378 378 L 346 220 L 315 126 L 252 0 L 158 -126" />
<glyph unicode="*" glyph-name="asterisk" horiz-adv-x="536" d="M 346 662 L 346 284 M 189 567 L 504 378 M 504 567 L 189 378" />
<glyph unicode="+" glyph-name="plus" horiz-adv-x="819" d="M 441 567 L 441 0 M 158 284 L 724 284" />
<glyph unicode="," glyph-name="comma" horiz-adv-x="346" d="M 126 0 L 94.5 31.5 L 126 63 L 158 31.5 L 158 0 L 126 -63 L 63 -126" />
<glyph unicode="-" glyph-name="hyphen" horiz-adv-x="819" d="M 158 284 L 724 284" />
<glyph unicode="." glyph-name="period" horiz-adv-x="315" d="M 189 63 L 158 31.5 L 189 0 L 220 31.5 L 189 63" />
<glyph unicode="/" glyph-name="slash" horiz-adv-x="693" d="M 788 788 L -31.5 -220" />
<glyph unicode="0" glyph-name="zero" horiz-adv-x="662" d="M 410 662 L 315 630 L 252 567 L 189 472 L 158 378 L 126 252 L 126 158 L 158 63 L 189 31.5 L 252 0 L 315 0 L 410 31.5 L 472 94.5 L 536 189 L 567 284 L 598 410 L 598 504 L 567 598 L 536 630 L 472 662 L 410 662 M 410 662 L 346 630 L 284 567 L 220 472 L 189 378 L 158 252 L 158 158 L 189 63 L 252 0 M 315 0 L 378 31.5 L 441 94.5 L 504 189 L 536 284 L 567 410 L 567 504 L 536 598 L 472 662" />
<glyph unicode="1" glyph-name="one" horiz-adv-x="662" d="M 410 536 L 252 0 M 472 662 L 284 0 M 472 662 L 378 567 L 284 504 L 220 472 M 441 567 L 315 504 L 220 472" />
<glyph unicode="2" glyph-name="two" horiz-adv-x="662" d="M 252 536 L 284 504 L 252 472 L 220 504 L 220 536 L 252 598 L 284 630 L 378 662 L 472 662 L 567 630 L 598 567 L 598 504 L 567 441 L 504 378 L 410 315 L 284 252 L 189 189 L 126 126 L 63 0 M 472 662 L 536 630 L 567 567 L 567 504 L 536 441 L 472 378 L 284 252 M 94.5 63 L 126 94.5 L 189 94.5 L 346 31.5 L 441 31.5 L 504 63 L 536 126 M 189 94.5 L 346 0 L 441 0 L 504 31.5 L 536 126" />
<glyph unicode="3" glyph-name="three" horiz-adv-x="662" d="M 252 536 L 284 504 L 252 472 L 220 504 L 220 536 L 252 598 L 284 630 L 378 662 L 472 662 L 567 630 L 598 567 L 598 504 L 567 441 L 472 378 L 378 346 M 472 662 L 536 630 L 567 567 L 567 504 L 536 441 L 472 378 M 315 346 L 378 346 L 472 315 L 504 284 L 536 220 L 536 126 L 504 63 L 472 31.5 L 378 0 L 252 0 L 158 31.5 L 126 63 L 94.5 126 L 94.5 158 L 126 189 L 158 158 L 126 126 M 378 346 L 441 315 L 472 284 L 504 220 L 504 126 L 472 63 L 441 31.5 L 378 0" />
<glyph unicode="4" glyph-name="four" horiz-adv-x="662" d="M 536 630 L 346 0 M 567 662 L 378 0 M 567 662 L 94.5 189 L 598 189" />
<glyph unicode="5" glyph-name="five" horiz-adv-x="662" d="M 315 662 L 158 346 M 315 662 L 630 662 M 315 630 L 472 630 L 630 662 M 158 346 L 189 378 L 284 410 L 378 410 L 472 378 L 504 346 L 536 284 L 536 189 L 504 94.5 L 441 31.5 L 346 0 L 252 0 L 158 31.5 L 126 63 L 94.5 126 L 94.5 158 L 126 189 L 158 158 L 126 126 M 378 410 L 441 378 L 472 346 L 504 284 L 504 189 L 472 94.5 L 410 31.5 L 346 0" />
<glyph unicode="6" glyph-name="six" horiz-adv-x="662" d="M 567 567 L 536 536 L 567 504 L 598 536 L 598 567 L 567 630 L 504 662 L 410 662 L 315 630 L 252 567 L 189 472 L 158 378 L 126 252 L 126 126 L 158 63 L 189 31.5 L 252 0 L 346 0 L 441 31.5 L 504 94.5 L 536 158 L 536 252 L 504 315 L 472 346 L 410 378 L 315 378 L 252 346 L 189 284 L 158 220 M 410 662 L 346 630 L 284 567 L 220 472 L 189 378 L 158 252 L 158 94.5 L 189 31.5 M 346 0 L 410 31.5 L 472 94.5 L 504 158 L 504 284 L 472 346" />
<glyph unicode="7" glyph-name="seven" horiz-adv-x="662" d="M 220 662 L 158 472 M 630 662 L 598 567 L 536 472 L 378 284 L 315 189 L 284 126 L 252 0 M 536 472 L 346 284 L 284 189 L 252 126 L 220 0 M 189 567 L 284 662 L 346 662 L 504 567 M 220 598 L 284 630 L 346 630 L 504 567 L 567 567 L 598 598 L 630 662" />
<glyph unicode="8" glyph-name="eight" horiz-adv-x="662" d="M 378 662 L 284 630 L 252 598 L 220 536 L 220 441 L 252 378 L 315 346 L 410 346 L 536 378 L 567 410 L 598 472 L 598 567 L 567 630 L 472 662 L 378 662 M 378 662 L 315 630 L 284 598 L 252 536 L 252 441 L 284 378 L 315 346 M 410 346 L 504 378 L 536 410 L 567 472 L 567 567 L 536 630 L 472 662 M 315 346 L 189 315 L 126 252 L 94.5 189 L 94.5 94.5 L 126 31.5 L 220 0 L 346 0 L 472 31.5 L 504 63 L 536 126 L 536 220 L 504 284 L 472 315 L 410 346 M 315 346 L 220 315 L 158 252 L 126 189 L 126 94.5 L 158 31.5 L 220 0 M 346 0 L 441 31.5 L 472 63 L 504 126 L 504 252 L 472 315" />
<glyph unicode="9" glyph-name="nine" horiz-adv-x="662" d="M 567 441 L 536 378 L 472 315 L 410 284 L 315 284 L 252 315 L 220 346 L 189 410 L 189 504 L 220 567 L 284 630 L 378 662 L 472 662 L 536 630 L 567 598 L 598 536 L 598 410 L 567 284 L 536 189 L 472 94.5 L 410 31.5 L 315 0 L 220 0 L 158 31.5 L 126 94.5 L 126 126 L 158 158 L 189 126 L 158 94.5 M 252 315 L 220 378 L 220 504 L 252 567 L 315 630 L 378 662 M 536 630 L 567 567 L 567 410 L 536 284 L 504 189 L 441 94.5 L 378 31.5 L 315 0" />
<glyph unicode=":" glyph-name="colon" horiz-adv-x="346" d="M 220 441 L 189 410 L 220 378 L 252 410 L 220 441 M 126 63 L 94.5 31.5 L 126 0 L 158 31.5" />
<glyph unicode=";" glyph-name="semicolon" horiz-adv-x="346" d="M 220 441 L 189 410 L 220 378 L 252 410 L 220 441 M 126 0 L 94.5 31.5 L 126 63 L 158 31.5 L 158 0 L 126 -63 L 63 -126" />
<glyph unicode="&#x3c;" glyph-name="less" horiz-adv-x="756" d="M 662 567 L 158 284 L 662 0" />
<glyph unicode="=" glyph-name="equal" horiz-adv-x="819" d="M 158 378 L 724 378 M 158 189 L 724 189" />
<glyph unicode="&#x3e;" glyph-name="greater" horiz-adv-x="756" d="M 158 567 L 662 284 L 158 0" />
<glyph unicode="?" glyph-name="question" horiz-adv-x="662" d="M 252 536 L 284 504 L 252 472 L 220 504 L 220 536 L 252 598 L 284 630 L 378 662 L 504 662 L 598 630 L 630 567 L 630 504 L 598 441 L 567 410 L 378 346 L 315 315 L 315 252 L 346 220 L 410 220 M 504 662 L 567 630 L 598 567 L 598 504 L 567 441 L 536 410 L 472 378 M 284 63 L 252 31.5 L 284 0 L 315 31.5 L 284 63" />
<glyph unicode="@" glyph-name="at" horiz-adv-x="850" d="M 598 410 L 567 472 L 504 504 L 410 504 L 346 472 L 315 441 L 284 346 L 284 252 L 315 189 L 378 158 L 472 158 L 536 189 L 567 252 M 410 504 L 346 441 L 315 346 L 315 252 L 346 189 L 378 158 M 598 504 L 567 252 L 567 189 L 630 158 L 693 158 L 756 220 L 788 315 L 788 378 L 756 472 L 724 536 L 662 598 L 598 630 L 504 662 L 410 662 L 315 630 L 252 598 L 189 536 L 158 472 L 126 378 L 126 284 L 158 189 L 189 126 L 252 63 L 315 31.5 L 410 0 L 504 0 L 598 31.5 L 662 63 L 693 94.5 M 630 504 L 598 252 L 598 189 L 630 158" />
<glyph unicode="A" glyph-name="A" horiz-adv-x="630" d="M 31.5 0 L 94.5 31.5 L 189 126 L 284 252 L 410 472 L 504 662 L 504 0 L 472 94.5 L 410 189 L 346 252 L 252 315 L 189 315 L 158 284 L 158 220 L 189 158 L 252 94.5 L 346 31.5 L 441 0 L 598 0" />
<glyph unicode="B" glyph-name="B" horiz-adv-x="724" d="M 441 598 L 472 567 L 472 472 L 441 346 L 410 252 L 378 189 L 315 94.5 L 252 31.5 L 189 0 L 158 0 L 126 31.5 L 126 126 L 158 284 L 189 378 L 220 441 L 284 536 L 346 598 L 410 630 L 504 662 L 598 662 L 662 630 L 693 567 L 693 504 L 662 441 L 630 410 L 567 378 L 472 346 M 441 346 L 472 346 L 567 315 L 598 284 L 630 220 L 630 126 L 598 63 L 567 31.5 L 504 0 L 410 0 L 346 31.5 L 315 94.5" />
<glyph unicode="C" glyph-name="C" horiz-adv-x="630" d="M 410 472 L 410 441 L 441 410 L 504 410 L 567 441 L 598 504 L 598 567 L 567 630 L 504 662 L 410 662 L 315 630 L 252 567 L 189 472 L 158 410 L 126 284 L 126 158 L 158 63 L 189 31.5 L 252 0 L 315 0 L 410 31.5 L 472 94.5 L 504 158" />
<glyph unicode="D" glyph-name="D" horiz-adv-x="724" d="M 441 662 L 378 630 L 346 567 L 315 441 L 284 252 L 252 158 L 220 94.5 L 158 31.5 L 94.5 0 L 31.5 0 L 0 31.5 L 0 94.5 L 31.5 126 L 94.5 126 L 158 94.5 L 220 31.5 L 315 0 L 410 0 L 504 31.5 L 567 94.5 L 630 220 L 662 378 L 662 504 L 630 598 L 598 630 L 536 662 L 441 662 L 378 598 L 378 536 L 410 441 L 472 346 L 536 284 L 630 220 L 693 189" />
<glyph unicode="E" glyph-name="E" horiz-adv-x="630" d="M 472 536 L 472 504 L 504 472 L 567 472 L 598 504 L 598 567 L 567 630 L 472 662 L 346 662 L 252 630 L 220 567 L 220 472 L 252 410 L 284 378 L 378 346 L 284 346 L 189 315 L 158 284 L 126 220 L 126 126 L 158 63 L 189 31.5 L 284 0 L 378 0 L 472 31.5 L 536 94.5 L 567 158" />
<glyph unicode="F" glyph-name="F" horiz-adv-x="630" d="M 346 472 L 284 472 L 220 504 L 189 567 L 220 630 L 315 662 L 410 662 L 536 630 L 630 630 L 693 662 M 536 630 L 472 410 L 410 220 L 346 94.5 L 284 31.5 L 220 0 L 158 0 L 94.5 31.5 L 63 94.5 L 63 158 L 94.5 189 L 158 189 L 220 158 M 315 346 L 598 346" />
<glyph unicode="G" glyph-name="G" horiz-adv-x="724" d="M 31.5 0 L 94.5 31.5 L 220 158 L 315 315 L 346 410 L 378 536 L 378 630 L 346 662 L 315 662 L 284 630 L 252 567 L 252 472 L 284 410 L 346 378 L 472 378 L 567 410 L 598 441 L 630 504 L 630 315 L 598 158 L 567 94.5 L 504 31.5 L 410 0 L 284 0 L 189 31.5 L 126 94.5 L 94.5 158 L 94.5 220" />
<glyph unicode="H" glyph-name="H" horiz-adv-x="756" d="M 252 441 L 189 472 L 158 536 L 158 567 L 189 630 L 252 662 L 284 662 L 346 630 L 378 567 L 378 504 L 346 378 L 284 189 L 220 63 L 158 0 L 94.5 0 L 63 31.5 L 63 94.5 M 252 284 L 536 378 L 598 410 L 693 472 L 756 536 L 788 598 L 788 630 L 756 662 L 724 662 L 662 598 L 598 472 L 536 284 L 504 126 L 504 31.5 L 536 0 L 567 0 L 630 31.5 L 662 63 L 724 158" />
<glyph unicode="I" glyph-name="I" horiz-adv-x="536" d="M 472 158 L 410 220 L 346 315 L 315 378 L 284 472 L 284 567 L 315 630 L 346 662 L 410 662 L 441 630 L 472 567 L 472 472 L 441 315 L 378 158 L 346 94.5 L 284 31.5 L 220 0 L 158 0 L 94.5 31.5 L 63 94.5 L 63 158 L 94.5 189 L 158 189 L 220 158" />
<glyph unicode="J" glyph-name="J" horiz-adv-x="472" d="M 346 -94.5 L 284 0 L 220 158 L 189 346 L 189 536 L 220 630 L 284 662 L 346 662 L 378 630 L 410 536 L 410 441 L 378 284 L 284 0 L 220 -189 L 189 -284 L 158 -346 L 94.5 -378 L 63 -346 L 63 -284 L 94.5 -189 L 158 -94.5 L 220 -31.5 L 315 31.5 L 441 94.5" />
<glyph unicode="K" glyph-name="K" horiz-adv-x="756" d="M 252 441 L 189 472 L 158 536 L 158 567 L 189 630 L 252 662 L 284 662 L 346 630 L 378 567 L 378 504 L 346 378 L 284 189 L 220 63 L 158 0 L 94.5 0 L 63 31.5 L 63 94.5 M 788 567 L 788 630 L 756 662 L 724 662 L 662 630 L 598 567 L 536 472 L 472 410 L 410 378 L 346 378 M 410 378 L 441 315 L 441 94.5 L 472 31.5 L 504 0 L 536 0 L 598 31.5 L 630 63 L 693 158" />
<glyph unicode="L" glyph-name="L" horiz-adv-x="598" d="M 158 284 L 220 284 L 346 315 L 441 378 L 504 441 L 536 504 L 536 598 L 504 662 L 441 662 L 410 630 L 378 567 L 346 410 L 315 252 L 284 158 L 252 94.5 L 189 31.5 L 126 0 L 63 0 L 31.5 31.5 L 31.5 94.5 L 63 126 L 126 126 L 189 94.5 L 284 31.5 L 378 0 L 441 0 L 536 31.5 L 598 94.5" />
<glyph unicode="M" glyph-name="M" horiz-adv-x="1039.5" d="M 189 441 L 126 472 L 94.5 536 L 94.5 567 L 126 630 L 189 662 L 220 662 L 284 630 L 315 567 L 315 504 L 284 346 L 252 220 L 189 0 M 252 220 L 346 472 L 410 598 L 441 630 L 504 662 L 536 662 L 598 630 L 630 567 L 630 504 L 598 346 L 567 220 L 504 0 M 567 220 L 662 472 L 724 598 L 756 630 L 819 662 L 850 662 L 914 630 L 945 567 L 945 504 L 914 346 L 850 126 L 850 31.5 L 882 0 L 914 0 L 976 31.5 L 1008.0 63 L 1071.0 158" />
<glyph unicode="N" glyph-name="N" horiz-adv-x="756" d="M 189 441 L 126 472 L 94.5 536 L 94.5 567 L 126 630 L 189 662 L 220 662 L 284 630 L 315 567 L 315 504 L 284 346 L 252 220 L 189 0 M 252 220 L 346 472 L 410 598 L 441 630 L 504 662 L 567 662 L 630 630 L 662 567 L 662 504 L 630 346 L 567 126 L 567 31.5 L 598 0 L 630 0 L 693 31.5 L 724 63 L 788 158" />
<glyph unicode="O" glyph-name="O" horiz-adv-x="662" d="M 410 662 L 315 630 L 252 567 L 189 472 L 158 410 L 126 284 L 126 158 L 158 63 L 189 31.5 L 252 0 L 315 0 L 410 31.5 L 472 94.5 L 536 189 L 567 252 L 598 378 L 598 504 L 567 598 L 536 630 L 472 662 L 410 662 L 346 598 L 346 504 L 378 410 L 441 315 L 504 252 L 598 189 L 662 158" />
<glyph unicode="P" glyph-name="P" horiz-adv-x="788" d="M 441 598 L 472 567 L 472 472 L 441 346 L 410 252 L 378 189 L 315 94.5 L 252 31.5 L 189 0 L 158 0 L 126 31.5 L 126 126 L 158 284 L 189 378 L 220 441 L 284 536 L 346 598 L 410 630 L 504 662 L 662 662 L 724 630 L 756 598 L 788 536 L 788 441 L 756 378 L 724 346 L 662 315 L 567 315 L 504 346 L 472 378" />
<glyph unicode="Q" glyph-name="Q" horiz-adv-x="693" d="M 441 472 L 410 410 L 378 378 L 315 346 L 252 346 L 220 410 L 220 472 L 252 567 L 315 630 L 410 662 L 504 662 L 567 630 L 598 567 L 598 441 L 567 346 L 504 252 L 378 126 L 284 63 L 220 31.5 L 126 0 L 63 0 L 31.5 31.5 L 31.5 94.5 L 63 126 L 126 126 L 189 94.5 L 284 31.5 L 378 0 L 472 0 L 567 31.5 L 630 94.5" />
<glyph unicode="R" glyph-name="R" horiz-adv-x="788" d="M 441 598 L 472 567 L 472 472 L 441 346 L 410 252 L 378 189 L 315 94.5 L 252 31.5 L 189 0 L 158 0 L 126 31.5 L 126 126 L 158 284 L 189 378 L 220 441 L 284 536 L 346 598 L 410 630 L 504 662 L 630 662 L 693 630 L 724 598 L 756 536 L 756 441 L 724 378 L 693 346 L 630 315 L 536 315 L 441 346 L 472 315 L 504 252 L 504 94.5 L 536 31.5 L 598 0 L 662 31.5 L 693 63 L 756 158" />
<glyph unicode="S" glyph-name="S" horiz-adv-x="630" d="M 31.5 0 L 94.5 31.5 L 158 94.5 L 252 220 L 315 315 L 378 441 L 410 536 L 410 630 L 378 662 L 346 662 L 315 630 L 284 567 L 284 504 L 315 441 L 378 378 L 472 315 L 536 252 L 567 189 L 567 126 L 536 63 L 504 31.5 L 410 0 L 284 0 L 189 31.5 L 126 94.5 L 94.5 158 L 94.5 220" />
<glyph unicode="T" glyph-name="T" horiz-adv-x="598" d="M 346 472 L 284 472 L 220 504 L 189 567 L 220 630 L 315 662 L 410 662 L 536 630 L 630 630 L 693 662 M 536 630 L 472 410 L 410 220 L 346 94.5 L 284 31.5 L 220 0 L 158 0 L 94.5 31.5 L 63 94.5 L 63 158 L 94.5 189 L 158 189 L 220 158" />
<glyph unicode="U" glyph-name="U" horiz-adv-x="756" d="M 189 441 L 126 472 L 94.5 536 L 94.5 567 L 126 630 L 189 662 L 220 662 L 284 630 L 315 567 L 315 504 L 284 378 L 252 284 L 220 158 L 220 94.5 L 252 31.5 L 315 0 L 378 0 L 441 31.5 L 472 63 L 536 189 L 630 441 L 693 662 M 630 441 L 598 315 L 567 126 L 567 31.5 L 598 0 L 630 0 L 693 31.5 L 724 63 L 788 158" />
<glyph unicode="V" glyph-name="V" horiz-adv-x="724" d="M 189 441 L 126 472 L 94.5 536 L 94.5 567 L 126 630 L 189 662 L 220 662 L 284 630 L 315 567 L 315 504 L 284 378 L 252 284 L 220 158 L 220 63 L 252 0 L 315 0 L 378 31.5 L 472 126 L 536 220 L 598 346 L 630 441 L 662 567 L 662 630 L 630 662 L 598 662 L 567 630 L 536 567 L 536 504 L 567 410 L 630 346 L 693 315" />
<glyph unicode="W" glyph-name="W" horiz-adv-x="882" d="M 189 441 L 126 472 L 94.5 536 L 94.5 567 L 126 630 L 189 662 L 220 662 L 284 630 L 315 567 L 315 472 L 284 0 M 598 662 L 284 0 M 598 662 L 536 0 M 976 662 L 914 630 L 819 536 L 724 410 L 630 220 L 536 0" />
<glyph unicode="X" glyph-name="X" horiz-adv-x="756" d="M 284 472 L 220 472 L 189 504 L 189 567 L 220 630 L 284 662 L 346 662 L 410 630 L 441 567 L 441 472 L 378 189 L 378 94.5 L 410 31.5 L 472 0 L 536 0 L 598 31.5 L 630 94.5 L 630 158 L 598 189 L 536 189 M 756 567 L 756 630 L 724 662 L 662 662 L 598 630 L 536 567 L 472 472 L 346 189 L 284 94.5 L 220 31.5 L 158 0 L 94.5 0 L 63 31.5 L 63 94.5" />
<glyph unicode="Y" glyph-name="Y" horiz-adv-x="724" d="M 189 441 L 126 472 L 94.5 536 L 94.5 567 L 126 630 L 189 662 L 220 662 L 284 630 L 315 567 L 315 504 L 284 378 L 252 284 L 220 158 L 220 94.5 L 252 31.5 L 284 0 L 346 0 L 410 31.5 L 472 94.5 L 536 189 L 567 252 L 630 441 M 693 662 L 630 441 L 536 126 L 472 -63 L 410 -220 L 346 -346 L 284 -378 L 252 -346 L 252 -284 L 284 -189 L 346 -94.5 L 441 0 L 536 63 L 693 158" />
<glyph unicode="Z" glyph-name="Z" horiz-adv-x="662" d="M 441 472 L 410 410 L 378 378 L 315 346 L 252 346 L 220 410 L 220 472 L 252 567 L 315 630 L 410 662 L 504 662 L 567 630 L 598 567 L 598 441 L 567 346 L 504 220 L 410 126 L 284 31.5 L 220 0 L 126 0 L 94.5 31.5 L 94.5 94.5 L 126 126 L 220 126 L 284 94.5 L 315 63 L 346 0 L 346 -94.5 L 315 -189 L 284 -252 L 220 -346 L 158 -378 L 126 -346 L 126 -284 L 158 -189 L 220 -94.5 L 315 0 L 410 63 L 598 158" />
<glyph unicode="[" glyph-name="bracketleft" horiz-adv-x="441" d="M 158 788 L 158 -220 M 189 788 L 189 -220 M 158 788 L 378 788 M 158 -220 L 378 -220" />
<glyph unicode="\" glyph-name="backslash" horiz-adv-x="441" d="M 31.5 662 L 472 -94.5" />
<glyph unicode="]" glyph-name="bracketright" horiz-adv-x="441" d="M 315 788 L 315 -220 M 346 788 L 346 -220 M 126 788 L 346 788 M 126 -220 L 346 -220" />
<glyph unicode="^" glyph-name="asciicircum" horiz-adv-x="504" d="M 284 724 L 31.5 284 M 284 724 L 536 284" />
<glyph unicode="_" glyph-name="underscore" horiz-adv-x="504" d="M 31.5 -63 L 536 -63" />
<glyph unicode="`" glyph-name="grave" horiz-adv-x="346" d="M 315 662 L 252 598 L 220 536 L 220 504 L 252 472 L 284 504 L 252 536" />
<glyph unicode="a" glyph-name="a" horiz-adv-x="504" d="M 315 189 L 284 252 L 220 284 L 158 284 L 94.5 252 L 63 220 L 31.5 158 L 31.5 94.5 L 63 31.5 L 126 0 L 189 0 L 252 31.5 L 284 94.5 L 346 284 L 315 126 L 315 31.5 L 346 0 L 378 0 L 441 31.5 L 472 63 L 536 158" />
<glyph unicode="b" glyph-name="b" horiz-adv-x="441" d="M 31.5 158 L 94.5 252 L 189 410 L 220 472 L 252 567 L 252 630 L 220 662 L 158 630 L 126 567 L 94.5 441 L 63 220 L 63 31.5 L 94.5 0 L 126 0 L 189 31.5 L 252 94.5 L 284 189 L 284 284 L 315 158 L 346 126 L 410 126 L 472 158" />
<glyph unicode="c" glyph-name="c" horiz-adv-x="346" d="M 252 220 L 252 252 L 220 284 L 158 284 L 94.5 252 L 63 220 L 31.5 158 L 31.5 94.5 L 63 31.5 L 126 0 L 220 0 L 315 63 L 378 158" />
<glyph unicode="d" glyph-name="d" horiz-adv-x="504" d="M 315 189 L 284 252 L 220 284 L 158 284 L 94.5 252 L 63 220 L 31.5 158 L 31.5 94.5 L 63 31.5 L 126 0 L 189 0 L 252 31.5 L 284 94.5 L 472 662 M 346 284 L 315 126 L 315 31.5 L 346 0 L 378 0 L 441 31.5 L 472 63 L 536 158" />
<glyph unicode="e" glyph-name="e" horiz-adv-x="315" d="M 63 63 L 126 94.5 L 158 126 L 189 189 L 189 252 L 158 284 L 126 284 L 63 252 L 31.5 189 L 31.5 94.5 L 63 31.5 L 126 0 L 189 0 L 252 31.5 L 284 63 L 346 158" />
<glyph unicode="f" glyph-name="f" horiz-adv-x="252" d="M 31.5 158 L 158 315 L 220 410 L 252 472 L 284 567 L 284 630 L 252 662 L 189 630 L 158 567 L 94.5 315 L 0 31.5 L -94.5 -189 L -126 -284 L -126 -346 L -94.5 -378 L -31.5 -346 L 0 -252 L 31.5 31.5 L 63 0 L 126 0 L 189 31.5 L 220 63 L 284 158" />
<glyph unicode="g" glyph-name="g" horiz-adv-x="472" d="M 315 189 L 284 252 L 220 284 L 158 284 L 94.5 252 L 63 220 L 31.5 158 L 31.5 94.5 L 63 31.5 L 126 0 L 189 0 L 252 31.5 L 284 63 M 346 284 L 284 63 L 158 -284 L 126 -346 L 63 -378 L 31.5 -346 L 31.5 -284 L 63 -189 L 158 -94.5 L 252 -31.5 L 315 0 L 410 63 L 504 158" />
<glyph unicode="h" glyph-name="h" horiz-adv-x="472" d="M 31.5 158 L 94.5 252 L 189 410 L 220 472 L 252 567 L 252 630 L 220 662 L 158 630 L 126 567 L 94.5 441 L 63 252 L 31.5 0 M 31.5 0 L 63 94.5 L 94.5 158 L 158 252 L 220 284 L 284 284 L 315 252 L 315 189 L 284 94.5 L 284 31.5 L 315 0 L 346 0 L 410 31.5 L 441 63 L 504 158" />
<glyph unicode="i" glyph-name="i" horiz-adv-x="220" d="M 126 441 L 126 410 L 158 410 L 158 441 L 126 441 M 31.5 158 L 94.5 284 L 31.5 94.5 L 31.5 31.5 L 63 0 L 94.5 0 L 158 31.5 L 189 63 L 252 158" />
<glyph unicode="j" glyph-name="j" horiz-adv-x="220" d="M 126 441 L 126 410 L 158 410 L 158 441 L 126 441 M 31.5 158 L 94.5 284 L -94.5 -284 L -126 -346 L -189 -378 L -220 -346 L -220 -284 L -189 -189 L -94.5 -94.5 L 0 -31.5 L 63 0 L 158 63 L 252 158" />
<glyph unicode="k" glyph-name="k" horiz-adv-x="441" d="M 31.5 158 L 94.5 252 L 189 410 L 220 472 L 252 567 L 252 630 L 220 662 L 158 630 L 126 567 L 94.5 441 L 63 252 L 31.5 0 M 31.5 0 L 63 94.5 L 94.5 158 L 158 252 L 220 284 L 284 284 L 315 252 L 315 189 L 252 158 L 158 158 M 158 158 L 220 126 L 252 31.5 L 284 0 L 315 0 L 378 31.5 L 410 63 L 472 158" />
<glyph unicode="l" glyph-name="l" horiz-adv-x="252" d="M 31.5 158 L 94.5 252 L 189 410 L 220 472 L 252 567 L 252 630 L 220 662 L 158 630 L 126 567 L 94.5 441 L 63 220 L 63 31.5 L 94.5 0 L 126 0 L 189 31.5 L 220 63 L 284 158" />
<glyph unicode="m" glyph-name="m" horiz-adv-x="788" d="M 31.5 158 L 94.5 252 L 158 284 L 189 252 L 189 220 L 158 94.5 L 126 0 M 158 94.5 L 189 158 L 252 252 L 315 284 L 378 284 L 410 252 L 410 220 L 378 94.5 L 346 0 M 378 94.5 L 410 158 L 472 252 L 536 284 L 598 284 L 630 252 L 630 189 L 598 94.5 L 598 31.5 L 630 0 L 662 0 L 724 31.5 L 756 63 L 819 158" />
<glyph unicode="n" glyph-name="n" horiz-adv-x="567" d="M 31.5 158 L 94.5 252 L 158 284 L 189 252 L 189 220 L 158 94.5 L 126 0 M 158 94.5 L 189 158 L 252 252 L 315 284 L 378 284 L 410 252 L 410 189 L 378 94.5 L 378 31.5 L 410 0 L 441 0 L 504 31.5 L 536 63 L 598 158" />
<glyph unicode="o" glyph-name="o" horiz-adv-x="441" d="M 220 284 L 158 284 L 94.5 252 L 63 220 L 31.5 158 L 31.5 94.5 L 63 31.5 L 126 0 L 189 0 L 252 31.5 L 284 63 L 315 126 L 315 189 L 284 252 L 220 284 L 189 252 L 189 189 L 220 126 L 284 94.5 L 378 94.5 L 441 126 L 472 158" />
<glyph unicode="p" glyph-name="p" horiz-adv-x="472" d="M 31.5 158 L 94.5 252 L 126 315 L 94.5 189 L -94.5 -378 M 94.5 189 L 126 252 L 189 284 L 252 284 L 315 252 L 346 189 L 346 126 L 315 63 L 284 31.5 L 220 0 M 94.5 31.5 L 158 0 L 252 0 L 346 31.5 L 410 63 L 504 158" />
<glyph unicode="q" glyph-name="q" horiz-adv-x="472" d="M 315 189 L 284 252 L 220 284 L 158 284 L 94.5 252 L 63 220 L 31.5 158 L 31.5 94.5 L 63 31.5 L 126 0 L 189 0 L 252 31.5 M 346 284 L 315 189 L 252 31.5 L 158 -189 L 126 -284 L 126 -346 L 158 -378 L 220 -346 L 252 -252 L 252 -31.5 L 315 0 L 410 63 L 504 158" />
<glyph unicode="r" glyph-name="r" horiz-adv-x="410" d="M 31.5 158 L 94.5 252 L 126 315 L 126 252 L 220 252 L 252 220 L 252 158 L 220 63 L 220 31.5 L 252 0 L 284 0 L 346 31.5 L 378 63 L 441 158" />
<glyph unicode="s" glyph-name="s" horiz-adv-x="346" d="M 31.5 158 L 94.5 252 L 126 315 L 126 252 L 189 158 L 220 94.5 L 220 31.5 L 158 0 M 31.5 31.5 L 94.5 0 L 220 0 L 284 31.5 L 315 63 L 378 158" />
<glyph unicode="t" glyph-name="t" horiz-adv-x="284" d="M 31.5 158 L 94.5 252 L 158 378 M 252 662 L 63 94.5 L 63 31.5 L 94.5 0 L 158 0 L 220 31.5 L 252 63 L 315 158 M 63 410 L 284 410" />
<glyph unicode="u" glyph-name="u" horiz-adv-x="472" d="M 31.5 158 L 94.5 284 L 31.5 94.5 L 31.5 31.5 L 63 0 L 126 0 L 189 31.5 L 252 94.5 L 315 189 M 346 284 L 284 94.5 L 284 31.5 L 315 0 L 346 0 L 410 31.5 L 441 63 L 504 158" />
<glyph unicode="v" glyph-name="v" horiz-adv-x="472" d="M 31.5 158 L 94.5 284 L 63 126 L 63 31.5 L 94.5 0 L 126 0 L 220 31.5 L 284 94.5 L 315 189 L 315 284 M 315 284 L 346 158 L 378 126 L 441 126 L 504 158" />
<glyph unicode="w" glyph-name="w" horiz-adv-x="662" d="M 126 284 L 63 220 L 31.5 126 L 31.5 63 L 63 0 L 126 0 L 189 31.5 L 252 94.5 M 315 284 L 252 94.5 L 252 31.5 L 284 0 L 346 0 L 410 31.5 L 472 94.5 L 504 189 L 504 284 M 504 284 L 536 158 L 567 126 L 630 126 L 693 158" />
<glyph unicode="x" glyph-name="x" horiz-adv-x="504" d="M 31.5 158 L 94.5 252 L 158 284 L 220 284 L 252 252 L 252 31.5 L 284 0 L 378 0 L 472 63 L 536 158 M 441 252 L 410 284 L 346 284 L 315 252 L 189 31.5 L 158 0 L 94.5 0 L 63 31.5" />
<glyph unicode="y" glyph-name="y" horiz-adv-x="472" d="M 31.5 158 L 94.5 284 L 31.5 94.5 L 31.5 31.5 L 63 0 L 126 0 L 189 31.5 L 252 94.5 L 315 189 M 346 284 L 158 -284 L 126 -346 L 63 -378 L 31.5 -346 L 31.5 -284 L 63 -189 L 158 -94.5 L 252 -31.5 L 315 0 L 410 63 L 504 158" />
<glyph unicode="z" glyph-name="z" horiz-adv-x="441" d="M 31.5 158 L 94.5 252 L 158 284 L 220 284 L 284 220 L 284 158 L 252 94.5 L 189 31.5 L 94.5 0 L 158 -31.5 L 189 -94.5 L 189 -189 L 158 -284 L 126 -346 L 63 -378 L 31.5 -346 L 31.5 -284 L 63 -189 L 158 -94.5 L 252 -31.5 L 378 63 L 472 158" />
<glyph unicode="{" glyph-name="braceleft" horiz-adv-x="441" d="M 315 788 L 252 756 L 220 724 L 189 662 L 189 598 L 220 536 L 252 504 L 284 441 L 284 378 L 220 315 M 252 756 L 220 693 L 220 630 L 252 567 L 284 536 L 315 472 L 315 410 L 284 346 L 158 284 L 284 220 L 315 158 L 315 94.5 L 284 31.5 L 252 0 L 220 -63 L 220 -126 L 252 -189 M 220 252 L 284 189 L 284 126 L 252 63 L 220 31.5 L 189 -31.5 L 189 -94.5 L 220 -158 L 252 -189 L 315 -220" />
<glyph unicode="|" glyph-name="bar" horiz-adv-x="252" d="M 158 788 L 158 -220" />
<glyph unicode="}" glyph-name="braceright" horiz-adv-x="441" d="M 189 788 L 252 756 L 284 724 L 315 662 L 315 598 L 284 536 L 252 504 L 220 441 L 220 378 L 284 315 M 252 756 L 284 693 L 284 630 L 252 567 L 220 536 L 189 472 L 189 410 L 220 346 L 346 284 L 220 220 L 189 158 L 189 94.5 L 220 31.5 L 252 0 L 284 -63 L 284 -126 L 252 -189 M 284 252 L 220 189 L 220 126 L 252 63 L 284 31.5 L 315 -31.5 L 315 -94.5 L 284 -158 L 252 -189 L 189 -220" />
<glyph unicode="~" glyph-name="asciitilde" horiz-adv-x="756" d="M 126 189 L 126 252 L 158 346 L 220 378 L 284 378 L 346 346 L 472 252 L 536 220 L 598 220 L 662 252 L 693 315 M 126 252 L 158 315 L 220 346 L 284 346 L 346 315 L 472 220 L 536 189 L 598 189 L 662 220 L 693 315 L 693 378" />
<glyph unicode="&#xa0;" glyph-name="nbspace" horiz-adv-x="378" />
<glyph unicode="&#xa1;" glyph-name="exclamdown" horiz-adv-x="346" d="M 126 0 L 158 31.5 L 220 410 M 126 31.5 L 220 410 M 126 0 L 94.5 31.5 L 220 410 M 284 598 L 315 630 L 284 662 L 252 630 L 284 598" />
<glyph unicode="&#xa2;" glyph-name="cent" horiz-adv-x="151" d="M 252 220 L 252 252 L 220 284 L 158 284 L 94.5 252 L 63 220 L 31.5 158 L 31.5 94.5 L 63 31.5 L 126 0 L 220 0 L 315 63 L 378 158 M 227 472 L 227 -132" />
<glyph unicode="&#xa3;" glyph-name="sterling" horiz-adv-x="598" d="M 110 205 L 394 205 M 158 284 L 220 284 L 346 315 L 441 378 L 504 441 L 536 504 L 536 598 L 504 662 L 441 662 L 410 630 L 378 567 L 346 410 L 315 252 L 284 158 L 252 94.5 L 189 31.5 L 126 0 L 63 0 L 31.5 31.5 L 31.5 94.5 L 63 126 L 126 126 L 189 94.5 L 284 31.5 L 378 0 L 441 0 L 536 31.5 L 598 94.5" />
<glyph unicode="&#xa5;" glyph-name="yen" horiz-adv-x="567" d="M 126 662 L 378 346 L 378 0 M 630 662 L 378 346 M 236 158 L 520 158 M 236 252 L 520 252" />
<glyph unicode="&#xa6;" glyph-name="brokenbar" horiz-adv-x="75.6" d="M 217 236 L 217 -66.1 M 217 709 L 217 406" />
<glyph unicode="&#xa8;" glyph-name="dieresis" horiz-adv-x="567" d=" M 190 567 L 158 536 L 190 504 L 221 536 L 190 567 M 440 567 L 409 536 L 440 504 L 472 536 L 440 567" />
<glyph unicode="&#xa9;" glyph-name="copyright" horiz-adv-x="693" d="M 378 662 L 315 630 L 252 567 L 220 504 L 189 410 L 189 252 L 220 158 L 252 94.5 L 315 31.5 L 378 0 L 504 0 L 567 31.5 L 630 94.5 L 662 158 L 693 252 L 693 410 L 662 504 L 630 567 L 567 630 L 504 662 L 378 662 M 551 410 L 536 441 L 504 472 L 472 488 L 410 488 L 378 472 L 346 441 L 331 410 L 315 362 L 315 284 L 331 236 L 346 205 L 378 173 L 410 158 L 472 158 L 504 173 L 536 205 L 551 236" />
<glyph unicode="&#xaa;" glyph-name="ordfeminine" horiz-adv-x="252" d="M 284 724 L 268 756 L 236 772 L 205 772 L 173 756 L 158 740 L 142 709 L 142 677 L 158 646 L 189 630 L 220 630 L 252 646 L 268 677 L 299 772 L 284 693 L 284 646 L 299 630 L 315 630 L 346 646 L 362 662 L 394 709" />
<glyph unicode="&#xab;" glyph-name="guillemotleft" horiz-adv-x="454" d="M 265 454 L 63 227 L 265 0 M 391 454 L 189 227 L 391 0" />
<glyph unicode="&#xae;" glyph-name="registered" horiz-adv-x="693" d="M 378 662 L 315 630 L 252 567 L 220 504 L 189 410 L 189 252 L 220 158 L 252 94.5 L 315 31.5 L 378 0 L 504 0 L 567 31.5 L 630 94.5 L 662 158 L 693 252 L 693 410 L 662 504 L 630 567 L 567 630 L 504 662 L 378 662 M 331 488 L 331 158 M 331 488 L 472 488 L 520 472 L 536 457 L 551 425 L 551 394 L 536 362 L 520 346 L 472 331 L 331 331 M 441 331 L 551 158" />
<glyph unicode="&#xb0;" glyph-name="degree" horiz-adv-x="238" d="M 246 765 L 217 756 L 198 737 L 180 709 L 170 690 L 161 652 L 161 614 L 170 586 L 180 576 L 198 567 L 217 567 L 246 576 L 265 595 L 284 624 L 293 643 L 302 680 L 302 718 L 293 747 L 284 756 L 265 765 L 246 765 L 227 747 L 227 718 L 236 690 L 255 662 L 274 643 L 302 624 L 321 614" />
<glyph unicode="&#xb1;" glyph-name="plusminus" horiz-adv-x="655" d="M 580 37.8 L 1033.2 37.8 M 806 643 L 806 189 M 580 416 L 1033.2 416" />
<glyph unicode="&#xb2;" glyph-name="twosuperior" horiz-adv-x="331" d="M 252 898 L 268 882 L 252 866 L 236 882 L 236 898 L 252 929 L 268 945 L 315 961 L 362 961 L 410 945 L 425 914 L 425 882 L 410 850 L 378 819 L 331 788 L 268 756 L 220 724 L 189 693 L 158 630 M 362 961 L 394 945 L 410 914 L 410 882 L 394 850 L 362 819 L 268 756 M 173 662 L 189 677 L 220 677 L 299 646 L 346 646 L 378 662 L 394 693 M 220 677 L 299 630 L 346 630 L 378 646 L 394 693" />
<glyph unicode="&#xb3;" glyph-name="threesuperior" horiz-adv-x="331" d="M 252 898 L 268 882 L 252 866 L 236 882 L 236 898 L 252 929 L 268 945 L 315 961 L 362 961 L 410 945 L 425 914 L 425 882 L 410 850 L 362 819 L 315 803 M 362 961 L 394 945 L 410 914 L 410 882 L 394 850 L 362 819 M 284 803 L 315 803 L 362 788 L 378 772 L 394 740 L 394 693 L 378 662 L 362 646 L 315 630 L 252 630 L 205 646 L 189 662 L 173 693 L 173 709 L 189 724 L 205 709 L 189 693 M 315 803 L 346 788 L 362 772 L 378 740 L 378 693 L 362 662 L 346 646 L 315 630" />
<glyph unicode="&#xb4;" glyph-name="acute" horiz-adv-x="378" d=" M 316 658 L 190 487" />
<glyph unicode="&#xb7;" glyph-name="middot" horiz-adv-x="340" d="M 340 378 L 302 340 L 340 302 L 378 340 L 340 378" />
<glyph unicode="&#xb9;" glyph-name="onesuperior" horiz-adv-x="331" d="M 331 898 L 252 630 M 362 961 L 268 630 M 362 961 L 315 914 L 268 882 L 236 866 M 346 914 L 284 882 L 236 866" />
<glyph unicode="&#xba;" glyph-name="ordmasculine" horiz-adv-x="238" d="M 246 765 L 217 756 L 198 737 L 180 709 L 170 690 L 161 652 L 161 614 L 170 586 L 180 576 L 198 567 L 217 567 L 246 576 L 265 595 L 284 624 L 293 643 L 302 680 L 302 718 L 293 747 L 284 756 L 265 765 L 246 765 L 227 747 L 227 718 L 236 690 L 255 662 L 274 643 L 302 624 L 321 614" />
<glyph unicode="&#xbb;" glyph-name="guillemotright" horiz-adv-x="454" d="M 63 454 L 265 227 L 63 0 M 189 454 L 391 227 L 189 0" />
<glyph unicode="&#xbc;" glyph-name="onequarter" horiz-adv-x="714" d="M 246 699 L 151 378 M 284 775 L 170 378 M 284 775 L 227 718 L 170 680 L 132 662 M 265 718 L 189 680 L 132 662 M 819 788 L 0 -220 M 794 378 L 680 0 M 813 397 L 699 0 M 813 397 L 529 113 L 832 113" />
<glyph unicode="&#xbd;" glyph-name="onehalf" horiz-adv-x="714" d="M 246 699 L 151 378 M 284 775 L 170 378 M 284 775 L 227 718 L 170 680 L 132 662 M 265 718 L 189 680 L 132 662 M 819 788 L 0 -220 M 624 321 L 643 302 L 624 284 L 605 302 L 605 321 L 624 359 L 643 378 L 699 397 L 756 397 L 813 378 L 832 340 L 832 302 L 813 265 L 775 227 L 718 189 L 643 151 L 586 113 L 548 75.6 L 510 0 M 756 397 L 794 378 L 813 340 L 813 302 L 794 265 L 756 227 L 643 151 M 529 37.8 L 548 56.7 L 586 56.7 L 680 18.9 L 737 18.9 L 775 37.8 L 794 75.6 M 586 56.7 L 680 0 L 737 0 L 775 18.9 L 794 75.6" />
<glyph unicode="&#xbe;" glyph-name="threequarters" horiz-adv-x="714" d="M 151 699 L 170 680 L 151 662 L 132 680 L 132 699 L 151 737 L 170 756 L 227 775 L 284 775 L 340 756 L 359 718 L 359 680 L 340 643 L 284 605 L 227 586 M 284 775 L 321 756 L 340 718 L 340 680 L 321 643 L 284 605 M 189 586 L 227 586 L 284 567 L 302 548 L 321 510 L 321 454 L 302 416 L 284 397 L 227 378 L 151 378 L 94.5 397 L 75.6 416 L 56.7 454 L 56.7 472 L 75.6 491 L 94.5 472 L 75.6 454 M 227 586 L 265 567 L 284 548 L 302 510 L 302 454 L 284 416 L 265 397 L 227 378 M 819 788 L 0 -220 M 794 378 L 680 0 M 813 397 L 699 0 M 813 397 L 529 113 L 832 113" />
<glyph unicode="&#xbf;" glyph-name="questiondown" horiz-adv-x="662" d="M 472 126 L 441 158 L 472 189 L 504 158 L 504 126 L 472 63 L 441 31.5 L 346 0 L 220 0 L 126 31.5 L 94.5 94.5 L 94.5 158 L 126 220 L 158 252 L 346 315 L 410 346 L 410 410 L 378 441 L 315 441 M 220 0 L 158 31.5 L 126 94.5 L 126 158 L 158 220 L 189 252 L 252 284 M 441 598 L 472 630 L 441 662 L 410 630 L 441 598" />
<glyph unicode="&#xc0;" glyph-name="Agrave" horiz-adv-x="630" d="M 31.5 0 L 94.5 31.5 L 189 126 L 284 252 L 410 472 L 504 662 L 504 0 L 472 94.5 L 410 189 L 346 252 L 252 315 L 189 315 L 158 284 L 158 220 L 189 158 L 252 94.5 L 346 31.5 L 441 0 L 598 0 M 346 1023.8 L 438 901" />
<glyph unicode="&#xc1;" glyph-name="Aacute" horiz-adv-x="630" d="M 31.5 0 L 94.5 31.5 L 189 126 L 284 252 L 410 472 L 504 662 L 504 0 L 472 94.5 L 410 189 L 346 252 L 252 315 L 189 315 L 158 284 L 158 220 L 189 158 L 252 94.5 L 346 31.5 L 441 0 L 598 0 M 589 1031.0 L 463 861" />
<glyph unicode="&#xc2;" glyph-name="Acircumflex" horiz-adv-x="630" d="M 31.5 0 L 94.5 31.5 L 189 126 L 284 252 L 410 472 L 504 662 L 504 0 L 472 94.5 L 410 189 L 346 252 L 252 315 L 189 315 L 158 284 L 158 220 L 189 158 L 252 94.5 L 346 31.5 L 441 0 L 598 0 M 373 769 L 493 896 L 567 769" />
<glyph unicode="&#xc3;" glyph-name="Atilde" horiz-adv-x="630" d="M 31.5 0 L 94.5 31.5 L 189 126 L 284 252 L 410 472 L 504 662 L 504 0 L 472 94.5 L 410 189 L 346 252 L 252 315 L 189 315 L 158 284 L 158 220 L 189 158 L 252 94.5 L 346 31.5 L 441 0 L 598 0 M 341 803 L 341 835 L 357 882 L 388 898 L 420 898 L 452 882 L 515 835 L 546 819 L 578 819 L 609 835 L 625 866 M 341 835 L 357 866 L 388 882 L 420 882 L 452 866 L 515 819 L 546 803 L 578 803 L 609 819 L 625 866 L 625 898" />
<glyph unicode="&#xc4;" glyph-name="Adieresis" horiz-adv-x="630" d="M 31.5 0 L 94.5 31.5 L 189 126 L 284 252 L 410 472 L 504 662 L 504 0 L 472 94.5 L 410 189 L 346 252 L 252 315 L 189 315 L 158 284 L 158 220 L 189 158 L 252 94.5 L 346 31.5 L 441 0 L 598 0 M 374 914 L 343 882 L 374 850 L 406 882 L 374 914 M 634 914 L 602 882 L 634 850 L 665 882 L 634 914" />
<glyph unicode="&#xc5;" glyph-name="Aring" horiz-adv-x="567" d="M 378 662 L 126 0 M 378 662 L 630 0 M 220 220 L 536 220 M 359 1048.9 L 340 1039.5 L 321 1020.6 L 312 1001.7 L 302 973 L 302 926 L 312 898 L 321 879 L 340 860 L 359 850 L 397 850 L 416 860 L 435 879 L 444 898 L 454 926 L 454 973 L 444 1001.7 L 435 1020.6 L 416 1039.5 L 397 1048.9 L 359 1048.9" />
<glyph unicode="&#xc8;" glyph-name="Egrave" horiz-adv-x="630" d="M 472 536 L 472 504 L 504 472 L 567 472 L 598 504 L 598 567 L 567 630 L 472 662 L 346 662 L 252 630 L 220 567 L 220 472 L 252 410 L 284 378 L 378 346 L 284 346 L 189 315 L 158 284 L 126 220 L 126 126 L 158 63 L 189 31.5 L 284 0 L 378 0 L 472 31.5 L 536 94.5 L 567 158 M 346 1023.8 L 438 901" />
<glyph unicode="&#xc9;" glyph-name="Eacute" horiz-adv-x="630" d="M 472 536 L 472 504 L 504 472 L 567 472 L 598 504 L 598 567 L 567 630 L 472 662 L 346 662 L 252 630 L 220 567 L 220 472 L 252 410 L 284 378 L 378 346 L 284 346 L 189 315 L 158 284 L 126 220 L 126 126 L 158 63 L 189 31.5 L 284 0 L 378 0 L 472 31.5 L 536 94.5 L 567 158 M 591 1035.2 L 465 865" />
<glyph unicode="&#xca;" glyph-name="Ecircumflex" horiz-adv-x="630" d="M 472 536 L 472 504 L 504 472 L 567 472 L 598 504 L 598 567 L 567 630 L 472 662 L 346 662 L 252 630 L 220 567 L 220 472 L 252 410 L 284 378 L 378 346 L 284 346 L 189 315 L 158 284 L 126 220 L 126 126 L 158 63 L 189 31.5 L 284 0 L 378 0 L 472 31.5 L 536 94.5 L 567 158 M 310 769 L 430 896 L 504 769" />
<glyph unicode="&#xcb;" glyph-name="Edieresis" horiz-adv-x="630" d="M 472 536 L 472 504 L 504 472 L 567 472 L 598 504 L 598 567 L 567 630 L 472 662 L 346 662 L 252 630 L 220 567 L 220 472 L 252 410 L 284 378 L 378 346 L 284 346 L 189 315 L 158 284 L 126 220 L 126 126 L 158 63 L 189 31.5 L 284 0 L 378 0 L 472 31.5 L 536 94.5 L 567 158 M 373 914 L 342 882 L 373 850 L 405 882 L 373 914 M 635 914 L 603 882 L 635 850 L 666 882 L 635 914" />
<glyph unicode="&#xcc;" glyph-name="Igrave" horiz-adv-x="536" d="M 472 158 L 410 220 L 346 315 L 315 378 L 284 472 L 284 567 L 315 630 L 346 662 L 410 662 L 441 630 L 472 567 L 472 472 L 441 315 L 378 158 L 346 94.5 L 284 31.5 L 220 0 L 158 0 L 94.5 31.5 L 63 94.5 L 63 158 L 94.5 189 L 158 189 L 220 158 M 299 1023.8 L 391 901" />
<glyph unicode="&#xcd;" glyph-name="Iacute" horiz-adv-x="536" d="M 472 158 L 410 220 L 346 315 L 315 378 L 284 472 L 284 567 L 315 630 L 346 662 L 410 662 L 441 630 L 472 567 L 472 472 L 441 315 L 378 158 L 346 94.5 L 284 31.5 L 220 0 L 158 0 L 94.5 31.5 L 63 94.5 L 63 158 L 94.5 189 L 158 189 L 220 158 M 532 980 L 406 810" />
<glyph unicode="&#xce;" glyph-name="Icircumflex" horiz-adv-x="536" d="M 472 158 L 410 220 L 346 315 L 315 378 L 284 472 L 284 567 L 315 630 L 346 662 L 410 662 L 441 630 L 472 567 L 472 472 L 441 315 L 378 158 L 346 94.5 L 284 31.5 L 220 0 L 158 0 L 94.5 31.5 L 63 94.5 L 63 158 L 94.5 189 L 158 189 L 220 158 M 287 769 L 406 896 L 480 769" />
<glyph unicode="&#xcf;" glyph-name="Idieresis" horiz-adv-x="536" d="M 472 158 L 410 220 L 346 315 L 315 378 L 284 472 L 284 567 L 315 630 L 346 662 L 410 662 L 441 630 L 472 567 L 472 472 L 441 315 L 378 158 L 346 94.5 L 284 31.5 L 220 0 L 158 0 L 94.5 31.5 L 63 94.5 L 63 158 L 94.5 189 L 158 189 L 220 158 M 334 914 L 303 882 L 334 850 L 366 882 L 334 914 M 579 914 L 548 882 L 579 850 L 611 882 L 579 914" />
<glyph unicode="&#xd0;" glyph-name="Eth" horiz-adv-x="724" d="M 110 236 L 394 236 M 441 662 L 378 630 L 346 567 L 315 441 L 284 252 L 252 158 L 220 94.5 L 158 31.5 L 94.5 0 L 31.5 0 L 0 31.5 L 0 94.5 L 31.5 126 L 94.5 126 L 158 94.5 L 220 31.5 L 315 0 L 410 0 L 504 31.5 L 567 94.5 L 630 220 L 662 378 L 662 504 L 630 598 L 598 630 L 536 662 L 441 662 L 378 598 L 378 536 L 410 441 L 472 346 L 536 284 L 630 220 L 693 189" />
<glyph unicode="&#xd1;" glyph-name="Ntilde" horiz-adv-x="756" d="M 189 441 L 126 472 L 94.5 536 L 94.5 567 L 126 630 L 189 662 L 220 662 L 284 630 L 315 567 L 315 504 L 284 346 L 252 220 L 189 0 M 252 220 L 346 472 L 410 598 L 441 630 L 504 662 L 567 662 L 630 630 L 662 567 L 662 504 L 630 346 L 567 126 L 567 31.5 L 598 0 L 630 0 L 693 31.5 L 724 63 L 788 158 M 299 803 L 299 835 L 315 882 L 346 898 L 378 898 L 410 882 L 472 835 L 504 819 L 536 819 L 567 835 L 583 866 M 299 835 L 315 866 L 346 882 L 378 882 L 410 866 L 472 819 L 504 803 L 536 803 L 567 819 L 583 866 L 583 898" />
<glyph unicode="&#xd2;" glyph-name="Ograve" horiz-adv-x="662" d="M 410 662 L 315 630 L 252 567 L 189 472 L 158 410 L 126 284 L 126 158 L 158 63 L 189 31.5 L 252 0 L 315 0 L 410 31.5 L 472 94.5 L 536 189 L 567 252 L 598 378 L 598 504 L 567 598 L 536 630 L 472 662 L 410 662 L 346 598 L 346 504 L 378 410 L 441 315 L 504 252 L 598 189 L 662 158 M 362 1023.8 L 454 901" />
<glyph unicode="&#xd3;" glyph-name="Oacute" horiz-adv-x="662" d="M 410 662 L 315 630 L 252 567 L 189 472 L 158 410 L 126 284 L 126 158 L 158 63 L 189 31.5 L 252 0 L 315 0 L 410 31.5 L 472 94.5 L 536 189 L 567 252 L 598 378 L 598 504 L 567 598 L 536 630 L 472 662 L 410 662 L 346 598 L 346 504 L 378 410 L 441 315 L 504 252 L 598 189 L 662 158 M 606 1029.8 L 480 860" />
<glyph unicode="&#xd4;" glyph-name="Ocircumflex" horiz-adv-x="662" d="M 410 662 L 315 630 L 252 567 L 189 472 L 158 410 L 126 284 L 126 158 L 158 63 L 189 31.5 L 252 0 L 315 0 L 410 31.5 L 472 94.5 L 536 189 L 567 252 L 598 378 L 598 504 L 567 598 L 536 630 L 472 662 L 410 662 L 346 598 L 346 504 L 378 410 L 441 315 L 504 252 L 598 189 L 662 158 M 318 769 L 438 896 L 512 769" />
<glyph unicode="&#xd5;" glyph-name="Otilde" horiz-adv-x="662" d="M 410 662 L 315 630 L 252 567 L 189 472 L 158 410 L 126 284 L 126 158 L 158 63 L 189 31.5 L 252 0 L 315 0 L 410 31.5 L 472 94.5 L 536 189 L 567 252 L 598 378 L 598 504 L 567 598 L 536 630 L 472 662 L 410 662 L 346 598 L 346 504 L 378 410 L 441 315 L 504 252 L 598 189 L 662 158 M 284 803 L 284 835 L 299 882 L 331 898 L 362 898 L 394 882 L 457 835 L 488 819 L 520 819 L 551 835 L 567 866 M 284 835 L 299 866 L 331 882 L 362 882 L 394 866 L 457 819 L 488 803 L 520 803 L 551 819 L 567 866 L 567 898" />
<glyph unicode="&#xd6;" glyph-name="Odieresis" horiz-adv-x="662" d="M 410 662 L 315 630 L 252 567 L 189 472 L 158 410 L 126 284 L 126 158 L 158 63 L 189 31.5 L 252 0 L 315 0 L 410 31.5 L 472 94.5 L 536 189 L 567 252 L 598 378 L 598 504 L 567 598 L 536 630 L 472 662 L 410 662 L 346 598 L 346 504 L 378 410 L 441 315 L 504 252 L 598 189 L 662 158 M 390 914 L 359 882 L 390 850 L 422 882 L 390 914 M 649 914 L 618 882 L 649 850 L 681 882 L 649 914" />
<glyph unicode="&#xd7;" glyph-name="multiply" horiz-adv-x="536" d="M 189 441 L 536 0 M 536 441 L 189 0" />
<glyph unicode="&#xd8;" glyph-name="Oslash" horiz-adv-x="662" d="M 410 662 L 315 630 L 252 567 L 189 472 L 158 410 L 126 284 L 126 158 L 158 63 L 189 31.5 L 252 0 L 315 0 L 410 31.5 L 472 94.5 L 536 189 L 567 252 L 598 378 L 598 504 L 567 598 L 536 630 L 472 662 L 410 662 L 346 598 L 346 504 L 378 410 L 441 315 L 504 252 L 598 189 L 662 158 M 740 791 L 76.5 -25.5" />
<glyph unicode="&#xd9;" glyph-name="Ugrave" horiz-adv-x="756" d="M 189 441 L 126 472 L 94.5 536 L 94.5 567 L 126 630 L 189 662 L 220 662 L 284 630 L 315 567 L 315 504 L 284 378 L 252 284 L 220 158 L 220 94.5 L 252 31.5 L 315 0 L 378 0 L 441 31.5 L 472 63 L 536 189 L 630 441 L 693 662 M 630 441 L 598 315 L 567 126 L 567 31.5 L 598 0 L 630 0 L 693 31.5 L 724 63 L 788 158 M 410 1023.8 L 501 901" />
<glyph unicode="&#xda;" glyph-name="Uacute" horiz-adv-x="756" d="M 189 441 L 126 472 L 94.5 536 L 94.5 567 L 126 630 L 189 662 L 220 662 L 284 630 L 315 567 L 315 504 L 284 378 L 252 284 L 220 158 L 220 94.5 L 252 31.5 L 315 0 L 378 0 L 441 31.5 L 472 63 L 536 189 L 630 441 L 693 662 M 630 441 L 598 315 L 567 126 L 567 31.5 L 598 0 L 630 0 L 693 31.5 L 724 63 L 788 158 M 629 980 L 503 809" />
<glyph unicode="&#xdb;" glyph-name="Ucircumflex" horiz-adv-x="756" d="M 189 441 L 126 472 L 94.5 536 L 94.5 567 L 126 630 L 189 662 L 220 662 L 284 630 L 315 567 L 315 504 L 284 378 L 252 284 L 220 158 L 220 94.5 L 252 31.5 L 315 0 L 378 0 L 441 31.5 L 472 63 L 536 189 L 630 441 L 693 662 M 630 441 L 598 315 L 567 126 L 567 31.5 L 598 0 L 630 0 L 693 31.5 L 724 63 L 788 158 M 342 769 L 461 896 L 536 769" />
<glyph unicode="&#xdc;" glyph-name="Udieresis" horiz-adv-x="756" d="M 189 441 L 126 472 L 94.5 536 L 94.5 567 L 126 630 L 189 662 L 220 662 L 284 630 L 315 567 L 315 504 L 284 378 L 252 284 L 220 158 L 220 94.5 L 252 31.5 L 315 0 L 378 0 L 441 31.5 L 472 63 L 536 189 L 630 441 L 693 662 M 630 441 L 598 315 L 567 126 L 567 31.5 L 598 0 L 630 0 L 693 31.5 L 724 63 L 788 158 M 442 914 L 411 882 L 442 850 L 474 882 L 442 914 M 692 914 L 660 882 L 692 850 L 723 882 L 692 914" />
<glyph unicode="&#xdd;" glyph-name="Yacute" horiz-adv-x="724" d="M 189 441 L 126 472 L 94.5 536 L 94.5 567 L 126 630 L 189 662 L 220 662 L 284 630 L 315 567 L 315 504 L 284 378 L 252 284 L 220 158 L 220 94.5 L 252 31.5 L 284 0 L 346 0 L 410 31.5 L 472 94.5 L 536 189 L 567 252 L 630 441 M 693 662 L 630 441 L 536 126 L 472 -63 L 410 -220 L 346 -346 L 284 -378 L 252 -346 L 252 -284 L 284 -189 L 346 -94.5 L 441 0 L 536 63 L 693 158 M 615 1029.3 L 489 859" />
<glyph unicode="&#xe0;" glyph-name="agrave" horiz-adv-x="504" d="M 315 189 L 284 252 L 220 284 L 158 284 L 94.5 252 L 63 220 L 31.5 158 L 31.5 94.5 L 63 31.5 L 126 0 L 189 0 L 252 31.5 L 284 94.5 L 346 284 L 315 126 L 315 31.5 L 346 0 L 378 0 L 441 31.5 L 472 63 L 536 158 M 158 614 L 249 491" />
<glyph unicode="&#xe1;" glyph-name="aacute" horiz-adv-x="504" d="M 315 189 L 284 252 L 220 284 L 158 284 L 94.5 252 L 63 220 L 31.5 158 L 31.5 94.5 L 63 31.5 L 126 0 L 189 0 L 252 31.5 L 284 94.5 L 346 284 L 315 126 L 315 31.5 L 346 0 L 378 0 L 441 31.5 L 472 63 L 536 158 M 406 672 L 280 502" />
<glyph unicode="&#xe2;" glyph-name="acircumflex" horiz-adv-x="504" d="M 315 189 L 284 252 L 220 284 L 158 284 L 94.5 252 L 63 220 L 31.5 158 L 31.5 94.5 L 63 31.5 L 126 0 L 189 0 L 252 31.5 L 284 94.5 L 346 284 L 315 126 L 315 31.5 L 346 0 L 378 0 L 441 31.5 L 472 63 L 536 158 M 106 422 L 225 550 L 299 422" />
<glyph unicode="&#xe3;" glyph-name="atilde" horiz-adv-x="504" d="M 315 189 L 284 252 L 220 284 L 158 284 L 94.5 252 L 63 220 L 31.5 158 L 31.5 94.5 L 63 31.5 L 126 0 L 189 0 L 252 31.5 L 284 94.5 L 346 284 L 315 126 L 315 31.5 L 346 0 L 378 0 L 441 31.5 L 472 63 L 536 158 M 84 425 L 84 457 L 99.8 504 L 131 520 L 163 520 L 194 504 L 257 457 L 289 441 L 320 441 L 352 457 L 368 488 M 84 457 L 99.8 488 L 131 504 L 163 504 L 194 488 L 257 441 L 289 425 L 320 425 L 352 441 L 368 488 L 368 520" />
<glyph unicode="&#xe4;" glyph-name="adieresis" horiz-adv-x="504" d="M 315 189 L 284 252 L 220 284 L 158 284 L 94.5 252 L 63 220 L 31.5 158 L 31.5 94.5 L 63 31.5 L 126 0 L 189 0 L 252 31.5 L 284 94.5 L 346 284 L 315 126 L 315 31.5 L 346 0 L 378 0 L 441 31.5 L 472 63 L 536 158 M 164 567 L 133 536 L 164 504 L 196 536 L 164 567 M 403 567 L 371 536 L 403 504 L 434 536 L 403 567" />
<glyph unicode="&#xe5;" glyph-name="aring" horiz-adv-x="598" d="M 567 441 L 567 0 M 567 346 L 504 410 L 441 441 L 346 441 L 284 410 L 220 346 L 189 252 L 189 189 L 220 94.5 L 284 31.5 L 346 0 L 441 0 L 504 31.5 L 567 94.5 M 397 860 L 378 850 L 359 832 L 350 813 L 340 784 L 340 737 L 350 709 L 359 690 L 378 671 L 397 662 L 435 662 L 454 671 L 472 690 L 482 709 L 491 737 L 491 784 L 482 813 L 472 832 L 454 850 L 435 860 L 397 860" />
<glyph unicode="&#xe8;" glyph-name="egrave" horiz-adv-x="315" d="M 63 63 L 126 94.5 L 158 126 L 189 189 L 189 252 L 158 284 L 126 284 L 63 252 L 31.5 189 L 31.5 94.5 L 63 31.5 L 126 0 L 189 0 L 252 31.5 L 284 63 L 346 158 M 63 614 L 154 491" />
<glyph unicode="&#xe9;" glyph-name="eacute" horiz-adv-x="315" d="M 63 63 L 126 94.5 L 158 126 L 189 189 L 189 252 L 158 284 L 126 284 L 63 252 L 31.5 189 L 31.5 94.5 L 63 31.5 L 126 0 L 189 0 L 252 31.5 L 284 63 L 346 158 M 300 663 L 174 493" />
<glyph unicode="&#xea;" glyph-name="ecircumflex" horiz-adv-x="315" d="M 63 63 L 126 94.5 L 158 126 L 189 189 L 189 252 L 158 284 L 126 284 L 63 252 L 31.5 189 L 31.5 94.5 L 63 31.5 L 126 0 L 189 0 L 252 31.5 L 284 63 L 346 158 M 58.3 422 L 178 550 L 252 422" />
<glyph unicode="&#xeb;" glyph-name="edieresis" horiz-adv-x="315" d="M 63 63 L 126 94.5 L 158 126 L 189 189 L 189 252 L 158 284 L 126 284 L 63 252 L 31.5 189 L 31.5 94.5 L 63 31.5 L 126 0 L 189 0 L 252 31.5 L 284 63 L 346 158 M 61.8 567 L 30.3 536 L 61.8 504 L 93.3 536 L 61.8 567 M 316 567 L 285 536 L 316 504 L 348 536 L 316 567" />
<glyph unicode="&#xec;" glyph-name="igrave" horiz-adv-x="220" d="M 31.5 158 L 94.5 284 L 31.5 94.5 L 31.5 31.5 L 63 0 L 94.5 0 L 158 31.5 L 189 63 L 252 158 M 15.8 614 L 107 491" />
<glyph unicode="&#xed;" glyph-name="iacute" horiz-adv-x="220" d="M 31.5 158 L 94.5 284 L 31.5 94.5 L 31.5 31.5 L 63 0 L 94.5 0 L 158 31.5 L 189 63 L 252 158 M 258 641 L 132 471" />
<glyph unicode="&#xee;" glyph-name="icircumflex" horiz-adv-x="220" d="M 31.5 158 L 94.5 284 L 31.5 94.5 L 31.5 31.5 L 63 0 L 94.5 0 L 158 31.5 L 189 63 L 252 158 M 34.6 422 L 154 550 L 228 422" />
<glyph unicode="&#xef;" glyph-name="idieresis" horiz-adv-x="220" d="M 31.5 158 L 94.5 284 L 31.5 94.5 L 31.5 31.5 L 63 0 L 94.5 0 L 158 31.5 L 189 63 L 252 158 M 16.9 567 L -14.6 536 L 16.9 504 L 48.4 536 L 16.9 567 M 267 567 L 235 536 L 267 504 L 298 536 L 267 567" />
<glyph unicode="&#xf1;" glyph-name="ntilde" horiz-adv-x="567" d="M 31.5 158 L 94.5 252 L 158 284 L 189 252 L 189 220 L 158 94.5 L 126 0 M 158 94.5 L 189 158 L 252 252 L 315 284 L 378 284 L 410 252 L 410 189 L 378 94.5 L 378 31.5 L 410 0 L 441 0 L 504 31.5 L 536 63 L 598 158 M 94.5 425 L 94.5 457 L 110 504 L 142 520 L 173 520 L 205 504 L 268 457 L 299 441 L 331 441 L 362 457 L 378 488 M 94.5 457 L 110 488 L 142 504 L 173 504 L 205 488 L 268 441 L 299 425 L 331 425 L 362 441 L 378 488 L 378 520" />
<glyph unicode="&#xf2;" glyph-name="ograve" horiz-adv-x="441" d="M 220 284 L 158 284 L 94.5 252 L 63 220 L 31.5 158 L 31.5 94.5 L 63 31.5 L 126 0 L 189 0 L 252 31.5 L 284 63 L 315 126 L 315 189 L 284 252 L 220 284 L 189 252 L 189 189 L 220 126 L 284 94.5 L 378 94.5 L 441 126 L 472 158 M 126 614 L 217 491" />
<glyph unicode="&#xf3;" glyph-name="oacute" horiz-adv-x="441" d="M 220 284 L 158 284 L 94.5 252 L 63 220 L 31.5 158 L 31.5 94.5 L 63 31.5 L 126 0 L 189 0 L 252 31.5 L 284 63 L 315 126 L 315 189 L 284 252 L 220 284 L 189 252 L 189 189 L 220 126 L 284 94.5 L 378 94.5 L 441 126 L 472 158 M 361 683 L 235 513" />
<glyph unicode="&#xf4;" glyph-name="ocircumflex" horiz-adv-x="441" d="M 220 284 L 158 284 L 94.5 252 L 63 220 L 31.5 158 L 31.5 94.5 L 63 31.5 L 126 0 L 189 0 L 252 31.5 L 284 63 L 315 126 L 315 189 L 284 252 L 220 284 L 189 252 L 189 189 L 220 126 L 284 94.5 L 378 94.5 L 441 126 L 472 158 M 89.8 422 L 209 550 L 284 422" />
<glyph unicode="&#xf5;" glyph-name="otilde" horiz-adv-x="441" d="M 220 284 L 158 284 L 94.5 252 L 63 220 L 31.5 158 L 31.5 94.5 L 63 31.5 L 126 0 L 189 0 L 252 31.5 L 284 63 L 315 126 L 315 189 L 284 252 L 220 284 L 189 252 L 189 189 L 220 126 L 284 94.5 L 378 94.5 L 441 126 L 472 158 M 73.5 425 L 73.5 457 L 89.2 504 L 121 520 L 152 520 L 184 504 L 247 457 L 278 441 L 310 441 L 341 457 L 357 488 M 73.5 457 L 89.2 488 L 121 504 L 152 504 L 184 488 L 247 441 L 278 425 L 310 425 L 341 441 L 357 488 L 357 520" />
<glyph unicode="&#xf6;" glyph-name="odieresis" horiz-adv-x="441" d="M 220 284 L 158 284 L 94.5 252 L 63 220 L 31.5 158 L 31.5 94.5 L 63 31.5 L 126 0 L 189 0 L 252 31.5 L 284 63 L 315 126 L 315 189 L 284 252 L 220 284 L 189 252 L 189 189 L 220 126 L 284 94.5 L 378 94.5 L 441 126 L 472 158 M 126 567 L 94.6 536 L 126 504 L 158 536 L 126 567 M 378 567 L 346 536 L 378 504 L 409 536 L 378 567" />
<glyph unicode="&#xf7;" glyph-name="divide" horiz-adv-x="614" d="M 346 551 L 315 520 L 346 488 L 378 520 L 346 551 M 346 268 L 315 236 L 346 205 L 378 236 L 346 268 M 118 378 L 543 378" />
<glyph unicode="&#xf8;" glyph-name="oslash" horiz-adv-x="441" d="M 220 284 L 158 284 L 94.5 252 L 63 220 L 31.5 158 L 31.5 94.5 L 63 31.5 L 126 0 L 189 0 L 252 31.5 L 284 63 L 315 126 L 315 189 L 284 252 L 220 284 L 189 252 L 189 189 L 220 126 L 284 94.5 L 378 94.5 L 441 126 L 472 158 M 355 386 L -46.3 -108" />
<glyph unicode="&#xf9;" glyph-name="ugrave" horiz-adv-x="472" d="M 31.5 158 L 94.5 284 L 31.5 94.5 L 31.5 31.5 L 63 0 L 126 0 L 189 31.5 L 252 94.5 L 315 189 M 346 284 L 284 94.5 L 284 31.5 L 315 0 L 346 0 L 410 31.5 L 441 63 L 504 158 M 142 614 L 233 491" />
<glyph unicode="&#xfa;" glyph-name="uacute" horiz-adv-x="472" d="M 31.5 158 L 94.5 284 L 31.5 94.5 L 31.5 31.5 L 63 0 L 126 0 L 189 31.5 L 252 94.5 L 315 189 M 346 284 L 284 94.5 L 284 31.5 L 315 0 L 346 0 L 410 31.5 L 441 63 L 504 158 M 364 676 L 238 506" />
<glyph unicode="&#xfb;" glyph-name="ucircumflex" horiz-adv-x="472" d="M 31.5 158 L 94.5 284 L 31.5 94.5 L 31.5 31.5 L 63 0 L 126 0 L 189 31.5 L 252 94.5 L 315 189 M 346 284 L 284 94.5 L 284 31.5 L 315 0 L 346 0 L 410 31.5 L 441 63 L 504 158 M 97.6 422 L 217 550 L 291 422" />
<glyph unicode="&#xfc;" glyph-name="udieresis" horiz-adv-x="472" d="M 31.5 158 L 94.5 284 L 31.5 94.5 L 31.5 31.5 L 63 0 L 126 0 L 189 31.5 L 252 94.5 L 315 189 M 346 284 L 284 94.5 L 284 31.5 L 315 0 L 346 0 L 410 31.5 L 441 63 L 504 158 M 136 567 L 104 536 L 136 504 L 167 536 L 136 567 M 400 567 L 368 536 L 400 504 L 431 536 L 400 567" />
<glyph unicode="&#xfd;" glyph-name="yacute" horiz-adv-x="472" d="M 31.5 158 L 94.5 284 L 31.5 94.5 L 31.5 31.5 L 63 0 L 126 0 L 189 31.5 L 252 94.5 L 315 189 M 346 284 L 158 -284 L 126 -346 L 63 -378 L 31.5 -346 L 31.5 -284 L 63 -189 L 158 -94.5 L 252 -31.5 L 315 0 L 410 63 L 504 158 M 382 635 L 256 465" />
<glyph unicode="&#xff;" glyph-name="ydieresis" horiz-adv-x="472" d="M 31.5 158 L 94.5 284 L 31.5 94.5 L 31.5 31.5 L 63 0 L 126 0 L 189 31.5 L 252 94.5 L 315 189 M 346 284 L 158 -284 L 126 -346 L 63 -378 L 31.5 -346 L 31.5 -284 L 63 -189 L 158 -94.5 L 252 -31.5 L 315 0 L 410 63 L 504 158 M 146 567 L 114 536 L 146 504 L 177 536 L 146 567 M 390 567 L 358 536 L 390 504 L 421 536 L 390 567" />
<glyph unicode="&#x2013;" glyph-name="endash" horiz-adv-x="614" d="M 118 284 L 543 284" />
<glyph unicode="&#x2014;" glyph-name="emdash" horiz-adv-x="819" d="M 158 284 L 724 284" />
<glyph unicode="&#x201c;" glyph-name="quotedblleft" horiz-adv-x="378" d="M 213 850 L 184 794 L 170 737 L 170 709 L 184 680 L 198 709 L 184 737 M 354 850 L 326 794 L 312 737 L 312 709 L 326 680 L 340 709 L 326 737" />
<glyph unicode="&#x201d;" glyph-name="quotedblright" horiz-adv-x="378" d="M 184 539 L 170 567 L 184 595 L 198 567 L 198 539 L 184 482 L 156 425 M 326 539 L 312 567 L 326 595 L 340 567 L 340 539 L 326 482 L 298 425" />
<glyph unicode="&#x2039;" glyph-name="guilsinglleft" horiz-adv-x="302" d="M 265 454 L 63 227 L 265 0" />
<glyph unicode="&#x203a;" glyph-name="guilsinglright" horiz-adv-x="302" d="M 63 454 L 265 227 L 63 0" />
<glyph unicode="&#x20ac;" glyph-name="Euro" horiz-adv-x="662" d="M 662 504 L 630 567 L 567 630 L 504 662 L 378 662 L 315 630 L 252 567 L 220 504 L 189 410 L 189 252 L 220 158 L 252 94.5 L 315 31.5 L 378 0 L 504 0 L 567 31.5 L 630 94.5 L 662 158 M 142 236 L 425 236 M 142 331 L 425 331" />
<glyph unicode="&#x0178;" glyph-name="Ydieresis" horiz-adv-x="724" d="M 189 441 L 126 472 L 94.5 536 L 94.5 567 L 126 630 L 189 662 L 220 662 L 284 630 L 315 567 L 315 504 L 284 378 L 252 284 L 220 158 L 220 94.5 L 252 31.5 L 284 0 L 346 0 L 410 31.5 L 472 94.5 L 536 189 L 567 252 L 630 441 M 693 662 L 630 441 L 536 126 L 472 -63 L 410 -220 L 346 -346 L 284 -378 L 252 -346 L 252 -284 L 284 -189 L 346 -94.5 L 441 0 L 536 63 L 693 158 M 422 914 L 391 882 L 422 850 L 454 882 L 422 914 M 680 914 L 649 882 L 680 850 L 712 882 L 680 914" />
<glyph unicode="&#x102;" glyph-name="Abreve" horiz-adv-x="630" d="M 31.5 0 L 94.5 31.5 L 189 126 L 284 252 L 410 472 L 504 662 L 504 0 L 472 94.5 L 410 189 L 346 252 L 252 315 L 189 315 L 158 284 L 158 220 L 189 158 L 252 94.5 L 346 31.5 L 441 0 L 598 0 M378.901 959.118C378.901 959.118 419.845 902 470 902C520.155 902 561.099 959.118 561.099 959.118" />
<glyph unicode="&#x114;" glyph-name="Ebreve" horiz-adv-x="630" d="M 472 536 L 472 504 L 504 472 L 567 472 L 598 504 L 598 567 L 567 630 L 472 662 L 346 662 L 252 630 L 220 567 L 220 472 L 252 410 L 284 378 L 378 346 L 284 346 L 189 315 L 158 284 L 126 220 L 126 126 L 158 63 L 189 31.5 L 284 0 L 378 0 L 472 31.5 L 536 94.5 L 567 158 M378.901 959.118C378.901 959.118 419.845 902 470 902C520.155 902 561.099 959.118 561.099 959.118" />
<glyph unicode="&#x11E;" glyph-name="Gbreve" horiz-adv-x="724" d="M 31.5 0 L 94.5 31.5 L 220 158 L 315 315 L 346 410 L 378 536 L 378 630 L 346 662 L 315 662 L 284 630 L 252 567 L 252 472 L 284 410 L 346 378 L 472 378 L 567 410 L 598 441 L 630 504 L 630 315 L 598 158 L 567 94.5 L 504 31.5 L 410 0 L 284 0 L 189 31.5 L 126 94.5 L 94.5 158 L 94.5 220 M408.901 959.118C408.901 959.118 449.845 902 500 902C550.155 902 591.099 959.118 591.099 959.118" />
<glyph unicode="&#x12C;" glyph-name="Ibreve" horiz-adv-x="536" d="M 472 158 L 410 220 L 346 315 L 315 378 L 284 472 L 284 567 L 315 630 L 346 662 L 410 662 L 441 630 L 472 567 L 472 472 L 441 315 L 378 158 L 346 94.5 L 284 31.5 L 220 0 L 158 0 L 94.5 31.5 L 63 94.5 L 63 158 L 94.5 189 L 158 189 L 220 158 M348.901 959.118C348.901 959.118 389.845 902 440 902C490.155 902 531.099 959.118 531.099 959.118" />
<glyph unicode="&#x14E;" glyph-name="Obreve" horiz-adv-x="662" d="M 410 662 L 315 630 L 252 567 L 189 472 L 158 410 L 126 284 L 126 158 L 158 63 L 189 31.5 L 252 0 L 315 0 L 410 31.5 L 472 94.5 L 536 189 L 567 252 L 598 378 L 598 504 L 567 598 L 536 630 L 472 662 L 410 662 L 346 598 L 346 504 L 378 410 L 441 315 L 504 252 L 598 189 L 662 158 M388.901 959.118C388.901 959.118 429.845 902 480 902C530.155 902 571.099 959.118 571.099 959.118" />
<glyph unicode="&#x16C;" glyph-name="Ubreve" horiz-adv-x="756" d="M 189 441 L 126 472 L 94.5 536 L 94.5 567 L 126 630 L 189 662 L 220 662 L 284 630 L 315 567 L 315 504 L 284 378 L 252 284 L 220 158 L 220 94.5 L 252 31.5 L 315 0 L 378 0 L 441 31.5 L 472 63 L 536 189 L 630 441 L 693 662 M 630 441 L 598 315 L 567 126 L 567 31.5 L 598 0 L 630 0 L 693 31.5 L 724 63 L 788 158 M418.901 959.118C418.901 959.118 459.845 902 510 902C560.155 902 601.099 959.118 601.099 959.118" />
<glyph unicode="&#x103;" glyph-name="abreve" horiz-adv-x="504" d="M 315 189 L 284 252 L 220 284 L 158 284 L 94.5 252 L 63 220 L 31.5 158 L 31.5 94.5 L 63 31.5 L 126 0 L 189 0 L 252 31.5 L 284 94.5 L 346 284 L 315 126 L 315 31.5 L 346 0 L 378 0 L 441 31.5 L 472 63 L 536 158 M158.901 559.118C158.901 559.118 199.845 502 250 502C300.155 502 341.099 559.118 341.099 559.118" />
<glyph unicode="&#x115;" glyph-name="ebreve" horiz-adv-x="315" d="M 63 63 L 126 94.5 L 158 126 L 189 189 L 189 252 L 158 284 L 126 284 L 63 252 L 31.5 189 L 31.5 94.5 L 63 31.5 L 126 0 L 189 0 L 252 31.5 L 284 63 L 346 158 M98.9008 559.118C98.9008 559.118 139.845 502 190 502C240.155 502 281.099 559.118 281.099 559.118" />
<glyph unicode="&#x11F;" glyph-name="gbreve" horiz-adv-x="472" d="M 315 189 L 284 252 L 220 284 L 158 284 L 94.5 252 L 63 220 L 31.5 158 L 31.5 94.5 L 63 31.5 L 126 0 L 189 0 L 252 31.5 L 284 63 M 346 284 L 284 63 L 158 -284 L 126 -346 L 63 -378 L 31.5 -346 L 31.5 -284 L 63 -189 L 158 -94.5 L 252 -31.5 L 315 0 L 410 63 L 504 158 M148.901 559.118C148.901 559.118 189.845 502 240 502C290.155 502 331.099 559.118 331.099 559.118" />
<glyph unicode="&#x12D;" glyph-name="ibreve" horiz-adv-x="220" d="M 31.5 158 L 94.5 284 L 31.5 94.5 L 31.5 31.5 L 63 0 L 94.5 0 L 158 31.5 L 189 63 L 252 158 M68.9008 559.118C68.9008 559.118 109.845 502 160 502C210.155 502 251.099 559.118 251.099 559.118" />
<glyph unicode="&#x14F;" glyph-name="obreve" horiz-adv-x="441" d="M 220 284 L 158 284 L 94.5 252 L 63 220 L 31.5 158 L 31.5 94.5 L 63 31.5 L 126 0 L 189 0 L 252 31.5 L 284 63 L 315 126 L 315 189 L 284 252 L 220 284 L 189 252 L 189 189 L 220 126 L 284 94.5 L 378 94.5 L 441 126 L 472 158 M138.901 559.118C138.901 559.118 179.845 502 230 502C280.155 502 321.099 559.118 321.099 559.118" />
<glyph unicode="&#x16D;" glyph-name="ubreve" horiz-adv-x="472" d="M 31.5 158 L 94.5 284 L 31.5 94.5 L 31.5 31.5 L 63 0 L 126 0 L 189 31.5 L 252 94.5 L 315 189 M 346 284 L 284 94.5 L 284 31.5 L 315 0 L 346 0 L 410 31.5 L 441 63 L 504 158 M148.901 559.118C148.901 559.118 189.845 502 240 502C290.155 502 331.099 559.118 331.099 559.118" />
<glyph unicode="&#xdf;" glyph-name="germandbls" horiz-adv-x="724" d="M234.139 131.116C234.139 131.116 315.428 52.0793 346 31.5C376.572 10.9207 383.162 6.24682 410 1.42109e-14C436.838 -6.24682 477.327 -6.29661 504 1.42109e-14C530.673 6.29661 567 31.5 567 31.5L598 63L630 126L630 220L598 284L567 315L472 346L567 378L630 410L662 441L693 504L693 567L662 630L598 662L504 662C504 662 436.273 640.981 410 630C383.727 619.019 367.53 613.518 346 598C324.47 582.482 305.431 562.013 284 536C262.569 509.987 235.436 467.645 220 441C204.564 414.355 199.667 404.104 189 378C178.333 351.896 158 284 158 284C78.41 -108.976 170.963 178.712 -16.1153 -174.76C-16.1153 -174.76 77.6553 -41.9152 110.24 31.9877C133.648 85.0789 158.67 199.182 158.67 199.182" />
<glyph unicode="&#xc7;" glyph-name="Ccedilla" horiz-adv-x="630" d="M247.794 -108.005C278.162 -107.856 303.422 -106.349 310.828 -79.2857C319.51 -42.6325 284.484 -49.8591 285.562 1.35646M410 472L410 441L441 410L504 410L567 441L598 504L598 567L567 630L504 662L410 662L315 630L252 567L189 472L158 410L126 284L126 158L158 63L189 31.5L252 -0L315 -0L410 31.5L472 94.5L504 158" />
<glyph unicode="&#x130;" glyph-name="Idotaccent" horiz-adv-x="536" d="M366 801L366 770L398 770L398 801L366 801M472 158L410 220L346 315L315 378L284 472L284 567L315 630L346 662L410 662L441 630L472 567L472 472L441 315L378 158L346 94.5L284 31.5L220 -0L158 -0L94.5 31.5L63 94.5L63 158L94.5 189L158 189L220 158" />
<glyph unicode="&#x131;" glyph-name="dotlessi" horiz-adv-x="220" d="M31.5 158L94.5 284L31.5 94.5L31.5 31.5L63 -0L94.5 -0L158 31.5L189 63L252 158" />
<glyph unicode="&#xa3;" glyph-name="sterling" horiz-adv-x="598" d="M190 205L494 205M441 378C518.885 436.328 536.153 519.181 536 598C527.998 651.038 503.136 677.837 441 662C407.628 633.868 398.822 639.126 378 567C357.178 494.874 335.616 357.078 315 252C315 252 296.625 188.482 284 158C274.93 136.102 252 94.5 252 94.5C216.705 50.691 178.102 21.318 126 -0C78.2572 -5.59381 63.1211 -0.121106 31.5 31.5C31.5 31.5 22.3468 51.7 22.3129 62.6374C22.2791 73.5749 31.5 94.5 31.5 94.5C59.1906 131.892 74.3684 138.533 126 126C177.632 113.467 231.737 61.2335 284 31.5C336.263 1.76651 384.684 -0 441 -0C513.544 12.6743 548.927 44.6357 598 94.5" />
<glyph unicode="&#x2D8;" glyph-name="breve" horiz-adv-x="504" d="M258.901 399.118C258.901 399.118 299.845 342 350 342C400.155 342 441.099 399.118 441.099 399.118" />
<glyph unicode="&#xe7;" glyph-name="ccedilla" horiz-adv-x="346" d="M175.05 0.510792C181.055 -70.8436 197.197 -89.8138 149.289 -87.0079M252 220L252 252L220 284L158 284L94.5 252L63 220L31.5 158L31.5 94.5L63 31.5L126 -0L220 -0L315 63L378 158" />
<glyph unicode="&#xE6;" glyph-name="ae" horiz-adv-x="600" d="M346.223 63L409.223 94.5L441.223 126L472.223 189L472.223 252L441.223 284L409.223 284L346.223 252L314.723 189L314.723 94.5L346.223 31.5L409.223 -0L472.223 -0L535.223 31.5L567.223 63L629.223 158M315 189L284 252L220 284L158 284L94.5 252L63 220L31.5 158L31.5 94.5L63 31.5L126 -0L189 -0L252 31.5L284 94.5L309.713 173.09L309.057 4.1093" />
<glyph unicode="&#xb8;" glyph-name="cedilla" horiz-adv-x="630" d="M221.465 -91.9982C250.348 -101.381 274.806 -107.873 290.326 -84.4976C310.066 -52.4168 274.541 -48.2933 291.628 -0" />
<glyph unicode="&#xC6;" glyph-name="AE" horiz-adv-x="980" d="M828 536L828 504L860 472L923 472L954 504L954 567L923 630L828 662L702 662L608 630L576 567L576 472L608 410L640 378L734 346L640 346L545 315L514 284L482 220L482 126L514 63L545 31.5L640 -0L734 -0L828 31.5L892 94.5L923 158M47.5 -0L110.5 31.5L205 126L300 252L426 472L520 662M520 662L520 334.813M520 -0L488 94.5L426 189L362 252L268 315L205 315L174 284L174 220L205 158L268 94.5L362 31.5L457 -0L614 -0" />
<glyph unicode="&#x15F;" glyph-name="scedilla" horiz-adv-x="346" d="M67.8638 -82.1861C92.6683 -90.2438 113.673 -95.8192 127.002 -75.7446C143.954 -48.1935 113.445 -44.6523 128.119 -3.17794M31.5 158L94.5 252L126 315L126 252L189 158L220 94.5L220 31.5L158 -0M31.5 31.5L94.5 -0L220 -0L284 31.5L315 63L378 158" />
<glyph unicode="&#x15E;" glyph-name="Scedilla" horiz-adv-x="630" d="M271.916 -105.924C304.45 -116.493 332.001 -123.806 349.484 -97.4748C371.719 -61.3377 331.702 -56.6928 350.949 -2.29317M31.5 -0L94.5 31.5L158 94.5L252 220L315 315L378 441L410 536L410 630L378 662L346 662L315 630L284 567L284 504L315 441L378 378L472 315L536 252L567 189L567 126L536 63L504 31.5L410 -0L284 -0L189 31.5L126 94.5L94.5 158L94.5 220" />
</font>
</defs>
</svg>
