<?xml version="1.0" encoding="UTF-8" standalone="no"?>
<!-- Created with Inkscape (http://www.inkscape.org/) -->

<svg
   xmlns:inkstitch="http://inkstitch.org/namespace"
   xmlns:dc="http://purl.org/dc/elements/1.1/"
   xmlns:cc="http://creativecommons.org/ns#"
   xmlns:rdf="http://www.w3.org/1999/02/22-rdf-syntax-ns#"
   xmlns:svg="http://www.w3.org/2000/svg"
   xmlns="http://www.w3.org/2000/svg"
   xmlns:sodipodi="http://sodipodi.sourceforge.net/DTD/sodipodi-0.dtd"
   xmlns:inkscape="http://www.inkscape.org/namespaces/inkscape"
   sodipodi:docname="↓.svg"
   inkscape:version="0.92.5 (0.92.5+68)"
   id="svg25060"
   version="1.1"
   viewBox="0 0 100 100"
   height="100"
   width="100">
  <defs
     id="defs25054">
    <font
       id="font34152"
       horiz-origin-y="250"
       horiz-adv-x="1000"
       horiz-origin-x="0"
       vert-origin-x="45"
       vert-origin-y="90"
       vert-adv-y="90">
      <font-face
         id="font-face34030"
         descent="250"
         ascent="750"
         x-height="500"
         cap-height="700"
         units-per-em="1000"
         font-family="SVGFont" />
      <glyph
         id="glyph34032"
         d=" M526.51557 700.0C519.42577 683.791458 413.34665 545.00692 346.4867 507.525C314.07001 489.29068 323.18717 473.08213 331.29143 456.87359C342.43497 440.66525 436.64579 397.10521 436.64579 397.10521C423.4763 297.82915 410.30741 199.56538 410.30741 121.56271C410.30741 108.39401 415.37282 90.15889 424.48957 83.0683C453.86764 58.75507 519.7143 1.01328 570.36491 0.0M640.26373 686.830508C654.44649 677.713344 673.68955 662.517282 670.65425 646.30954C651.40744 530.82494 613.92495 258.32148 593.66485 21.27338M390.44629 295.00884L679.63955 429.9659"
         unicode="1" />
      <glyph
         id="glyph34034"
         d=" M341.58793 490.23993C351.04901 478.88672 363.34838 463.74887 387.94729 475.10207C420.11476 490.23993 479.71946 505.37777 499.58758 504.43144C517.56374 503.48695 520.40203 496.86213 515.67141 486.45528C470.25841 402.25201 315.09705 265.06664 264.95324 160.04873L264.95324 159.10426C260.22298 151.53514 257.38412 143.96658 257.38412 134.50531C256.43962 108.96062 347.26417 48.40994 355.77907 41.78697C374.7012 25.70353 386.0546 19.08057 426.73717 27.59546L426.73734 27.59452C477.82713 25.70461 473.09671 30.42931 531.75506 28.53902C626.36592 24.75232 701.10829 2.9943 716.24596 5.83262C742.73683 11.5092 748.41362 36.10832 737.06025 64.49115M300.90537 591.47168C292.39046 619.85528 299.01341 626.47748 324.55792 639.72337C388.89326 672.836663 481.61178 691.759157 516.61759 693.651117C576.22228 697.437802 682.18617 632.15406 723.81488 575.38825C730.43783 566.87333 735.16829 522.4061 718.13827 480.77721C685.97079 388.05905 588.52183 311.42435 521.3482 219.65159C516.61721 213.97519 516.61721 206.40643 523.24016 203.56813C550.67718 202.61624 574.32995 201.6784 592.30592 201.6784C642.44957 200.73392 667.04849 192.21716 679.34786 185.5942M303.18419 304.49897L663.3042 332.32695"
         unicode="2" />
      <glyph
         id="glyph34036"
         d=" M275.85734 632.4866C283.45948 585.92639 306.26395 536.51574 313.86572 527.96391C333.82 504.20856 326.21844 494.70629 361.37622 491.85569L361.38122 491.85569C388.93723 494.70276 411.74229 515.61102 483.00795 514.66058C496.31091 514.66058 509.61388 513.71197 521.01634 512.76243C479.20707 422.49282 439.2983 410.13993 394.63864 380.68335C388.40377 376.36708 388.2217 370.5976 390.4256 364.84225M297.7123 662.895663C346.17285 669.545835 420.28927 692.352215 563.77083 699.003884C614.13191 700.901798 635.03663 672.397956 647.38937 665.746265C668.29391 655.294277 706.30229 612.53457 721.50558 592.58029C731.0077 579.27767 712.00352 514.66337 687.29809 488.05739C646.43908 427.24358 615.08219 381.63382 591.32705 361.67954L483.95577 294.21683C473.50363 298.01993 463.05143 290.41372 447.8481 287.56665C443.4909 286.77241 440.95037 287.49205 439.12477 289.09924M488.68832 500.0L690.90124 649.6046 M300.56536 195.3933C327.17128 203.94495 347.12557 187.79173 368.98057 178.28962C426.94321 153.58383 491.55738 171.63924 509.6113 231.50134C518.16331 260.00745 488.98593 305.51883 469.98157 313.12076M275.85995 164.03656C277.76011 147.88262 301.51564 105.12271 331.92225 70.91558C369.93065 28.15644 412.69018 2.50018 486.80642 2.50018C577.07626 2.50018 685.4002 91.82012 695.85257 183.0404C709.15552 296.11567 679.69899 324.62178 590.37921 360.72982L575.70879 369.8975M472.24833 212.29237L633.3612 19.94346"
         unicode="3" />
      <glyph
         id="glyph34038"
         d=" M643.25117 330.67055C659.08768 436.01444 680.91787 552.04149 690.81573 608.61483C693.78506 624.2215 683.88702 628.12336 670.0302 637.87763C649.24486 652.508647 592.82714 676.893932 554.22559 684.696887C554.22559 684.696887 553.23749 684.696887 552.2463 685.670632C538.38927 689.574593 514.63441 704.203511 496.81823 686.64438C409.17542 563.67319 267.32707 426.27449 231.98065 276.9734C231.98065 256.48997 242.22393 224.0073 259.05029 195.72016C263.99968 186.94232 302.82074 189.18938 327.56544 192.11195C429.18015 206.25667 520.41384 210.32025 630.4394 217.4729C683.88758 221.37685 729.41763 223.3253 749.21332 222.35118C760.10139 221.37743 768.01935 231.12979 768.01935 247.71135M478.76624 311.16698C483.71488 354.08494 507.50132 494.17251 513.43998 535.13935C473.84862 479.54072 378.35837 338.32399 371.42966 314.91437C462.43763 338.56648 555.91117 342.55999 649.24486 350.07998C670.0302 351.05374 688.83605 356.96436 703.6829 355.01593L703.68327 355.00793C713.58112 356.95637 723.47876 350.12983 730.40747 342.32746M441.49284 367.50432L283.94476 454.41578 M472.02665 212.2536C462.79547 165.38318 448.92837 97.47142 468.68009 55.22878C492.43495 25.96694 521.56292 29.21772 587.8785 -0.04412M630.43921 217.47175C622.52105 153.09451 614.60289 85.792 610.64351 20.43912M651.27141 158.23761L426.08043 73.85694"
         unicode="4" />
      <glyph
         id="glyph34040"
         d=" M265.58747 170.70477C271.48011 176.6101 282.78381 180.48409 289.49538 182.72209C316.19757 191.30412 341.94608 156.01933 412.51601 172.23155C453.52283 181.76745 492.62223 205.60874 515.50979 232.31092C553.6557 276.17867 486.90039 297.15883 446.84728 300.01975C387.72103 296.20289 337.17774 269.50367 317.15128 291.43774C309.52184 299.06661 307.61462 310.51031 307.61462 322.90788C308.56851 370.59044 317.15128 456.41869 322.87312 506.96217L322.87312 509.81953C323.82702 526.03119 290.44908 545.10431 275.19077 583.25022C269.46891 598.50797 280.91261 620.44222 293.31 624.25702C385.81381 650.005333 484.03946 685.290114 608.96731 691.96585C638.53042 693.870829 670.00058 690.061056 681.44428 682.42919M265.58747 170.70122C261.43271 166.53862 259.96865 161.37214 264.70078 155.06246L273.28317 141.71117C323.82646 70.18809 361.97234 -2.28943 497.39036 -2.28943C607.05971 -2.28943 703.37814 77.81698 727.21923 202.74501C749.1531 315.27546 685.25871 362.00412 590.8477 392.52038C552.7018 407.77889 511.69499 400.15001 480.22464 394.42518C481.17666 434.47884 484.03946 475.48566 495.48296 497.41916L495.48334 497.41971C552.70217 515.53914 613.73546 525.07505 701.47092 525.07505C710.05351 525.07505 733.89496 534.61171 736.75589 543.19448C746.29237 568.9428 703.37833 667.168632 681.44428 682.427137M516.83945 429.71929L297.3953 271.3239M480.54049 226.77539L660.38552 378.57138M432.69161 202.02539L419.49191 -17.4182M558.08838 495.71802L325.44452 659.063554"
         unicode="5" />
      <glyph
         id="glyph34042"
         d=" M421.37771 266.78712C429.01816 281.21404 469.22683 299.25063 493.10177 302.13602C497.87704 301.17585 501.69634 300.21493 506.47162 300.21493C532.25666 297.32597 546.58177 253.08596 537.98663 224.23212C519.84167 163.63845 510.29167 151.13563 482.59669 143.44076L482.59651 143.44076C452.03655 134.78537 421.4766 166.52461 437.71145 260.78083C438.66481 263.66263 439.62137 266.5516 441.53167 269.43699L468.2942 399.87537C478.79946 433.53872 552.31155 519.50533 625.84665 575.28972C647.81166 591.64053 645.90153 596.44926 643.03655 613.76158M445.16198 399.04361C458.53203 413.47054 532.25648 452.17945 570.45651 441.59937L570.45951 441.59737C729.94501 397.35506 718.48469 307.90737 709.88993 235.77218C699.38486 143.43928 600.06473 2.0554 499.78974 3.01612C425.29976 3.97628 325.02476 61.68645 300.19479 92.46364C266.76947 133.82107 268.67995 250.19911 270.5897 266.55012C270.5897 266.55012 270.5897 267.51782 271.54306 268.47119C285.86799 574.32392 490.23804 668.58015 567.59316 687.816554C578.09822 690.705516 585.73814 697.437581 600.06323 686.856392M501.87018 231.60429L735.54043 236.30777M472.6614 171.59126L465.65131 -22.55982"
         unicode="6" />
      <glyph
         id="glyph34044"
         d=" M483.29355 4.25366C442.50137 20.76443 392.96788 66.41312 363.83057 106.23437C357.03165 114.9755 364.80206 128.57258 367.71577 139.2565C411.42184 281.0577 493.00638 425.77299 556.13713 529.69649C495.92009 526.7864 405.59442 511.24291 356.06092 513.18513C320.12487 516.10246 322.06728 523.86849 301.67129 548.14951C293.90126 556.89064 267.67824 596.71189 259.90782 638.47536M511.45977 13.96571C577.50423 221.81195 668.8012 416.06036 734.84568 538.43763C738.73089 546.20804 741.6446 559.80511 738.73089 570.48847L738.73089 574.37577C721.24841 637.50672 682.39865 669.557559 673.65751 685.097614C666.8586 697.723776 604.69934 693.838752 592.073 693.838752C445.41528 693.838752 331.7799 676.356475 282.24641 669.557559M516.08622 510.21972L731.15459 663.500107"
         unicode="7" />
      <glyph
         id="glyph34046"
         d=" M614.53786 349.18923C671.13641 394.6537 725.55533 461.61118 733.9059 513.57078C737.6175 534.9116 738.54505 560.89121 726.48287 579.44779C698.64745 621.20064 633.69815 648.10852 563.18179 673.160229C542.76905 680.583442 529.77916 682.438883 509.36658 682.438883C413.79834 674.088858 287.61116 617.48976 280.1885 465.32278C278.33288 425.42556 303.25746 403.25817 370.06255 362.43285L374.8292 358.62299L424.16564 330.8744C425.0919 329.94813 488.02631 284.39813 488.95439 284.39813C495.44952 281.61115 542.7696 242.64454 543.69749 224.08798C545.55294 191.61323 518.6456 190.68587 483.38734 186.97426C463.90268 185.12082 426.7888 195.32411 426.7888 214.80949L426.7888 214.80649C426.7888 230.58029 458.71685 273.64771 493.97494 292.20483M486.92022 426.07821C511.97212 442.77935 536.27465 471.82054 536.27465 488.5217L536.27482 488.5187C536.27482 503.3644 523.28493 508.93145 503.80027 507.076C468.54236 503.36239 456.48037 484.80782 458.33582 460.68345C460.19124 442.12689 490.81018 438.41527 497.30533 435.63174C497.30533 434.70548 521.31181 421.06066 522.23716 421.06066L622.56441 358.62263C707.92629 320.5814 755.2469 283.46696 751.5353 232.43546L751.53548 232.43546C739.47349 80.26847 594.72936 6.96553 495.4497 4.18545C475.03712 4.18545 462.04724 6.03888 441.63468 13.46338C371.11831 38.51581 287.61208 76.55705 259.77666 118.31045C247.71375 136.86775 248.64183 162.84683 252.35345 184.18765C262.55963 247.28116 314.97382 320.40775 388.27369 368.65647M558.35795 422.10829L421.57482 311.43263M486.27712 213.24396L494.22302 -33.07934M496.49311 485.67546L497.62824 716.107093M473.79031 469.78361L250.16963 456.16187M503.3039 473.18901L748.49224 490.21634M530.54705 224.59491L782.54618 248.43303M445.4122 222.32483L217.25065 209.83857"
         unicode="8" />
      <glyph
         id="glyph34048"
         d=" M557.92418 395.52195C550.42645 381.46427 514.15184 370.47056 491.65938 367.65901C486.03631 367.65901 480.41307 368.5946 474.79 369.53111C449.48618 372.33916 431.67973 419.20187 440.11433 447.31722C457.92079 506.36017 466.3554 524.16663 493.53368 529.78969L493.53387 529.79043C531.95847 538.2243 567.57155 502.61177 547.89063 401.39597L544.14168 393.89805L511.31811 284.8877C501.94627 255.83494 453.23513 162.41369 391.38101 102.43421C372.63732 83.69017 371.70008 81.81605 374.51162 64.94685M521.04694 261.37618C504.17756 257.62521 429.80545 246.76027 412.93623 250.50923L412.93623 250.51023C253.61508 279.56347 247.99128 384.52749 255.48919 454.81641C265.79827 554.15828 387.63224 681.612565 486.0365 680.677894C559.13676 679.742305 679.09644 622.57235 703.4632 592.5829C736.26492 552.28417 740.01315 440.75892 738.13903 424.82714C733.45339 226.14358 553.51371 58.38781 471.04159 8.71688C461.66975 3.09381 453.23513 -0.65643 439.17729 9.65247M463.59761 447.28218L235.78075 448.90386M505.75596 506.46584L538.18546 720.50002M520.34929 451.33547L763.57015 418.90614"
         unicode="9" />
      <glyph
         id="glyph34050"
         d=" M584.82616 678.588583C550.58642 687.276344 513.19185 692.961709 480.79993 692.961709C372.51165 692.961709 273.63974 485.80116 273.63974 278.64079C273.63974 127.97891 310.36338 73.36419 348.9706 47.9394C386.63613 22.51533 469.50034 2.74106 535.415 3.68294C634.2869 5.56393 735.9837 215.5514 749.16666 429.3027C758.58305 579.02345 710.55963 619.51368 671.95242 644.93775C652.31768 657.3897 620.2614 669.596877 584.82616 678.588583M547.6561 524.40857C533.53162 526.28956 525.99825 492.39283 524.11524 485.80116C489.27461 366.21311 480.80029 325.72288 470.44185 249.44996C463.85018 201.42692 466.67507 168.46931 475.14977 168.46931C486.44953 168.46931 496.80761 203.30995 502.4574 220.25932C510.93208 244.74206 520.34847 291.82413 549.5393 448.13582C554.24794 473.55989 554.24794 523.46944 547.65627 524.40857ZM480.48749 212.91451L432.10337 -32.46249M504.67956 333.87502L744.29618 273.97048M495.46354 331.57045L245.4789 383.41058"
         unicode="0" />
      <glyph
         id="glyph34052"
         d=" M574.16212 223.72511C618.02496 233.77733 660.83246 279.73458 660.83246 339.13151C659.00709 469.8044 461.62357 461.58024 493.60685 550.21924C496.35163 557.52989 493.60685 591.33982 527.41748 589.51246C542.03843 588.60022 557.57324 575.80555 558.48655 543.82245C549.34854 516.40862 554.82917 506.3564 559.39879 503.61502M512.93731 260.27713C520.24546 267.58724 542.95192 308.06226 535.6411 342.78621C528.33097 376.59684 511.88269 397.61387 496.34788 407.66607L399.48347 443.3046C383.94922 459.7529 335.51638 484.42533 340.08655 558.44322C343.74393 616.92629 409.53569 689.116277 501.82921 692.771515C562.14036 695.509678 585.89876 680.892665 624.27866 661.702448C640.72696 654.392333 690.98517 630.6332 690.07257 604.13341C690.07257 593.16788 682.76174 573.06416 677.27898 557.52935C667.22748 531.94288 645.2957 488.08076 614.22662 480.76993M508.89679 547.97138L311.02048 572.566 M411.78124 456.71959C375.22924 439.3578 345.56968 367.45937 344.65635 354.66578C341.91836 328.16598 351.05173 281.56194 384.86361 255.06142C390.34637 250.49125 395.82914 247.7506 401.31191 245.92395C447.00209 221.2508 512.79511 189.26823 502.7436 139.9228L502.7446 139.9228C500.91921 132.61197 491.77907 117.99174 467.10661 119.81908C452.48568 120.73134 428.72671 131.69864 427.81268 163.68193C430.55067 192.00961 412.27841 198.40588 407.7097 201.14708C390.34735 213.94067 381.20918 212.11333 370.24365 213.02664C359.76893 213.6348 351.83009 208.01037 345.5077 199.29416M508.6452 421.08162C501.33509 413.77149 468.93397 375.68353 474.41674 329.99332C479.8995 287.0447 509.1414 284.30403 524.67566 274.25181L585.89994 237.69981C605.09033 220.33747 651.69652 198.40588 648.03914 119.81908C645.29436 61.3362 599.60756 -1.71705 507.31333 2.85312C447.00291 5.5979 399.48482 19.30141 361.10546 38.4911C344.65716 45.80193 309.01991 65.90493 309.93269 92.40525M478.71234 144.3928L645.28613 49.36736"
         unicode="§" />
      <glyph
         id="glyph34054"
         d=" M474.0922 692.77671C505.44426 692.77671 576.44781 678.944942 599.501 669.724244C614.25512 664.191538 641.91848 647.59287 636.38577 614.39663C617.94366 508.3523 570.91511 355.27997 549.70664 284.2764M440.89595 674.334593C421.53076 621.77334 404.011 493.59818 415.07642 339.60347C415.99697 327.61643 421.53003 299.95217 427.98583 290.73075C439.05124 274.1328 451.96137 255.6907 513.74333 255.6907M359.6035 407.54249L640.3965 535.17524 M399.39994 213.27303C393.86723 188.37513 387.41215 143.19129 387.41215 109.0727C387.41215 97.08493 390.17527 86.94187 396.63358 78.64281C418.76441 50.97927 461.18279 5.79472 522.96474 5.79472M421.53076 230.79279C452.88301 230.79279 507.28826 220.64973 539.56286 199.44054C552.47299 191.14148 566.30133 169.01066 563.5384 153.33489C555.23934 103.53999 553.39463 56.51198 544.17321 25.15974M587.74789 196.94711L381.93956 48.57393"
         unicode="!" />
      <glyph
         id="glyph34056"
         d=" M585.91957 432.34332C594.3043 423.96124 598.49268 415.57835 595.3493 406.14821C593.25398 388.336 582.85946 339.33875 577.61993 307.90492M479.04399 467.96838C460.1835 467.96838 449.70549 457.49038 448.65763 445.96471C444.46619 419.76979 430.92827 347.72082 424.6415 293.23547M400.50539 387.92126L612.60959 370.69975 M412.26734 192.63027L408.84194 107.52575C406.74664 81.33064 416.17676 53.04022 425.60671 48.84877M560.00769 202.06039C552.67286 151.7663 549.24725 80.28257 549.24725 53.04022C548.19919 45.70703 535.62566 31.03818 517.81324 32.0846M378.75115 120.52548L576.35241 120.52548 M717.94259 216.49664C717.94259 198.68444 706.41715 188.20314 694.89106 187.15815C668.69596 184.01868 617.35379 180.8714 561.82037 176.68076L414.08023 167.24982L355.40345 162.00966C329.20853 158.87019 312.44377 174.58402 308.25232 184.01416M699.08211 321.2761C691.74749 329.65899 683.36521 334.89769 672.8872 332.80237L672.88658 332.80156C654.0261 333.84758 622.59207 331.75552 584.87129 329.66207L431.89287 314.99322C378.45516 310.79952 330.25618 306.60971 304.06127 307.66003C296.72644 307.66003 282.05741 296.13376 282.05741 278.32155M487.52246 348.94958L486.61593 139.56483"
         unicode="+" />
      <glyph
         id="glyph34058"
         d=" M427.00534 672.907006C415.43086 653.375396 408.92033 604.18432 408.92033 591.88627C408.92033 582.48211 403.13281 568.73803 406.74746 561.50391C421.21569 531.84444 434.96034 522.44014 450.87503 515.92961M444.36719 688.098106C464.6218 685.202786 468.96273 688.820276 487.04717 681.588136C498.62008 677.247786 502.96044 671.460266 498.98131 642.52451C494.99948 613.58805 477.64075 552.09962 467.51287 531.12085M382.16155 576.7021L510.44972 643.03612 M534.06807 672.907006C522.49417 653.375396 515.98363 604.18432 515.98363 591.88627C515.98363 582.48211 510.19611 568.73803 513.816 561.50391C528.28367 531.84444 542.02832 522.44014 557.94315 515.92961M551.42992 688.098106C571.68511 685.202786 576.02546 688.820276 594.11047 681.588136C605.68282 677.247786 610.02303 671.460266 606.04673 642.52451C602.07029 613.58805 584.70887 552.09962 574.58156 531.12085M501.06256 592.97277L618.08622 643.66171"
         unicode="&quot;" />
      <glyph
         id="glyph34060"
         d=" M620.15629 456.87852C625.22775 461.95134 620.78928 471.46226 617.61852 478.43677C607.47287 503.16554 556.74776 566.57221 538.99438 590.66637C530.11719 599.54356 519.33831 607.78603 506.02265 607.78603C494.60992 607.78603 480.66003 600.81102 473.68602 590.66637C455.93164 566.57221 392.52497 503.16554 382.38032 478.43677C379.2139 471.46226 374.77158 461.95134 379.84254 456.87852M620.15629 456.87852C593.52584 429.61372 594.15994 420.73703 577.04041 414.39625C568.79745 411.22524 564.3555 413.12978 558.65181 420.73703C542.8006 442.29528 521.87658 473.99867 502.85437 496.82476C484.46676 473.99867 462.90851 442.29528 452.44488 427.71203C441.98126 413.12829 437.54266 411.22561 429.30019 414.39625C412.18004 420.73703 406.47399 429.61372 379.84254 456.87852M504.35963 468.71051L505.13411 636.26529"
         unicode="^" />
      <glyph
         id="glyph34062"
         d=" M567.59337 417.247C591.0678 408.4477 592.5269 402.5809 586.65961 379.11519C580.79215 355.64931 571.62602 300.22529 562.81556 279.69257M481.06216 428.98043C457.59776 428.98043 450.26497 412.84736 450.26497 399.64857C450.26497 379.11585 453.8227 342.43624 454.67333 317.51883L455.75919 285.56363M427.61061 382.04457L608.31484 369.72434 M668.78854 313.11868C665.79591 322.71011 660.10293 329.36101 653.51725 333.37198C643.99104 339.17109 632.59453 339.45052 624.79059 335.11659C610.11974 330.71464 583.72464 320.45066 561.72658 310.18438L482.98765 296.45352C466.85457 315.51892 422.40651 357.12025 406.27589 367.38669C385.7425 379.12012 376.94272 373.25398 363.74263 358.58674M681.98124 235.38742C680.51589 214.8552 670.24896 208.98856 651.92213 208.25703C633.59547 207.52437 608.66375 207.52437 585.19804 207.52437C528.71345 184.0133 470.2178 147.66539 425.78846 201.12318C405.25688 205.52529 356.40309 228.05725 343.21171 233.92388C334.12691 234.93583 322.96532 242.19224 319.2604 254.26852C317.60268 259.73859 317.45992 266.20385 319.75652 273.52219M514.40762 321.73415L527.11274 163.8277 M418.16522 246.86328C396.16715 233.66433 350.5432 191.39507 335.87661 178.19497C321.20626 162.06189 324.14679 151.79611 334.41127 135.66369M504.69758 185.26509L438.54024 94.59823C434.13813 81.39946 415.07568 68.20051 394.54229 81.39946M341.3664 215.71518L468.6805 96.61489 M473.11612 184.17594C478.98358 160.71023 497.19787 107.79766 508.93821 90.19859C522.13074 72.59902 536.80357 66.73288 555.8698 74.06551M574.30767 232.57354C584.57396 219.3741 605.72008 178.19497 614.53055 170.86102C626.25659 163.52839 636.53158 138.59618 618.93267 120.99644M484.0809 97.64178L620.12218 190.56054"
         unicode="*" />
      <glyph
         id="glyph34064"
         d=" M287.30143 294.45667C283.67084 289.42838 281.02843 282.86892 281.02843 275.17869C281.02843 252.41441 301.62432 217.72543 320.0529 186.28933C325.46865 176.53321 341.7333 160.27323 368.83328 163.52506C426.28612 170.02913 631.16672 187.37299 698.37568 184.12095C705.45479 183.48013 711.38723 187.04006 715.03967 193.8915M287.30143 294.45667C292.37152 301.4821 299.36979 305.53134 303.79207 305.53134C379.67348 304.44917 595.39301 330.464 634.41812 329.3797C673.44323 328.29753 682.11378 322.87583 689.70301 314.2038C698.37568 304.44789 718.97157 243.74259 718.97157 212.30565C718.97157 204.81509 717.53928 198.58219 715.03946 193.8915M511.95569 369.09549L478.19631 130.90451"
         unicode="-" />
      <glyph
         id="glyph34066"
         d=" M451.99553 200.67311C448.82834 198.29754 447.30988 194.80321 446.49542 191.54492C442.24863 173.86308 438.00767 149.10854 438.00767 125.06131C438.00767 116.57411 440.13099 109.50127 444.37763 103.84332C459.93725 84.03969 483.27704 78.38119 526.42087 78.38119C530.3196 78.38119 533.0122 79.15094 535.0166 80.5999M451.99553 200.67519C454.32818 202.42803 457.55573 203.56881 462.05504 203.56881C483.98075 203.56881 515.80745 202.86274 538.44061 188.00877C546.92752 182.35083 556.83114 166.79079 552.9421 143.80473C549.05334 120.81826 547.64286 113.74542 541.2729 91.81999C539.55827 86.67636 538.10308 82.82885 535.0166 80.59824M430.61737 102.19819L554.13563 186.13022 M465.84011 418.72311C462.67278 416.34755 461.15432 412.85321 460.33985 409.59492C456.09307 391.91309 451.8521 367.15854 451.8521 343.11131C451.8521 334.62412 453.97556 327.55127 458.22207 321.89333C473.78169 302.08969 497.12161 296.43175 540.2653 296.43175C544.16403 296.43175 546.85664 297.2015 548.86117 298.65032M465.84011 418.72519C468.17276 420.47291 471.40017 421.61881 475.89947 421.61881C497.82518 421.61881 529.65188 420.91275 552.28504 406.05933C560.77196 400.40083 570.67558 384.84079 566.78667 361.85474C562.89777 338.86827 561.4873 331.79542 555.11747 309.87054C553.4027 304.72692 551.94751 300.87886 548.86117 298.64824M444.46181 320.24819L567.9802 404.18022"
         unicode=":" />
      <glyph
         id="glyph34068"
         d=" M463.94292 145.25243C461.16314 143.16744 459.83042 140.10102 459.11558 137.2408C455.38826 121.72193 451.66605 99.99572 451.66605 78.88995C451.66605 71.44042 453.52977 65.23321 457.25684 60.26686C470.91321 42.88572 491.39807 37.91986 529.26456 37.91986C532.68639 37.91986 535.04964 38.59545 536.80898 39.86705M463.94292 145.25474C465.99036 146.78868 468.823 147.79442 472.77195 147.79442C492.01571 147.79442 519.94937 147.17472 539.81404 134.13768C547.26284 129.17182 555.95505 115.51508 552.54183 95.34031C549.12862 75.16591 547.89068 68.95822 542.30001 49.7147C540.79499 45.20024 539.5178 41.82348 536.80898 39.8656M445.17973 58.82344L553.58937 132.48855"
         unicode="." />
      <glyph
         id="glyph34070"
         d=" M472.0559 420.96497C469.40561 418.97711 468.13496 416.05306 467.45341 413.32607C463.89972 398.53042 460.3509 377.81578 460.3509 357.69323C460.3509 350.59118 462.12768 344.67264 465.68126 339.9381C478.70152 323.36648 498.23217 318.63146 534.33481 318.63146C537.59725 318.63146 539.85041 319.27557 541.52768 320.48795M472.0559 420.96671C474.00786 422.42908 476.70866 423.38809 480.47367 423.38809C498.82103 423.38809 525.45352 422.79726 544.39287 410.36749C551.49471 405.63294 559.78202 392.61236 556.52769 373.37722C553.27359 354.14256 552.09331 348.22402 546.76295 329.87701C545.32814 325.57283 544.11044 322.35325 541.52768 320.48667M454.16672 338.56145L557.52642 408.79553 M453.90524 239.56221C455.89009 241.26555 458.73606 242.41269 462.85765 242.41269C481.2049 242.41269 507.83752 241.82186 526.77687 229.3921C533.8787 224.65755 542.1659 211.63695 540.38912 202.75948C535.65479 173.16728 530.11613 156.24103 524.79247 137.89391M453.90524 239.56047C451.61523 237.5945 450.47157 234.88813 449.83752 232.35159C446.28394 217.55549 442.73569 196.84096 442.73569 176.7183C442.73569 169.61625 444.51249 163.69772 448.05946 158.96316C454.56988 150.67712 468.31106 138.87121 480.14802 135.9117 M529.14438 148.90334C521.33946 129.04957 512.60983 108.60868 501.92002 89.71948C493.63467 76.10736 484.16475 73.73985 469.96099 79.65839M475.28394 141.80128C469.96018 126.41376 463.44698 111.02566 460.1923 99.48504C456.93772 87.94396 460.49003 83.20942 469.96099 79.65839"
         unicode=";" />
      <glyph
         id="glyph34072"
         d=" M471.36858 142.79525C472.87247 144.08575 475.02881 144.95501 478.15166 144.95501C492.05305 144.95501 512.23209 144.50734 526.5821 135.08954C531.96303 131.50225 538.24218 121.63678 536.89585 114.91041C533.30874 92.48892 529.11229 79.66421 525.07857 65.76291M471.36858 142.79525C469.63349 141.30567 468.76695 139.2551 468.28654 137.33321C465.59406 126.12247 462.90562 110.42736 462.90562 95.18087C462.90562 89.79977 464.25195 85.3154 466.93934 81.72812C471.87225 75.44993 482.28369 66.50481 491.25225 64.26245 M528.37592 74.10466C522.46227 59.06182 515.84808 43.57403 507.74851 29.26203C501.47085 18.94845 494.29567 17.15464 483.53373 21.63892M487.56684 68.72356C483.53312 57.06462 478.59827 45.40533 476.13217 36.66122C473.66624 27.91675 476.35776 24.32947 483.53373 21.63892"
         unicode="," />
      <glyph
         id="glyph34074"
         d=" M542.77806 -26.49961C540.24514 -28.59435 536.58384 -29.64179 531.72461 -29.64179C486.16922 -29.64179 452.52786 13.81089 436.40816 34.13586C432.19989 41.14456 429.39725 48.15328 429.39725 56.5635C429.39725 170.80313 465.84151 477.07796 476.35471 516.32539C477.61548 520.10536 479.62915 524.13626 483.45397 526.7604M542.77806 -26.49756C545.72474 -24.06055 547.14383 -20.20073 547.14383 -14.9239C547.14383 144.17035 577.28068 415.40218 591.29783 492.49636L591.29583 492.49636C593.39998 503.71004 587.08765 508.61619 576.57759 512.82132C559.05582 519.129 516.30402 529.64179 493.87623 529.64179C489.38178 529.64179 486.01297 528.51683 483.45426 526.75889M404.47551 279.13633L591.39551 258.55825"
         unicode="|" />
      <glyph
         id="glyph34076"
         d=" M655.0571 109.65665C655.0571 117.31149 653.52233 124.96632 646.63675 128.79344C613.72163 147.16456 531.05157 193.85848 475.93731 231.36639L463.12466 242.39523L345.25509 239.08235M655.0571 109.6544C654.29143 100.46884 618.31425 66.78865 599.94373 50.71346C589.99266 42.29297 578.5086 40.76224 572.38615 46.12069C505.02546 102.76523 407.81097 172.42306 375.66165 196.91828C359.58646 207.63457 335.8533 223.7093 337.38823 231.36413M529.3436 219.87874L478.35507 92.73819 M662.71433 392.88027C662.71433 385.22544 659.65318 379.10192 654.29398 373.74348L654.29098 373.74348C618.31424 340.8285 531.81648 275.76346 475.9373 231.36639L463.78692 219.88099L345.91734 219.21872M662.71433 392.87996C661.95166 402.06552 638.2197 433.44993 619.84827 449.52466C609.89736 457.94516 598.4148 458.71022 592.29159 454.11745C524.93002 402.83119 410.87557 304.08536 378.72535 277.29449C368.00936 267.34326 353.46491 253.56493 345.04531 243.6137C341.22103 239.78539 338.15988 235.95887 337.38823 231.36608M471.07093 396.02308L522.0596 243.71963"
         unicode="&lt;" />
      <glyph
         id="glyph34078"
         d=" M344.41845 390.81772C344.41845 383.13758 345.95841 375.45687 352.86743 371.61621C385.89372 353.18312 468.84334 306.33172 524.14414 268.69697L537.00012 257.63084L655.26832 260.95492M344.41845 390.81997C345.1867 400.03659 381.28554 433.83129 399.71836 449.96037C409.70293 458.40935 421.22596 459.94526 427.36898 454.56869C494.95762 397.73243 592.50089 327.83965 624.75906 303.26158C640.88846 292.50905 664.70188 276.3795 663.16177 268.69923M470.55725 280.22347L521.71821 407.79354 M336.73532 106.63689C336.73532 114.317 339.80653 120.46182 345.18415 125.8384L345.18615 125.8384C381.28531 158.86468 468.07575 224.1499 524.14389 268.69697L536.33535 280.22122L654.60356 280.88573M336.73525 106.63718C337.502 97.42056 361.31272 65.93002 379.74628 49.80094C389.731 41.35196 401.25223 40.5837 407.39614 45.19262C474.98567 96.65231 589.42599 195.73148 621.68478 222.6137C632.43701 232.59842 647.03065 246.42337 655.47872 256.40824C659.31593 260.24951 662.38743 264.08837 663.16171 268.69668M529.02699 103.48345L477.86587 256.30196"
         unicode="&gt;" />
      <glyph
         id="glyph34080"
         d=" M328.61747 53.44327C349.33975 27.88629 369.37058 11.99926 398.38141 0.25713C407.36101 -3.19726 413.57699 -1.81248 418.41224 7.16455C498.53705 154.98059 619.41496 329.04411 670.5284 422.98322L670.5284 422.98222M331.38204 76.92795C378.35112 189.51663 553.79632 463.04529 586.95163 494.8188C591.7858 498.96314 597.3125 504.48727 607.67378 499.65297C629.08547 489.983 652.57069 466.49833 665.69409 449.92094M410.7935 342.05556L592.44399 218.96351"
         unicode="/" />
      <glyph
         id="glyph34082"
         d=" M339.12023 446.00569C351.98662 462.25841 375.01201 485.28327 396.00528 494.76384C406.16323 499.50333 411.58154 494.08778 416.32117 490.02421C448.82754 458.8726 620.83555 190.70144 666.8858 80.31743M334.38075 419.59449L334.37675 419.59502C384.4895 327.49572 503.00001 156.84139 581.55503 11.92036C586.29453 3.11662 592.39035 1.76241 601.19408 5.14822C629.63581 16.66078 649.27526 32.23612 669.59116 57.29257M566.98729 364.85836L434.58944 210.19878"
         unicode="\" />
      <glyph
         id="glyph34084"
         d=" M513.55613 241.37948C492.55974 250.45914 468.77558 275.44017 466.50434 291.89663C464.23298 308.35352 472.74667 317.43307 471.609 338.42958C471.0425 351.48122 473.30929 407.09336 455.72017 411.63342C449.4777 413.3337 436.99369 405.95779 430.75122 412.19993L429.62188 413.33339C429.05982 412.76688 429.05982 412.19993 426.78812 415.60474M602.86418 263.35382C599.54758 272.37005 595.65834 280.20905 594.76115 286.78742C593.05664 298.13664 585.68194 300.40667 581.14189 300.97428C564.68499 303.81227 559.57821 324.2407 557.3082 333.88752C553.33666 352.61401 557.3082 382.69016 552.76948 401.41697C552.20297 409.929 547.09253 436.5999 543.12298 442.27475C530.07057 461.00122 518.15372 487.10528 481.26793 495.04969C481.26793 495.04969 480.70142 495.04969 480.13026 494.48319C450.05454 497.32116 431.89491 495.04969 417.14097 488.80879C412.0363 486.53744 403.52127 480.29676 403.52127 475.75671M457.33693 323.78539L570.24564 393.49422 M401.25924 97.25482C412.60847 96.12125 412.04086 88.17395 419.41798 87.04038L421.10573 87.03994C421.10573 87.03994 421.10573 87.60644 420.53922 87.60644C437.56331 83.6349 443.80831 99.52329 448.91298 111.44014C455.72383 128.46454 454.5857 178.96959 460.26265 196.56128C468.20708 220.96248 483.4141 253.70078 510.08533 268.45526M392.18093 82.50056C391.05157 58.66642 404.66561 25.18556 416.58245 17.80831C423.39198 13.26826 433.60598 7.02624 452.33335 4.75667C470.4922 2.48542 481.84144 9.29672 493.191 14.40349C493.75751 14.97 493.75751 14.97 494.32034 14.97L494.88685 14.97L498.85839 16.6703C506.80327 20.07511 524.96212 42.77402 534.60929 71.71483C539.1481 85.33453 543.12177 122.7875 545.95851 169.32044C556.74058 207.34101 563.55065 216.98816 588.51958 219.25775C594.19608 219.82425 607.24595 224.36497 607.81312 236.28226C608.35075 246.215 605.84001 255.25889 602.86418 263.35371M432.79165 181.42201L566.3182 121.53096"
         unicode="}" />
      <glyph
         id="glyph34086"
         d=" M376.3271 84.3881C375.23257 61.46067 398.70828 22.70222 410.17199 15.60549C416.723 11.23808 436.37509 7.41713 454.38971 6.32506C468.58263 5.23459 483.32158 5.23459 497.51493 4.68941C513.34553 3.59895 533.54353 4.14445 546.64513 4.14445C555.37911 4.14445 575.03108 19.97558 578.30685 30.34722C588.67871 63.64705 609.96837 336.59419 609.96837 428.85025C609.96837 435.94698 609.4234 442.49767 604.50739 446.86509C585.94716 463.24181 552.64819 483.98585 517.16488 491.62819C514.98405 492.17316 513.34435 492.17316 511.70422 491.62819C482.22588 493.81308 441.83029 495.44872 418.90266 495.9956M386.69875 93.12272C416.723 89.84736 446.20092 88.75401 476.22539 87.66366C486.0509 173.91506 503.74046 327.77825 509.41794 377.75892C515.76346 425.73647 482.22588 415.75003 474.03805 416.29532C456.02332 417.38568 448.92703 416.84028 442.3759 421.20791C430.91273 428.30464 405.26057 463.78774 406.34698 486.71559M626.31806 228.86966L470.47911 250.59282"
         unicode="]" />
      <glyph
         id="glyph34088"
         d=" M625.09189 417.51211C626.19898 440.7026 602.45381 479.90575 590.85867 487.08391C584.2325 491.50143 564.35504 495.36622 546.13362 496.47082C531.77785 497.57369 516.86979 497.57369 502.51348 498.12523C486.50136 499.2281 466.07161 498.67645 452.81968 498.67645C443.98539 498.67645 424.10804 482.66368 420.79468 472.17303C410.30371 438.49114 388.7699 162.41229 388.7699 69.09771C388.7699 61.91955 389.32112 55.2937 394.29343 50.87618C413.06683 34.31154 446.74775 13.32949 482.63819 5.59947C484.84403 5.04825 486.50255 5.04825 488.1615 5.59947C517.97806 3.38941 558.83703 1.735 582.02784 1.18194M614.60125 408.67728C584.2325 411.99021 554.41626 413.09599 524.0474 414.19897C514.10916 326.95794 496.21663 171.32937 490.47402 120.77524C484.05568 72.24721 517.97806 82.34812 526.25984 81.79669C544.48126 80.69371 551.65898 81.24547 558.28516 76.82773C569.87986 69.64957 595.82634 33.75924 594.72747 10.56843M372.23261 271.3727L529.85951 249.40041"
         unicode="[" />
      <glyph
         id="glyph34090"
         d=" M486.4585 258.61125C507.43235 249.54139 531.19063 224.5873 533.45943 208.14859C535.72822 191.70946 527.22382 182.6396 528.36038 161.66586C528.92627 148.6283 526.66192 93.07603 544.23197 88.54088C550.46757 86.84242 562.93802 94.21049 569.17374 87.97499L570.30187 86.84276C570.86444 87.40864 570.86444 87.97499 573.13267 84.57385M397.24702 236.66051C400.56005 227.65401 404.44521 219.82335 405.34132 213.2522C407.04399 201.91521 414.41084 199.64763 418.94588 199.08062C435.38502 196.2456 440.48629 175.83921 442.75398 166.20278C446.72124 147.49662 442.75398 117.45291 447.28779 98.74619C447.85369 90.24345 452.95862 63.60133 456.92388 57.93261C469.9621 39.22634 481.8661 13.15044 518.71176 5.2146C518.71176 5.2146 519.27765 5.2146 519.84831 5.78048C549.89135 2.94546 568.0314 5.2146 582.76932 11.44876C587.86858 13.71756 596.37432 19.95161 596.37432 24.48665M542.61694 176.29403L429.83038 106.66052 M598.6338 402.58042C587.29692 403.71276 587.86392 411.6515 580.49464 412.78384L578.80882 412.78428C578.80882 412.78428 578.80882 412.21838 579.37472 412.21838C562.36912 416.18576 556.13085 400.31439 551.03181 388.41051C544.22831 371.40436 545.3652 320.95381 539.69448 303.38121C531.75864 279.00622 516.56812 246.30325 489.92567 231.56479M607.70255 417.31888C608.83067 441.12731 595.23133 474.57205 583.32734 481.94133C576.52505 486.47649 566.32218 492.71176 547.61524 494.9789C529.47608 497.24769 518.13909 490.44374 506.80177 485.34247C506.23587 484.77659 506.23587 484.77659 505.67364 484.77659L505.10775 484.77659L501.14049 483.07812C493.20419 479.67697 475.06504 457.00267 465.42817 428.09297C460.89447 414.48796 456.9251 377.07552 454.0914 330.59267C443.32098 292.61323 436.51814 282.97636 411.57625 280.70923C405.90588 280.14334 392.86998 275.60752 392.30364 263.70308C391.76548 253.78106 394.27429 244.74693 397.24702 236.66095M567.13563 318.50415L433.75369 378.3307"
         unicode="{" />
      <glyph
         id="glyph34092"
         d=" M419.37244 331.52347L323.24957 322.68525C318.36593 321.98887 305.81016 315.70948 309.99537 303.85116M407.51372 256.88597L365.10337 251.53385C347.66394 249.44376 337.89708 262.69593 332.31789 267.57793M357.64683 354.43709L365.32744 237.09458 M406.12247 226.19303C383.10289 223.4011 348.36605 219.44747 336.50733 218.05199C331.62369 217.35561 318.37085 211.07676 322.55607 199.21804M409.61062 150.85368C401.93725 150.15731 381.15482 146.20394 376.96632 146.20394C359.52691 144.11386 351.85271 153.87786 346.27338 158.76001M365.32744 231.12104L380.68865 135.96655 M663.6643 49.9373C663.6643 62.49335 664.36068 73.65447 654.596 100.85926C646.92262 123.18137 630.87868 120.39096 615.53262 114.11293C604.37178 109.23092 575.77137 102.25461 554.84461 109.23092C536.70799 114.81176 530.43023 128.76275 528.33687 159.4557L526.24215 236.18478C526.24215 245.95097 526.24215 255.71661 526.93853 264.78506L540.88966 335.9385C550.65584 363.84102 561.81655 377.79242 568.79232 381.97777C579.95317 383.37121 607.15864 373.60667 629.48034 363.84102C639.24639 356.86525 659.47554 360.35232 667.14891 371.5144C672.72824 379.8851 685.98314 416.15833 690.86541 438.48057M645.52837 15.059C623.20668 10.177 590.42106 -0.28788 552.05473 -0.98453C452.30321 -2.37796 406.96208 57.61027 395.10335 148.29348L391.61533 223.63283C391.61533 227.81818 391.61533 232.00407 392.31034 236.18942C392.31034 242.46745 393.00671 248.04774 393.00671 254.32577L404.86544 328.96327C434.16277 446.85128 506.70951 494.2829 579.95317 492.19282C634.36343 490.79939 652.4999 482.42718 679.00764 469.17339M372.15546 240.93475L539.42208 252.88277M576.11833 362.97137L530.88806 514.02323M552.22309 127.43281L480.5374 -13.37864 M634.36698 187.35918C642.73741 165.03435 628.08909 162.24761 620.41558 162.94426C602.97615 163.64064 556.73342 161.39612 517.66936 158.60407M610.64966 230.61009C605.76602 236.19093 600.18655 239.67854 593.21092 238.2836L593.20792 238.2816C579.95371 238.97798 544.87196 237.42957 515.57381 235.33485M564.59577 252.88227L568.43594 148.76734 M632.27007 292.68799C637.15317 282.22461 625.99217 267.57697 618.31881 268.27362C601.57713 268.96999 556.03145 266.72548 516.27019 263.93343M612.73797 328.96382C607.85433 334.54452 602.27486 338.03172 595.29923 336.63719C584.1377 337.33357 553.93877 335.78516 530.22146 335.08905M573.13061 350.17022L575.26396 259.28314"
         unicode="€" />
      <glyph
         id="glyph34094"
         d=" M559.82669 411.84239C561.81157 425.73844 566.94414 456.41313 568.92901 469.81276C569.91853 477.75331 566.94414 480.2347 559.00329 484.70114M491.83551 416.80496C493.82077 433.18268 503.41901 482.21986 506.8935 493.13821C508.38235 497.60475 510.86345 504.55152 518.8039 503.56014M479.25723 475.72997L573.3667 443.55031 M564.68395 263.79602C546.55072 274.83036 539.15224 279.73523 541.13711 302.56436C543.6184 329.36402 534.18899 340.77839 516.81923 340.77839C499.44897 340.77839 484.56039 324.40106 484.56039 299.58666C485.0568 210.25518 620.04637 256.40978 620.04637 151.6933C620.04637 88.66497 566.94375 60.37801 521.28568 58.39169L454.78323 66.82876C434.93169 73.77658 422.52489 84.19842 413.59151 95.11677C397.21417 114.47219 385.30164 136.30851 384.80668 151.19728M592.47586 257.18081C605.87569 260.65415 611.11299 278.24638 613.59476 282.71292C633.94261 318.94169 635.43146 342.26724 637.91254 363.60744C640.39198 384.94772 621.0387 405.79199 602.18018 413.73254C589.77279 418.69511 577.36588 424.15448 563.46964 427.62859L495.47846 432.59115C426.99133 424.15448 380.34033 367.57796 380.34033 298.59423C380.34033 240.52885 404.65812 227.12883 438.90231 211.74403C477.61227 194.37427 509.87111 185.44079 509.3747 171.04872C508.87925 158.14511 496.96778 153.18215 486.54555 151.19728C467.19062 147.72394 454.78323 153.67933 430.46535 161.61922C413.59151 167.07859 401.68053 178.49296 393.24366 175.01885M509.00797 271.72482L462.25681 189.15135M491.40038 172.75789L628.61808 152.72178M493.82902 311.19018L359.64713 337.29767 M455.99754 78.36466C454.50753 62.97976 454.01258 47.59487 453.01761 35.18767L451.80379 23.65176C450.80873 15.71111 453.78866 12.73341 461.72951 8.76328M522.49979 69.92759C521.50473 51.06898 518.8004 15.21469 516.32096 6.77802C514.83211 2.31157 512.35044 -3.64382 504.40998 -3.64382M439.18481 54.362L530.86566 19.75439"
         unicode="$" />
      <glyph
         id="glyph34096"
         d=" M520.18808 197.08869C509.29678 178.70945 465.94845 140.13189 442.12289 143.53635C380.17828 152.38578 390.38657 217.73458 389.70767 247.68629C389.02678 291.93283 431.91261 376.34175 503.38742 366.81156C535.38127 362.72728 578.94731 351.83571 589.83863 338.22163C592.56059 334.81718 593.23947 325.96881 593.23947 313.71599C593.23947 296.69799 590.51697 273.55359 590.51697 251.08967C590.51697 217.05422 596.64326 187.78395 610.93849 184.3795L615.70418 183.69994C639.52895 204.12185 649.74004 258.5792 649.74004 292.61505C649.74004 385.87289 557.16269 420.58976 508.83147 420.58976C408.08505 420.58976 348.18257 339.58421 348.18257 225.22412C348.18257 151.70676 412.85021 84.99618 489.09099 84.99618C509.5125 84.99618 523.12604 90.44264 530.61423 95.20674C536.74118 99.291 543.54835 106.09937 554.43966 106.7792C561.92705 107.45876 568.73422 106.09965 580.30643 99.291L580.31043 99.29008M512.548 233.5936L485.00578 229.98768C480.91858 232.02742 482.28382 251.77083 485.00578 263.34276C491.13661 289.89056 494.53599 292.61359 503.38529 296.69786C508.15086 298.73746 514.27661 298.05764 514.27661 291.25181C514.27661 282.40237 512.91936 271.51132 512.23287 259.93885L512.23287 259.25929C503.3837 249.72896 506.22305 241.27992 503.17916 232.34348L511.02712 198.75373C520.55732 154.50707 563.97159 125.8376 638.16944 122.43367C704.87922 122.43367 747.76437 240.87858 746.40327 291.25153C742.31618 438.96714 632.04355 456.66602 573.50126 475.72614C545.59235 484.57505 484.32783 501.5929 437.35786 493.42448C376.09333 483.2138 253.56428 399.48562 253.56428 236.11383C253.56428 127.19885 302.57638 74.10273 330.48595 55.7235C357.71463 37.34425 473.43571 -1.45676 521.08591 -1.45676C553.07974 -1.45676 585.07345 3.30734 621.15144 27.81406C632.72365 33.94047 640.89273 48.23583 627.96088 59.80777M536.45217 390.59302L588.27297 503.65623M497.58652 273.99636L525.85253 379.99298M611.82778 205.68683L591.80614 119.71158M432.81068 125.60028L368.03471 18.42577M608.29461 297.55117L508.18629 166.82119"
         unicode="@" />
      <glyph
         id="glyph34098"
         d=" M308.6898 328.54407C308.6898 314.01425 335.67363 295.33305 347.4361 275.26782C350.89282 269.0413 361.27412 258.66231 378.57198 260.738C415.24257 264.88938 642.18572 278.0356 685.08406 275.95991M323.2199 347.91735C371.65297 347.22663 606.89928 369.36836 649.79681 366.5991C656.71582 367.98109 662.25081 364.52598 667.0948 358.98787C672.62954 352.76081 698.22987 314.01425 698.22987 293.94944M527.15345 389.33389L500.91277 253.89822 M301.77012 195.00748C301.77012 180.47779 328.75408 161.79605 340.51641 141.73123C343.97327 135.50416 354.35443 125.12572 371.65243 127.20141C408.32302 131.35279 637.34253 143.80692 680.24006 141.73123M316.30035 214.38076C364.73342 218.53214 602.05528 235.13914 644.95281 232.36989L644.95281 232.37043C651.87195 233.75255 657.40681 230.29217 662.25081 224.75921C667.78553 218.53214 693.38589 179.78571 693.38589 159.72036M480.59739 242.8942L448.43139 110.84415"
         unicode="=" />
      <glyph
         id="glyph34100"
         d=" M524.65701 488.1291C474.78144 442.59027 430.32661 366.14987 423.82121 247.42373C420.02587 178.03154 439.00054 83.70103 467.1915 60.93145C485.08173 46.29408 523.03074 15.39295 544.71589 5.09242M547.96864 495.17644C563.1484 484.33407 579.95399 443.13211 586.45992 420.90512C590.79656 406.26731 581.5828 394.34085 578.32772 390.00356C556.10084 362.35529 520.86401 302.72092 515.44092 249.05011C504.05597 138.99821 539.83699 58.76323 560.43749 17.56116M535.1443 244.38916L409.45699 246.73555"
         unicode="(" />
      <glyph
         id="glyph34102"
         d=" M476.47909 7.74986C527.21792 54.07687 572.44173 131.83984 579.06015 252.62077C582.92129 323.21443 563.61767 419.17717 534.93931 442.34095C516.73943 457.23166 478.13361 488.66795 456.07314 499.14632M452.76368 0.58011C437.32173 11.61013 420.22461 53.52521 413.60673 76.13734C409.19438 91.02806 418.56761 103.16095 421.87914 107.57319C444.49126 135.70054 480.33742 196.36662 485.85438 250.96626C497.43627 362.92301 461.03661 444.54669 440.07892 486.46177M474.64385 247.64295L590.5792 246.68862"
         unicode=")" />
      <glyph
         id="glyph34104"
         d=" M600.75521 226.54136C589.13775 235.5767 570.42152 229.76917 566.54929 223.31368C566.54929 221.3799 557.58066 214.66265 548.54709 203.69075L472.96749 131.36309C466.51137 127.49073 461.35079 124.56764 457.47856 124.56764C432.95315 124.56764 426.49918 142.63882 426.49918 151.67466C426.49918 167.1641 432.30469 170.39089 434.88921 175.55425L503.3013 246.54783C545.89801 287.85304 608.50094 335.61247 608.50094 411.12385C608.50094 445.97546 492.32941 494.37995 465.86858 491.79871C397.45661 484.69905 366.47736 426.61329 352.2788 391.1165C330.98082 338.83927 355.37484 284.38419 371.51085 259.85891L415.1498 196.4784L445.15376 162.13099C456.77122 153.09565 482.23679 123.79511 491.91744 110.24186L556.26363 50.73409C576.27124 37.18045 617.53665 14.20553 627.86286 12.26935C640.77081 9.68622 647.22478 12.26935 654.32432 20.01407M655.61456 177.49093C661.42688 167.81004 662.71409 158.77419 660.13286 149.09342C657.55212 143.93045 654.32507 137.47673 649.80665 130.37719L571.06847 40.66699C545.25258 20.01407 516.85494 5.81386 491.03904 8.397C477.48553 9.68622 461.35092 21.30659 448.44297 22.59581C366.47749 49.70233 318.71793 81.9722 309.03728 102.62511C279.34916 164.58324 332.27144 230.41372 366.47749 264.61939L384.34173 275.35416L445.31509 317.78486C451.76906 321.65722 471.03156 337.54865 478.1311 345.29337L478.1301 345.29337C492.97764 362.0738 498.14112 390.47093 479.42413 390.47093C458.77159 390.47093 450.38157 362.0738 450.38157 344.64781C450.38157 339.48483 449.73095 334.32185 453.60596 325.28601L503.30143 246.54783C517.50063 231.70345 542.84732 207.28089 560.27319 193.08207L571.71757 182.75371L636.58123 136.89142C661.1065 123.33526 683.05686 118.53524 689.17618 114.88725C696.1696 109.53427 703.37171 100.04337 697.56621 87.13517M476.13933 380.36278L534.56834 491.69361M440.60817 142.69895L350.59591 27.41971M405.8666 313.24825L483.24556 191.65299M491.93095 305.35269L383.75833 206.65491"
         unicode="&amp;" />
      <glyph
         id="glyph34106"
         d=" M334.86377 6.90469C311.72991 18.47129 302.20477 21.8731 281.79268 47.04803C277.02905 53.17161 280.42847 62.69741 284.51379 70.18162C350.51288 181.0877 589.33451 450.52725 649.20962 490.67111M356.63714 13.70833C460.05794 159.31459 631.51931 353.2295 715.20872 432.15595L715.20672 432.15595C723.3743 440.32074 719.29204 449.84666 711.80744 458.6915C698.87995 475.0216 694.7969 487.26877 673.70503 496.79417M452.94372 325.96863L601.27109 284.76621 M626.07642 173.60495C636.28213 173.60495 641.04511 166.12035 641.04511 145.70879C641.04511 130.73998 621.9935 70.8642 608.38545 70.8642C604.98616 70.8642 596.13854 72.22335 596.13854 106.2451C596.13854 138.90476 607.70553 159.31659 614.50956 166.12075C615.87378 167.4799 619.27306 173.60549 626.07642 173.60549ZM640.90153 227.99431C660.68459 223.77607 678.6486 218.16444 685.27163 213.74976C698.87969 205.58497 707.04421 193.33793 707.04421 142.30751C707.04421 72.90646 664.85954 15.07148 625.39585 10.30957C602.9427 7.5862 579.80884 8.94536 565.52006 15.07148C545.78855 23.23626 526.73708 53.85419 526.73708 104.88448C526.73708 181.0897 562.7991 234.16118 592.3963 234.16118C605.98837 234.16172 624.10089 231.57899 640.90153 227.99431M607.15694 89.93977L584.79009 -19.54029 M360.53321 367.17052L344.05234 269.46257M378.40958 449.84867C388.61529 449.84867 395.41933 443.0445 395.41933 422.63269C395.41933 407.66374 374.32746 345.06672 360.71927 345.06672C357.31998 345.06672 348.4717 347.79009 348.4717 381.80824C348.4717 414.4679 364.12095 439.64269 370.92498 446.44685C372.28919 447.80601 371.60422 449.84973 378.40958 449.84973ZM385.29766 515.23032C401.76387 513.01545 417.82719 508.16485 426.7185 502.23771C440.32656 494.07293 462.09914 468.89801 462.09914 417.86758C462.09914 348.46653 417.1927 281.78725 377.72901 281.78725C355.27586 281.78725 330.1008 291.31319 315.81283 297.43624C296.08065 305.60156 279.07091 329.4152 279.07091 380.44562C279.07091 456.65084 320.575 516.52595 366.84272 516.52595C372.80915 516.52595 379.08203 516.07312 385.29766 515.23272"
         unicode="%" />
      <glyph
         id="glyph34108"
         d=" M491.01861 613.70329C492.43867 614.86425 494.30637 615.52662 496.93371 615.19887C509.85631 613.3516 512.6254 615.6596 524.16335 611.04522C531.54756 608.27612 534.31666 604.5841 531.77838 586.12332C529.2401 567.66217 518.1637 528.43323 511.7024 515.049C509.79506 510.91686 508.54475 506.56554 505.84007 505.16184M491.01861 613.70329C488.44718 611.60343 487.34386 607.88549 485.85723 605.50702C478.47293 593.04571 474.31929 561.66234 474.31929 553.81676C474.31929 547.81693 470.62691 539.04799 472.93475 534.4327C482.16514 515.51064 490.93398 509.51081 501.08746 505.35716C503.09852 504.49712 504.61777 504.52784 505.84008 505.15208M457.0482 560.38899L542.95181 584.99055"
         unicode="'" />
      <glyph
         id="glyph34110"
         d=" M229.72719 278.65142C227.95655 276.39184 227.03201 273.31931 227.03201 269.49761C227.03201 250.04493 272.78493 182.55545 294.18317 148.51236M229.72719 278.65142C232.01493 281.56573 235.71365 283.11284 240.64917 283.11284C254.26634 282.14185 310.44773 276.71569 330.87347 277.68709M278.4662 295.25009L240.90298 206.30027 M453.25407 684.241779C456.27806 684.961456 459.89397 684.889104 464.35902 683.88194C481.86663 678.046067 532.75477 672.809545 560.96163 664.056493L551.60807 528.20819C549.9669 525.13547 529.52689 518.53118 526.60896 512.69531C504.23798 444.60988 486.73019 367.77086 474.08573 291.90396L454.6327 132.39272C451.71477 96.40457 450.74186 60.41643 451.71477 28.31783C451.71477 15.67166 445.8789 5.94515 432.26174 5.94515M453.25427 684.280607C447.71426 683.0069 444.16138 679.192988 441.01534 674.159607C389.46485 602.18337 327.21511 432.94254 292.19969 283.15376L270.80142 165.45984C267.88349 139.19841 265.93807 114.88223 265.93807 93.48377C265.93807 78.8941 267.88349 72.08534 275.66459 63.33152L275.66498 63.33152C302.89911 31.23423 370.01219 5.94515 432.26174 5.94515M505.03953 350.01649L272.13418 361.47081 M550.15729 690.81313C546.45362 687.625404 544.62357 683.082669 544.11639 678.0116C543.14347 673.147301 543.14347 668.28489 543.14347 661.47632L536.33547 519.46962C538.94898 514.00081 541.4172 509.2062 544.11656 505.85227C546.0616 440.68479 549.95244 367.73582 554.81579 297.70537L568.43295 142.08057C575.24172 84.69417 582.0501 44.81522 590.80392 37.03432C618.03805 11.74522 690.98701 5.90935 753.23674 5.90935C760.06417 5.90935 765.42406 7.86657 768.82692 11.40689M550.15729 690.81313C553.55598 693.734688 558.53319 695.519219 565.51502 695.519219C596.63979 695.519219 670.56126 682.874581 695.85036 673.148066C711.41275 667.312193 716.27591 660.503412 718.22112 645.91374C721.13907 616.73439 724.05699 436.79395 747.40068 220.86558C759.07261 109.01056 771.71667 38.97935 772.68977 26.33471C773.66077 20.03124 772.2157 14.93428 768.82692 11.40976M527.94836 351.25289L753.21752 372.88876 M448.63157 290.5958L576.45185 300.24995M429.17854 131.08109C469.05731 133.02384 555.05359 140.73507 590.06901 144.62589"
         unicode="A" />
      <glyph
         id="glyph34112"
         d=" M654.5187 366.37185C641.40205 362.62201 623.60081 370.12187 602.05227 376.6782C555.20704 386.04737 552.39636 406.65931 564.57623 447.883C581.44034 506.90739 567.38692 534.07782 534.5953 534.07782C492.43483 534.07782 448.40065 494.72824 447.4635 447.883C442.77928 297.97845 701.36358 379.48888 701.36358 181.80325C701.36358 58.132 610.48433 4.72899 521.47863 4.72899C409.05052 4.72899 358.45799 42.20503 319.10803 71.24885C275.07368 104.04066 256.33601 167.75001 255.39887 195.85667C254.46174 235.20627 261.9574 241.76476 273.19994 245.51259M654.5187 366.37185C679.81506 372.92907 691.99456 403.84865 696.67915 412.28068C735.09197 480.67408 735.09197 528.45647 739.77658 568.74302C744.46155 609.02972 710.73258 639.01012 675.13045 654.000698C629.22236 673.675496 583.31408 692.413879 508.36216 692.413879C397.80776 692.413879 262.89397 587.48065 262.89397 446.00891C262.89397 261.43955 482.12888 285.79859 501.80385 220.21568L501.80385 220.21568C512.10999 185.55051 497.11888 176.18187 462.45389 176.18187C442.7791 176.18187 401.55541 179.93189 359.39477 202.41518C338.783 213.65792 299.43326 253.94465 273.19994 245.51259M471.69856 463.08025L236.77914 528.09536M477.76667 204.756L723.95522 138.00727M496.83755 385.92945L358.13962 272.37108M545.38175 505.5565L762.09717 625.18339"
         unicode="S" />
      <glyph
         id="glyph34114"
         d=" M232.07627 601.8015C233.27732 613.51817 244.09254 626.13215 251.8338 631.05839C330.10208 681.304707 439.29134 692.90279 480.84141 693.866286C496.3018 693.866286 518.52615 692.901655 537.85168 690.971069L538.81631 691.9357C597.75925 688.068097 629.64637 665.846398 665.39863 647.48701C734.00415 611.73475 770.72255 555.69101 770.72255 402.05268C770.72255 169.18012 612.25331 27.13703 472.14327 7.81188L462.48032 7.81188C385.17818 -4.74988 294.34832 13.6095 248.9333 68.68748C236.37171 81.2485 228.6418 117.00075 230.57409 135.36014L230.57709 135.36314C241.20613 263.87807 247.97009 365.33703 271.16078 457.13322L271.16078 461.00064C275.02611 522.8422 255.73215 591.36979 243.17058 606.83037M232.07769 601.80482C231.62753 597.43694 232.52029 593.18765 235.40833 589.51184L246.57345 585.12975C264.93266 588.02498 480.83679 533.46733 507.89262 534.43309C537.84706 529.60049 576.49814 510.27608 576.49814 425.24347C576.49814 261.94295 522.38667 190.43842 482.76927 176.91088C477.9376 174.98087 470.20769 172.07846 460.54492 170.14826L460.54792 170.14901C432.52575 167.24661 434.45842 174.01642 434.45842 194.30527C445.08772 304.46067 457.6491 383.69566 466.34554 460.03127C466.34554 461.96149 467.30828 463.8987 467.30828 465.82891C461.14032 498.07388 463.98485 545.41571 442.41246 560.65102M455.8373 199.27293L396.13003 -26.42088M556.14545 352.12375L783.0337 329.43448M460.61366 268.53296L217.0076 294.8046"
         unicode="D" />
      <glyph
         id="glyph34116"
         d=" M277.96886 559.60303C271.36842 574.68941 282.68303 604.86144 293.99799 610.51875C385.45813 654.834769 521.23429 685.949744 644.75273 692.550175C673.98237 694.433666 705.0977 690.666868 716.4125 683.121092M317.21338 470.7508L454.87525 497.1516C468.15327 527.31533 597.60843 542.63113 706.98359 542.63113C715.46919 542.63113 739.04189 552.05948 741.87054 560.54616M485.45941 700.653153L534.07268 507.02439 M314.74149 482.28578C298.71236 391.76839 278.91161 240.90623 264.76836 122.10234C262.88284 109.8446 267.59701 99.47313 274.19726 90.98717C296.82665 62.69994 362.82894 3.29846 426.00257 3.29846M452.40337 508.68677L461.83227 503.97112C476.91865 498.31382 499.54785 465.31313 496.71921 450.22675L483.28985 371.65315L470.31821 259.76366C462.77521 195.64707 456.17459 120.21607 447.68901 23.09827C446.74589 9.89814 440.14582 3.29772 426.00257 3.29772M491.22708 239.23904L253.92846 273.84471 M552.19959 441.93201L559.61525 254.07072M465.98683 398.02C524.44593 413.10915 616.46659 440.79841 659.83929 418.16921M443.12784 256.46823C492.15803 271.55461 592.89388 286.16519 651.35297 286.16519L651.35335 286.16464C659.83911 286.16464 675.86844 301.25084 678.6971 309.7368"
         unicode="F" />
      <glyph
         id="glyph34118"
         d=" M750.14446 239.5016L596.54461 272.8116C592.84318 277.4391 558.60727 270.96323 537.32513 280.21446C506.79012 294.09393 487.35832 372.74502 494.76118 378.29682M760.569 305.44873C761.0345 316.70425 760.30819 327.44558 757.54751 336.65841C736.26554 379.22234 541.02638 410.68254 494.76118 378.29682M662.19359 408.12779L625.80722 247.21926 M653.26315 443.8317C641.83046 440.5733 627.26436 440.09404 608.573 444.92025C573.40884 454.17347 559.53191 471.75436 572.48602 503.21473C580.81388 523.57135 573.41156 554.10617 544.26469 554.10617C515.11798 554.10617 500.31279 530.97293 495.68655 526.3467C478.10583 507.84098 438.31778 469.90329 438.31778 295.02092C438.31778 207.11714 473.47922 180.28302 520.66977 180.28302C545.65299 180.28302 576.18799 205.26678 594.69406 253.38251C597.46724 260.78465 604.40518 283.4332 599.77892 288.98499M653.26315 443.83388C676.92017 450.57003 687.16107 469.19617 692.77552 477.30616C717.75873 514.31831 722.38517 531.89903 727.93714 571.68707C732.56393 602.2219 719.60963 634.6078 693.70069 649.41281C651.13693 674.395846 582.66441 695.67818 508.64011 692.902286C365.21811 688.27459 258.80825 543.92832 258.80825 312.60254C258.80825 203.41662 289.34308 106.25963 332.83238 61.84478C370.76989 22.98228 464.22545 4.47584 536.39922 4.47584C647.43569 4.47584 733.94734 164.99496 753.3786 255.67517M504.51956 210.83506L475.41035 -14.76015M456.813 372.55213L234.4519 384.6805M540.88764 533.31486L690.6879 679.684642"
         unicode="G" />
      <glyph
         id="glyph34120"
         d=" M429.85263 12.93061C433.34963 16.22773 435.15367 21.10125 435.15367 27.55289C435.15367 101.98383 439.86473 183.95155 446.45947 264.03449L460.59193 412.89545C471.89776 510.88023 485.08798 594.73218 493.56736 642.7819C496.39381 657.856379 488.85683 665.393355 473.78199 671.046268C449.28594 680.46803 361.6653 693.658641 329.63192 693.658641C324.37975 693.658641 320.27101 692.515211 317.02721 690.668407M429.85282 12.93358C426.20106 9.49023 420.70307 7.76846 413.48407 7.76846C350.35948 7.76846 274.98688 38.85944 252.37526 67.124C245.77994 75.60408 242.9535 85.9675 242.9535 98.21573C242.9535 150.97651 247.66475 227.29132 256.14375 307.37442C236.35857 336.58137 217.51524 374.26747 217.51524 390.2838C217.51524 399.70556 222.22647 404.41682 230.70546 404.41682L266.50753 404.41682C280.63999 530.66541 298.54036 647.49296 306.07806 675.757524C307.92044 681.285016 310.96138 687.207719 317.02721 690.665656M474.05106 321.193L195.7735 377.08141M244.06317 499.21351L491.05717 438.28817M224.88214 196.84028L453.09297 191.94718 M580.69851 271.34922C546.7809 267.57834 466.23618 264.7554 426.66545 262.87061M596.7152 419.26908L440.79789 411.73138M516.66586 459.28277L500.36515 216.40102 M734.73824 11.9375C730.99448 9.15623 725.66301 7.76918 718.74275 7.76918C656.5604 7.76918 580.24576 38.86019 558.57615 67.12528C551.98086 75.60464 549.15458 85.96806 549.15458 98.21629C549.15458 143.43954 552.92324 205.62227 558.57615 272.51532L574.59284 420.43462C588.72514 541.03102 604.74144 648.43684 612.27914 675.759719C613.52402 681.356756 616.82166 687.367983 623.25816 690.805081M734.73824 11.9388C739.14906 15.21489 741.35437 20.41963 741.35437 27.55437C741.35437 248.01891 780.92512 535.37739 799.76826 642.7832L799.76826 642.78393C801.65232 657.858601 794.11534 665.395578 779.98291 671.048463C755.48683 680.470225 666.92418 693.660114 635.83301 693.660114C630.71178 693.660114 626.56967 692.572003 623.25816 690.802302M533.04623 366.65748L776.74683 323.02211"
         unicode="H" />
      <glyph
         id="glyph34122"
         d=" M330.68239 301.53007C340.69685 303.9451 357.02499 301.80416 386.6289 289.90438C432.9977 280.63054 438.56186 261.156 428.36043 219.4243C416.30469 170.27379 432.0701 160.07308 453.3993 157.29101L453.4023 157.29101C508.11679 157.29101 517.39062 214.78774 526.66409 261.156L533.15585 291.75885C533.15585 293.61132 533.15585 295.47052 534.08163 297.32301C551.70151 403.04248 562.83 473.52273 574.88573 671.978183C575.49021 680.397207 578.42786 686.086978 584.21493 689.046589M330.6833 301.53007C321.24773 299.25228 317.41716 292.97054 313.3682 287.1223C279.98291 238.89883 241.96107 191.60353 234.54208 151.72685C223.41376 88.66613 371.792 -5.92504 479.36632 6.13068C631.45423 22.82315 723.26351 77.53781 748.30219 415.09839C754.79395 477.2317 761.28534 548.63864 765.92208 610.77267C766.84788 622.82785 763.14 633.02928 756.64843 641.37552C734.39181 669.196105 658.34795 691.45345 596.21447 691.45345C591.32469 691.45345 587.35125 690.651102 584.21429 689.045318M500.20575 324.84189L750.04686 260.66206M454.36339 187.31405L375.28512 -7.51539"
         unicode="J" />
      <glyph
         id="glyph34124"
         d=" M790.69798 107.1255C790.68618 99.69534 786.83677 91.81069 779.73067 84.19715C754.10042 55.71929 693.3474 3.50909 652.52889 3.50909C604.11615 3.50909 520.58065 145.89969 484.50839 253.16661L412.68698 246.7969M790.69798 107.1227C790.70698 113.5909 787.81285 119.71272 781.62897 125.01289C748.40467 152.54198 668.6661 256.01161 633.54315 337.6492L616.55156 356.83654L417.11976 348.62468M664.40093 322.80005L516.74526 133.66792 M429.77314 414.8202L502.54386 422.13681C542.41306 505.67267 610.76031 637.62092 636.39057 682.235962C641.13663 690.779886 651.57882 698.374475 665.81793 693.62768C699.99157 681.287029 763.59254 640.46868 790.17194 618.63518C796.14717 614.04223 799.67392 609.6663 800.96904 604.76211M415.94653 319.29914L605.99343 323.99038L633.54315 337.65069C681.00656 404.09908 784.47676 559.77913 797.76653 586.35872C801.19369 593.70468 802.34889 599.53423 800.96904 604.7608M552.41488 595.71593L705.87741 361.7898 M310.42626 690.945646C313.78597 693.164987 318.22896 694.576447 324.08173 694.576447C356.35689 694.576447 445.58814 681.286461 470.26909 671.793604C484.50765 666.098018 492.10224 658.504163 489.25445 643.31574L489.25407 643.31574C480.71071 595.85215 469.31956 514.21529 457.92825 418.33876L440.84208 250.31882C435.14652 172.47926 430.39989 94.6388 430.39989 23.44357C430.39989 15.91922 427.96573 10.52485 423.26892 7.26066M310.42626 690.945078C305.06776 687.398449 302.46618 681.791322 301.29927 676.5404C292.75627 648.0618 275.66918 534.14979 261.43007 409.79616C247.19094 409.79616 233.90133 408.84851 224.40867 409.79616C215.8655 409.79616 210.16972 405.04861 210.16972 395.55722C210.16972 378.46975 229.15492 333.85468 249.08959 298.73119C241.495 219.94193 236.74913 145.89969 236.74913 94.6388C236.74913 82.29813 239.59692 71.8565 246.24182 63.31315C269.02409 34.83472 344.96574 3.50909 408.56655 3.50909C414.74395 3.50909 419.67024 4.7596 423.26892 7.25936M461.99646 303.72159L194.05928 347.68705M474.43931 438.93476L240.51281 470.457"
         unicode="K" />
      <glyph
         id="glyph34126"
         d=" M729.56516 45.78353C725.83911 39.86757 720.75813 36.41906 714.76986 33.19461C689.51806 19.16583 622.17936 6.07182 546.42342 6.07182C455.70354 6.07182 352.82517 24.77735 296.70968 86.50397C293.90118 89.30625 292.96843 93.98574 292.96843 98.6625C290.16195 106.14482 288.29167 113.62659 288.29167 122.97935C288.29167 279.16747 318.22005 605.57228 350.95399 677.587169C353.22134 682.119291 355.83212 687.687231 360.8686 691.36752M729.56516 45.78353C733.40472 51.87927 735.80625 60.58159 736.28096 74.34619C736.28096 103.33906 732.5397 158.51867 706.35278 205.28177C701.67675 213.69903 695.12957 216.50479 686.71229 216.50479C683.90655 216.50479 681.1008 215.57112 678.29522 215.57112L678.29622 215.56812C639.95058 211.82468 580.09403 205.27986 510.8849 201.53934L508.07915 201.53934C494.05018 201.53934 485.63291 209.02166 485.63291 223.98539L485.63291 228.66269C499.66187 377.36884 523.97855 543.84448 537.07201 616.79487C537.07201 618.66293 538.00384 620.53813 538.00384 622.40637C538.00384 635.49966 528.65127 645.78774 517.42824 654.205004C493.11205 672.909847 406.13289 695.356627 374.33425 695.356627C368.43971 695.356627 364.14102 693.758411 360.8675 691.371157M518.00759 237.99209L261.38033 69.63172"
         unicode="L" />
      <glyph
         id="glyph34128"
         d=" M526.87106 522.56171C562.53824 518.08784 596.87532 508.02663 617.3444 495.04618C645.348 476.60488 691.79392 423.32876 691.79392 314.72844C691.79392 150.12093 613.92897 22.39614 514.89112 22.39614C467.0794 22.39614 412.43783 33.32392 385.11705 51.76606C357.11395 70.20734 309.98591 123.48279 309.98591 232.76609C309.98591 396.69131 388.533 525.09906 487.56966 525.09906C500.43411 525.09906 513.74276 524.21 526.87106 522.56441M513.52514 418.55075C534.69889 418.55075 554.50617 404.20688 554.50617 331.12348C554.50617 215.69314 527.86887 148.75748 514.20813 136.46257C510.79659 133.04476 503.96267 128.26672 489.61979 128.26672C468.44589 128.26672 448.63879 143.29343 448.63879 215.01016C448.63879 330.44067 475.27609 397.37683 488.25315 411.03707C491.66469 414.44861 499.18161 418.55075 513.52514 418.55075ZM470.50687 283.62339L294.42931 289.53113M534.3199 280.07756L705.67141 278.89379M492.96022 151.2669L479.96062 -10.63054 M384.53399 691.148616C381.31447 688.729109 379.76544 685.176856 378.93986 681.865736C374.61943 663.883879 370.30795 638.70975 370.30795 614.2542C370.30795 605.62314 372.46497 598.43072 376.78609 592.67655C392.60957 572.53704 416.34539 566.78287 460.22076 566.78287C464.18268 566.78287 466.92328 567.56358 468.96173 569.0359M384.53329 691.147923C386.90793 692.927283 390.18501 694.092239 394.76336 694.092239C417.06091 694.092239 449.42728 693.375901 472.44372 678.268067C481.07495 672.513926 491.14632 656.690249 487.19134 633.31397C483.23583 609.93766 481.80212 602.7454 475.32401 580.44819C473.57666 575.21259 472.09807 571.30434 468.96173 569.0359M362.79326 591.0022L488.40558 676.357486 M565.80327 678.829298C562.58378 676.409964 561.03475 672.857538 560.209 669.546592C555.88872 651.564734 551.57726 626.39046 551.57726 601.93505C551.57726 593.30382 553.7407 586.1114 558.0552 580.35724C573.8787 560.21789 597.6147 554.46373 641.48972 554.46373C645.45182 554.46373 648.19308 555.24444 650.23171 556.71675M565.8026 678.828629C568.17721 680.608138 571.46073 681.77292 576.03317 681.77292C598.3302 681.77292 630.69659 681.056583 653.71303 665.948748C662.34424 660.194608 672.41595 644.3711 668.46062 620.99482C664.50514 597.61852 663.07125 590.42608 656.59399 568.12836C654.84647 562.89258 653.36805 558.98502 650.23171 556.71609M544.06222 578.68288L669.67402 664.038168"
         unicode="Ö" />
      <glyph
         id="glyph34130"
         d=" M400.4147 691.224461C397.07578 688.715224 395.46931 685.03119 394.61309 681.597268C390.1324 662.948456 385.66102 636.8406 385.66102 611.47793C385.66102 602.52656 387.89804 595.06752 392.37944 589.09995C408.78985 568.21341 433.40606 562.24583 478.90884 562.24583C483.0177 562.24583 485.85995 563.05548 487.97418 564.58241M400.414 691.223756C402.87669 693.069121 406.27532 694.277272 411.02352 694.277272C434.14812 694.277272 467.71516 693.534358 491.58514 677.865986C500.53653 671.898586 510.98145 655.488005 506.87978 631.24465C502.77758 607.00129 501.29067 599.54225 494.57227 576.418C492.76011 570.98821 491.22668 566.935 487.97418 564.58241M377.86777 587.36348L508.13905 675.884715 M588.40756 678.448198C585.06864 675.938986 583.46214 672.254952 582.60595 668.821182C578.12526 650.172369 573.65388 624.06434 573.65388 598.70184C573.65388 589.75048 575.89755 582.29126 580.3721 576.32368C596.7825 555.43732 621.39892 549.46974 666.90132 549.46974C671.01039 549.46974 673.85331 550.27941 675.96754 551.80617M588.40686 678.447519C590.86955 680.292859 594.27485 681.501034 599.01688 681.501034C622.14095 681.501034 655.70784 680.758095 679.578 665.089924C688.52936 659.122323 698.97466 642.71174 694.87261 618.46856C690.77041 594.2252 689.28335 586.76598 682.56581 563.64121C680.75367 558.21124 679.22022 554.15874 675.96754 551.80564M565.86009 574.58721L696.131 663.108452 M224.49384 210.20229C222.85697 208.50921 222.00323 206.21283 222.00323 203.35252C222.00323 188.79538 264.29088 138.29258 284.06865 112.81786M224.49419 210.20229C226.60845 212.38609 230.02709 213.54121 234.58893 213.54121C247.17479 212.81762 299.10142 208.7551 317.98016 209.4787M269.5419 222.62133L234.82357 156.0592 M431.09213 513.70869C433.8866 514.2391 437.23219 514.17413 441.35581 513.37674C457.53702 509.009 504.57111 505.0919 530.64174 498.5414L521.99632 396.88494C520.48237 394.58154 501.58803 389.64352 498.89103 385.27716C478.21385 334.32772 462.03229 276.82782 450.34546 220.05623L432.36651 100.69286C429.67145 73.7632 428.76872 46.83271 429.67145 22.81309C429.67145 13.34994 424.27484 6.07144 411.69124 6.07144M431.09407 513.67552C425.97619 512.72007 422.6896 509.87186 419.78221 506.10144C372.1357 452.24129 314.60048 325.59677 282.23683 213.50853L262.45923 125.43745C259.76224 105.78562 257.96467 87.58938 257.96467 71.57731C257.96467 60.65975 259.76224 55.56435 266.9545 49.01403L266.95485 49.01403C292.12642 24.99496 354.15655 6.07144 411.6916 6.07144M478.95782 263.54257L263.69163 272.11423 M520.65554 518.62618C517.23022 516.24305 515.54417 512.84442 515.06628 509.04676C514.17057 505.40927 514.17057 501.76826 514.17057 496.67356L507.87771 390.40838C510.29404 386.31268 512.57073 382.72875 515.06925 380.21899C516.86157 331.45354 520.46604 276.86505 524.9578 224.46L537.54419 108.0054C543.83704 65.06213 550.12919 35.22088 558.22084 29.39802C583.39223 10.47432 650.81601 6.10728 708.35141 6.10728C714.6641 6.10728 719.61529 7.56676 722.76051 10.22282M520.65168 518.62547C523.79144 520.81613 528.39366 522.14372 534.84704 522.14372C563.61482 522.14372 631.93745 512.68178 655.31057 505.4033C669.69437 501.03536 674.19034 495.94137 675.98793 485.02381C678.68281 463.18888 681.38452 328.53736 702.95796 166.95622C713.74538 83.25429 725.43148 30.84979 726.33106 21.38803C727.22677 16.6683 725.86565 12.85606 722.7598 10.2188M500.12448 264.52646L708.3326 280.71646 M426.81922 219.14031L544.95863 226.36454M408.83971 99.77359C445.69828 101.22783 525.18189 106.99835 557.54466 109.90977"
         unicode="Ä" />
      <glyph
         id="glyph34132"
         d=" M659.89993 97.50154C672.6723 49.84978 770.43473 -50.78171 732.80271 -93.79943M494.66366 39.86126C515.79867 -51.40359 554.1167 -164.88941 602.15059 -164.88941 M537.78516 539.28704C517.61107 539.28704 507.04394 533.52302 502.24026 528.71916C483.98725 509.50598 446.52088 455.70808 446.52088 284.70702C446.52088 183.83596 474.38048 158.85876 504.16154 158.85876C524.33563 158.85876 533.94204 165.58239 538.7457 170.38682C557.95945 187.6789 591.58307 276.06097 597.34711 419.20207C601.19005 521.99496 573.33025 539.28704 537.78516 539.28704ZM565.22371 685.116839C536.99273 689.310108 506.38934 692.032281 474.86057 692.032281C381.19473 692.032281 265.91342 530.63819 255.34611 328.89608C248.62116 194.40102 308.18327 71.43478 357.17789 45.4959C387.91949 29.16475 447.48162 14.75468 504.16154 8.99064C584.36845 10.81094 629.85578 36.66145 669.39782 66.63093C729.92049 134.83889 778.91511 254.92388 778.91511 396.14313C778.91511 548.89119 737.6058 635.35217 693.41466 652.644255C667.28511 662.841124 620.86187 676.843319 565.22371 685.114018M490.70243 339.40059L208.63137 369.623M561.2202 339.40059L791.24236 309.17893"
         unicode="Q" />
      <glyph
         id="glyph34134"
         d=" M172.89019 686.268808C164.40395 676.974544 160.6384 662.8561 160.6384 655.139244C159.70415 605.54041 156.89482 492.30397 173.74017 366.90149C194.32871 215.29546 209.30207 135.7497 221.46795 88.95763C225.21152 75.85624 230.82632 62.7541 242.9922 53.39554C267.32394 34.67915 315.05173 12.21937 344.99847 10.34722C351.28703 9.72438 362.64598 7.81999 372.26117 15.73359M172.89 686.27009C177.78214 691.628987 184.24345 695.382267 192.45656 695.382267C252.35021 695.382267 330.02474 666.37124 356.22808 642.03913C367.45824 631.74522 369.32966 563.42871 373.07323 476.39636C374.94538 427.73232 375.88348 361.28778 376.81681 303.2659L372.26117 15.73359M390.96473 410.03444L148.09333 369.5553 M667.29895 692.207852C661.19852 688.469044 657.18933 681.753295 654.75864 673.852703C621.06851 563.4245 593.92908 414.62597 556.49576 289.22367C538.21113 216.67321 521.67813 141.71348 504.68203 68.19122C507.31642 61.03015 511.05925 55.16254 518.12856 50.58804C547.13958 31.87165 622.9425 10.34722 662.24762 5.66831C668.33615 3.32812 675.36202 5.18286 681.4489 9.06768M667.29895 692.204372C670.59317 694.226002 674.49665 695.375306 679.09039 695.375306C738.98386 695.375306 811.97929 652.326803 838.18263 621.44436L838.18563 621.44736C845.6746 613.02506 849.41543 598.0515 846.60793 583.07795C811.98192 384.68059 743.66577 133.87562 695.00227 24.38275C692.66502 18.77473 687.52467 12.92983 681.44933 9.0694M572.30928 440.79387L823.27638 361.45565 M562.84844 191.95145C553.49006 296.76539 545.2678 489.49575 545.2678 503.53323C545.75873 528.64002 536.41061 544.42363 524.85071 554.42737M504.68203 68.19122C501.38782 77.14605 499.82873 88.1234 495.66841 101.1237C481.63075 142.30005 475.08024 217.16761 468.52917 286.41948C467.34029 286.00363 466.1516 285.62261 465.1047 285.22877L447.75176 311.03771L484.38897 575.51178M573.11926 411.78972L428.86098 375.15307 M471.51142 574.57901C461.77587 574.3024 452.98664 568.6178 444.19743 549.38922C427.35227 509.14821 374.99009 269.06909 352.52994 204.49615M509.97188 566.27907L480.8273 301.54946L465.10507 285.23005C463.67806 284.67683 462.5185 284.14926 461.97847 283.6107C454.49169 254.59966 408.63569 86.14885 384.30376 35.61321C381.23394 25.78954 376.95548 19.59147 372.26135 15.7303M396.23113 433.54331L506.1422 382.02177"
         unicode="W" />
      <glyph
         id="glyph34136"
         d=" M479.45276 521.76781C490.67546 513.35079 500.02777 503.06283 500.02777 489.96992C500.02777 488.1019 499.09414 486.22677 499.09414 484.35875C495.35299 463.78357 490.67729 442.27291 486.93614 418.89277L463.55565 276.73757C458.87977 247.74535 454.2037 215.94764 449.52709 180.40935C449.52709 160.76963 438.30458 150.48166 465.42604 153.28733C534.63316 172.92705 631.89721 177.60368 670.24174 177.60368C680.52915 177.60368 699.23359 176.67003 702.97473 162.63983M479.45184 521.76781C471.96956 526.44515 460.74723 529.25009 445.78356 528.31335L312.04794 489.0339C288.66708 398.3163 266.22169 268.31926 261.54544 121.48816C261.54544 112.13568 263.41565 95.30163 266.22206 87.82008C266.22206 83.14273 276.50983 59.76259 279.31532 56.95692C326.07687 0.84361 421.47035 -4.76773 512.18777 11.13085C577.65374 22.35354 644.0552 15.80801 669.30646 29.83564C681.46443 36.38118 692.68732 45.73423 700.16905 72.85624C702.83285 84.65247 706.58022 93.97183 708.95477 104.02583M475.25048 185.05612L299.04915 -16.31701M483.25962 308.62607L248.7059 308.62607 M314.3372 481.88369C303.19194 507.93183 289.42424 542.52075 280.24842 574.14088C273.7016 589.10472 291.47111 614.35635 300.8236 622.77263C367.22487 680.757062 521.53789 692.915229 662.75781 692.915229C693.6204 692.915229 723.54773 687.30388 734.7706 679.822324M314.3372 481.88369L445.78449 520.87737C500.3712 548.44973 597.29182 542.34299 705.77857 542.34299C714.19542 542.34299 730.09454 557.30683 732.90039 565.72386C742.25252 590.97493 756.28108 664.858484 734.7706 679.822324M489.55345 701.647676L523.87839 515.14904 M659.24769 345.51631C656.9103 333.99888 654.05428 323.74827 651.53748 316.95247C648.73181 308.53544 632.8325 293.57235 624.41584 293.57235L624.41622 293.5716C567.36725 293.5716 488.78804 293.08648 442.96161 279.02571M663.7211 394.56893C662.76732 409.11612 658.76988 420.53469 649.66727 423.56938C605.71141 437.59776 521.52085 431.46888 466.3421 421.18219M563.35205 451.64883L548.47792 275.44787"
         unicode="E" />
      <glyph
         id="glyph34138"
         d=" M292.28746 478.70859C280.70115 418.84564 261.39049 260.49822 257.52832 105.04739C257.52832 92.4953 260.4249 81.87476 267.18365 73.18502C290.35647 44.21867 350.21943 8.49394 414.91014 8.49394C421.46344 8.49394 426.43503 9.87929 430.00426 12.64414M292.28746 478.70803L427.46489 507.67363C434.22383 507.67363 439.05082 505.73791 443.87896 504.78064C458.36204 498.98748 480.56908 483.539 475.25883 447.81427C469.94855 412.08953 464.15557 374.43325 459.32763 332.91554L453.53163 274.98396C446.7727 212.22442 441.94495 135.94758 437.11756 28.77358C436.58837 21.37242 434.32304 15.99714 430.00426 12.64848M237.49777 297.14868L471.37057 283.78445 M755.35234 127.58859C754.44704 119.34319 750.37565 110.747 745.12227 102.15081C726.77719 73.18502 660.1555 2.70361 618.63742 3.66655C573.25755 4.63045 470.56639 134.9718 430.97949 244.07659M755.35234 127.58859C756.27654 136.01411 753.89517 144.07373 746.08521 151.39342C723.87798 171.66948 664.01483 228.63586 623.46252 281.74007L583.82063 297.05644L463.33457 302.96394M690.20878 247.86694L503.94566 97.51999 M244.5179 578.74302C245.27956 584.80058 247.92874 589.79145 252.6981 593.60674C275.87093 611.9518 401.39019 689.19443 512.42636 689.19443C557.80641 689.19443 664.98042 638.9868 690.08423 625.46968C713.25706 612.91759 737.39547 563.67517 737.39547 517.3299C737.39547 406.29354 708.42949 322.29217 623.46252 281.74007L577.32383 264.57264L432.62225 292.33206M244.5179 578.74302C243.73735 572.54276 244.93936 565.22307 247.87015 556.91699L247.87615 556.91623C253.6693 542.43334 279.73889 492.22571 291.32522 480.63939C291.32522 479.67551 293.9589 470.90619 293.9589 469.93815L429.13613 498.90395C450.37778 514.35262 471.88024 534.70938 495.05287 534.70938C546.2261 534.70938 572.2955 500.91545 572.2955 465.19091C572.2955 399.5346 539.91942 329.35899 432.75053 324.64444M539.52442 457.1139L762.18737 483.10109M509.99339 511.45113L523.57761 709.898377"
         unicode="R" />
      <glyph
         id="glyph34140"
         d=" M409.0116 506.53472C403.39016 452.19385 374.34579 253.56789 372.47203 98.04045C372.47203 85.86041 375.28276 75.55467 381.84117 67.12252C404.32712 39.01473 466.16338 9.9711 528.93661 7.15964C537.2371 6.81303 544.24318 9.67583 549.83014 15.32001M409.0116 506.53472L539.24216 512.15616L543.92719 512.15616C596.39486 504.66115 593.5834 456.87813 591.70983 437.20308C582.3407 330.39509 566.41058 268.55864 565.47619 71.8068C565.47619 45.19132 560.00861 25.60704 549.83014 15.32001M336.88172 287.88709L610.82884 285.5928 M215.04554 670.763166C216.94809 673.598096 219.91268 675.46965 224.43944 676.114285C272.2219 682.671598 456.79389 688.295793 598.26769 680.800045C629.18582 678.928492 706.94962 677.050154 719.12949 670.494308C739.74169 660.187838 769.72286 599.28837 786.58718 538.38907C789.26073 529.29833 788.88294 516.8509 782.31608 508.0138M215.04517 670.763166C211.43394 665.391322 211.64594 656.565406 212.2594 646.13423C216.00727 600.22552 244.11449 546.82124 251.60969 538.38907C271.28492 514.96615 275.96959 505.59683 310.63523 502.78611L310.63577 502.78611C338.74319 505.59335 372.47203 506.536 409.0116 506.536L539.24216 512.15744C655.41947 512.15744 741.61526 498.10402 755.66906 497.16687C768.94031 496.75055 777.37816 501.36736 782.31627 508.016M488.75626 716.575591L491.04852 487.90427"
         unicode="T" />
      <glyph
         id="glyph34142"
         d=" M424.68877 685.738502C414.14596 688.946612 402.02396 688.761611 395.23375 687.309185C352.61131 678.970784 282.1916 669.704121 257.17404 641.90703C244.20194 628.00848 239.56898 594.65216 242.34887 577.97392C258.10067 486.2428 287.75102 391.73216 322.03433 306.48673C340.56584 261.08458 365.75988 237.94204 400.96965 241.64857M424.68877 685.740134C434.2868 682.819862 442.57587 677.08016 444.34225 666.924412C462.87376 555.73552 471.38936 455.6874 485.2879 379.70846L400.96965 241.64857M488.6315 539.57145L234.71056 413.74438 M644.48255 694.720592C675.05952 702.133633 717.68196 657.657567 741.77289 640.97932C749.18557 636.34544 760.30477 626.15414 762.15767 612.2556C764.01057 595.57735 755.67199 575.19257 748.25894 562.22084C675.98615 444.54572 557.3844 175.83896 520.32138 34.99936C517.517 23.78186 507.92277 11.54632 493.79915 7.33395M644.48255 694.720592C633.36371 693.795594 624.09777 680.822049 617.61172 674.335819C593.52079 648.39235 529.58713 527.93752 480.47864 391.73052L396.1602 253.67081C374.84916 205.48894 356.31765 163.79331 346.12526 134.1426C340.56584 118.39116 340.56584 71.13557 366.50986 58.16384L461.0205 11.83487C473.45465 5.25416 484.5898 4.58707 493.79915 7.33123M487.49792 487.42317L673.40433 372.93204"
         unicode="Y" />
      <glyph
         id="glyph34144"
         d=" M287.4939 685.84785C282.43023 682.746908 278.78376 678.750229 277.45136 674.752815C264.32328 624.11646 246.50673 458.14063 233.37867 308.10618L233.37867 302.47992L231.5035 282.78727C204.30958 135.56596 243.69379 93.36918 282.14003 68.05101C319.64869 42.73209 391.85286 5.22343 457.49303 4.28622C600.96361 2.41323 686.29568 63.36196 722.86675 205.89497C724.74192 208.70462 725.67989 212.45772 726.61783 218.08544L728.49301 233.08905C733.18206 255.59392 736.93204 280.91211 739.74553 308.10618C760.37505 456.26546 770.69016 555.66282 777.25419 643.80837L777.25438 643.80782C778.12074 650.717488 776.99006 656.041254 774.14976 660.319505M287.49353 685.84785C293.12127 689.295706 300.49843 691.63362 308.39561 691.63362C340.27801 691.63362 405.91815 687.880514 439.6759 673.817613C454.67933 667.254865 469.68294 662.564538 465.93205 619.43035C456.55469 511.59288 424.67249 353.1183 424.67249 264.97348C424.67249 262.15686 423.73636 258.41053 423.73636 253.72095C424.67433 181.51676 439.67738 171.20147 467.80887 171.20147C511.88156 171.20147 527.8224 229.34 535.32457 279.97635C535.32457 282.78598 535.32457 285.60262 536.26069 288.41574C555.01501 445.01422 567.20531 609.11506 581.27097 681.31905C583.14615 689.758443 589.71055 699.135057 604.71396 699.135057C645.03576 699.135057 733.18113 681.31905 757.56173 671.941887C765.14467 668.910144 770.82231 665.330497 774.14976 660.321522M461.10497 226.00998L435.86645 -30.96419"
         unicode="U" />
      <glyph
         id="glyph34146"
         d=" M564.26451 10.69637C560.63506 7.78969 555.45556 6.33995 548.8239 6.33995C485.6992 6.33995 410.32624 37.43083 387.71437 65.69544C381.11832 74.17481 378.28964 84.539 378.28964 96.78723C378.28964 254.12791 427.28242 620.62776 442.35675 674.330505C443.60161 679.934554 446.49022 685.943595 452.65252 689.37994M564.26451 10.69637C568.37011 13.97929 570.4932 19.12412 570.4932 26.12516C570.4932 246.59018 611.00585 533.94915 628.90775 641.35538L628.90475 641.35538C631.73319 656.429343 624.19768 663.967063 609.11891 669.619984C585.56446 679.04158 497.00234 692.231483 464.96871 692.231483C459.85116 692.231483 455.81949 691.143389 452.65223 689.380679M365.83308 392.60676L616.86559 348.59487"
         unicode="I" />
      <glyph
         id="glyph34148"
         d=" M536.71333 688.6956C585.44301 682.585692 632.35499 668.836798 660.32058 651.102187C698.5809 625.90668 762.03708 553.11914 762.03708 404.74439C762.03708 179.84988 655.65518 5.34695 520.34468 5.34695C455.02259 5.34695 380.36877 20.27785 343.04186 45.47335C304.78246 70.66886 240.39397 143.4564 240.39397 292.76383C240.39397 516.72564 347.70819 692.162005 483.01776 692.162005C500.5931 692.162005 518.77633 690.947292 536.71333 688.696331M518.47877 546.58747C547.40736 546.58747 574.46913 526.99097 574.46913 427.14183C574.46913 269.43516 538.07563 177.98453 519.41218 161.18753C514.75006 156.52047 505.41413 149.98953 485.81817 149.98953C456.88959 149.98953 429.82781 170.51944 429.82781 268.50175C429.82781 426.20842 466.22132 517.65905 483.95135 536.32288C488.61348 540.98993 498.88191 546.5882 518.47877 546.5882ZM459.70554 362.24463L219.14035 370.31726M546.89024 357.40075L780.99735 355.78602M490.38166 181.41714L472.62184 -39.77421"
         unicode="O" />
      <glyph
         id="glyph34150"
         d=" M439.79304 341.99778C551.11461 362.21768 575.69807 402.67548 575.69807 467.80373C575.69807 503.24123 550.79627 539.63676 500.03467 539.63676C481.83615 539.63676 462.68094 534.84669 442.56847 527.18558L291.23717 503.24405C275.91288 526.23037 252.92186 569.3305 247.65561 583.21795C244.8618 590.58566 243.81867 597.54823 244.8858 603.60659M428.12552 279.76813C431.95607 274.97806 436.15483 254.37195 436.15483 254.37195C456.26843 228.51232 493.32576 217.82833 569.94736 236.9841C693.49944 267.63304 751.92367 390.22711 751.92367 500.37076C751.92367 546.34342 721.27434 618.17627 707.86534 628.71217C684.87976 645.95191 522.05886 694.797865 505.77675 694.797865C386.05485 694.797865 275.91195 635.41601 252.92524 617.219C248.42707 613.61942 245.83032 608.96827 244.88599 603.60659M548.25838 473.26984L787.29312 507.25046 M428.79482 9.31204C433.0875 12.63528 435.33856 17.96791 435.86367 25.31668C439.69424 128.75648 445.44456 208.25118 452.14597 276.25291L458.84982 349.0402C464.60053 394.0556 470.34355 434.28225 476.08995 473.55031L476.08695 473.55331C482.48539 507.64886 470.1647 518.1287 444.22597 542.09985L292.89429 518.15851M428.79501 9.31224C425.2558 6.57711 420.32774 5.20233 413.83537 5.20233C349.66458 5.20233 282.62068 36.80854 259.63396 65.54146C252.9288 74.16208 250.05307 84.69723 250.05307 97.14841C250.05307 253.26472 277.57001 458.7746 292.89429 518.15625M213.14105 224.8597L469.75187 283.44645"
         unicode="P" />
    </font>
</defs>
</svg>
