<?xml version="1.0" encoding="UTF-8" ?>
<!DOCTYPE svg PUBLIC "-//W3C//DTD SVG 1.1//EN" "http://www.w3.org/Graphics/SVG/1.1/DTD/svg11.dtd" >

<svg xmlns="http://www.w3.org/2000/svg" xmlns:xlink="http://www.w3.org/1999/xlink" version="1.1">

<metadata>
Font name: Hershey Serif bold

Originally prepared in 2011 and converted to SVG fonts
in 2019 by Windell H. Oskay, www.evilmadscientist.com

Contents adapted from emergent.unpythonic.net/software/hershey
 by way of "Hershey Fonts in SVG" by Marty McGuire
 http://www.thingiverse.com/thing:6168
 
-------------------------------------------------------------------
The Hershey Fonts are a set of vector fonts with a liberal license.

USE RESTRICTION:
    This distribution of the Hershey Fonts may be used by anyone for
    any purpose, commercial or otherwise, providing that:
        1. The following acknowledgements must be distributed with
            the font data:
            - The Hershey Fonts were originally created by Dr.
                A. V. Hershey while working at the U. S.
                National Bureau of Standards.
            - The format of the Font data in this distribution
                was originally created by
                    James Hurt
                    Cognition, Inc.
                    900 Technology Park Drive
                    Billerica, MA 01821
                    (mit-eddie!ci-dandelion!hurt)
        2. The font data in this distribution may be converted into
            any other format *EXCEPT* the format distributed by
            the U.S. NTIS where each point is described
            in eight bytes as "xxx yyy:", where xxx and yyy are
            the coordinate values as ASCII numbers.

</metadata>
<defs>
<font id="HersheySerifBold" horiz-adv-x="378" >
<font-face
font-family="Hershey Serif bold"
units-per-em="1000"
ascent="800"
descent="-200"
cap-height="500"
x-height="300"
/>
<missing-glyph horiz-adv-x="378" />
<glyph unicode=" " glyph-name="space" horiz-adv-x="378" />
<glyph unicode="!" glyph-name="exclam" horiz-adv-x="346" d="M 258 662 L 227 630 L 227 567 L 258 315 M 258 662 L 258 220 L 290 220 M 258 662 L 290 662 L 290 220 M 290 662 L 321 630 L 321 567 L 290 315 M 258 94.5 L 227 63 L 227 31.5 L 258 0 L 290 0 L 321 31.5 L 321 63 L 290 94.5 L 258 94.5 M 258 63 L 258 31.5 L 290 31.5 L 290 63 L 258 63" />
<glyph unicode="&#x22;" glyph-name="quotedbl" horiz-adv-x="567" d="M 189 662 L 158 630 L 158 441 M 189 630 L 158 441 M 189 662 L 220 630 L 158 441 M 472 662 L 441 630 L 441 441 M 472 630 L 441 441 M 472 662 L 504 630 L 441 441" />
<glyph unicode="#" glyph-name="numbersign" horiz-adv-x="662" d="M 378 788 L 158 -220 M 567 788 L 346 -220 M 158 378 L 598 378 M 126 189 L 567 189" />
<glyph unicode="$" glyph-name="dollar" horiz-adv-x="630" d="M 284 788 L 284 -126 M 410 788 L 410 -126 M 536 504 L 536 536 L 504 536 L 504 472 L 567 472 L 567 536 L 536 598 L 504 630 L 410 662 L 284 662 L 189 630 L 126 567 L 126 472 L 158 410 L 252 346 L 441 284 L 504 252 L 536 189 L 536 94.5 L 504 31.5 M 158 472 L 189 410 L 252 378 L 441 315 L 504 284 L 536 220 M 189 630 L 158 567 L 158 504 L 189 441 L 252 410 L 441 346 L 536 284 L 567 220 L 567 126 L 536 63 L 504 31.5 L 410 0 L 284 0 L 189 31.5 L 158 63 L 126 126 L 126 189 L 189 189 L 189 126 L 158 126 L 158 158" />
<glyph unicode="%" glyph-name="percent" horiz-adv-x="756" d="M 693 662 L 126 0 M 284 662 L 346 598 L 346 536 L 315 472 L 252 441 L 189 441 L 126 504 L 126 567 L 158 630 L 220 662 L 284 662 L 346 630 L 441 598 L 536 598 L 630 630 L 693 662 M 567 220 L 504 189 L 472 126 L 472 63 L 536 0 L 598 0 L 662 31.5 L 693 94.5 L 693 158 L 630 220 L 567 220" />
<glyph unicode="&amp;" glyph-name="ampersand" horiz-adv-x="819" d="M 724 378 L 724 410 L 693 410 L 693 346 L 756 346 L 756 410 L 724 441 L 693 441 L 662 410 L 630 346 L 567 189 L 504 94.5 L 441 31.5 L 378 0 L 252 0 L 189 31.5 L 158 94.5 L 158 189 L 189 252 L 378 378 L 441 441 L 472 504 L 472 567 L 441 630 L 378 662 L 315 630 L 284 567 L 284 472 L 315 378 L 378 284 L 504 126 L 598 31.5 L 662 0 L 724 0 L 756 63 L 756 94.5 M 220 31.5 L 189 94.5 L 189 189 L 220 252 L 252 284 M 441 441 L 472 567 M 472 504 L 441 630 M 315 630 L 284 504 M 315 410 L 378 315 L 504 158 L 598 63 L 662 31.5 M 315 0 L 252 31.5 L 220 94.5 L 220 189 L 252 252 L 378 378 M 284 567 L 315 441 L 410 315 L 536 158 L 630 63 L 693 31.5 L 724 31.5 L 756 63" />
<glyph unicode="&apos;" glyph-name="quotesingle" horiz-adv-x="284" d="M 189 662 L 158 630 L 158 441 M 189 630 L 158 441 M 189 662 L 220 630 L 158 441" />
<glyph unicode="(" glyph-name="parenleft" horiz-adv-x="441" d="M 346 788 L 284 724 L 220 630 L 158 504 L 126 346 L 126 220 L 158 63 L 220 -63 L 284 -158 L 346 -220 M 220 598 L 189 504 L 158 378 L 158 189 L 189 63 L 220 -31.5 M 284 724 L 252 662 L 220 567 L 189 378 L 189 189 L 220 0 L 252 -94.5 L 284 -158" />
<glyph unicode=")" glyph-name="parenright" horiz-adv-x="441" d="M 158 788 L 220 724 L 284 630 L 346 504 L 378 346 L 378 220 L 346 63 L 284 -63 L 220 -158 L 158 -220 M 284 598 L 315 504 L 346 378 L 346 189 L 315 63 L 284 -31.5 M 220 724 L 252 662 L 284 567 L 315 378 L 315 189 L 284 0 L 252 -94.5 L 220 -158" />
<glyph unicode="*" glyph-name="asterisk" horiz-adv-x="504" d="M 284 662 L 252 630 L 315 315 L 284 284 M 284 662 L 284 284 M 284 662 L 315 630 L 252 315 L 284 284 M 126 567 L 158 567 L 410 378 L 441 378 M 126 567 L 441 378 M 126 567 L 126 536 L 441 410 L 441 378 M 441 567 L 410 567 L 158 378 L 126 378 M 441 567 L 126 378 M 441 567 L 441 536 L 126 410 L 126 378" />
<glyph unicode="+" glyph-name="plus" horiz-adv-x="788" d="M 410 567 L 410 31.5 L 441 31.5 M 410 567 L 441 567 L 441 31.5 M 158 315 L 693 315 L 693 284 M 158 315 L 158 284 L 693 284" />
<glyph unicode="," glyph-name="comma" horiz-adv-x="346" d="M 252 31.5 L 220 0 L 189 0 L 158 31.5 L 158 63 L 189 94.5 L 220 94.5 L 252 63 L 252 -31.5 L 220 -94.5 L 158 -126 M 189 63 L 189 31.5 L 220 31.5 L 220 63 L 189 63 M 220 0 L 252 -31.5 M 252 31.5 L 220 -94.5" />
<glyph unicode="-" glyph-name="hyphen" horiz-adv-x="819" d="M 158 284 L 724 284" />
<glyph unicode="." glyph-name="period" horiz-adv-x="346" d="M 189 94.5 L 158 63 L 158 31.5 L 189 0 L 220 0 L 252 31.5 L 252 63 L 220 94.5 L 189 94.5 M 189 63 L 189 31.5 L 220 31.5 L 220 63 L 189 63" />
<glyph unicode="/" glyph-name="slash" horiz-adv-x="724" d="M 662 788 L 94.5 -220 L 126 -220 M 662 788 L 693 788 L 126 -220" />
<glyph unicode="0" glyph-name="zero" horiz-adv-x="630" d="M 315 662 L 220 630 L 158 536 L 126 378 L 126 284 L 158 126 L 220 31.5 L 315 0 L 378 0 L 472 31.5 L 536 126 L 567 284 L 567 378 L 536 536 L 472 630 L 378 662 L 315 662 M 220 598 L 189 536 L 158 410 L 158 252 L 189 126 L 220 63 M 472 63 L 504 126 L 536 252 L 536 410 L 504 536 L 472 598 M 315 662 L 252 630 L 220 567 L 189 410 L 189 252 L 220 94.5 L 252 31.5 L 315 0 M 378 0 L 441 31.5 L 472 94.5 L 504 252 L 504 410 L 472 567 L 441 630 L 378 662" />
<glyph unicode="1" glyph-name="one" horiz-adv-x="630" d="M 315 598 L 315 0 M 346 598 L 346 31.5 M 378 662 L 378 0 M 378 662 L 284 567 L 220 536 M 189 0 L 504 0 M 315 31.5 L 252 0 M 315 63 L 284 0 M 378 63 L 410 0 M 378 31.5 L 441 0" />
<glyph unicode="2" glyph-name="two" horiz-adv-x="630" d="M 158 536 L 158 504 L 189 504 L 189 536 L 158 536 M 158 567 L 189 567 L 220 536 L 220 504 L 189 472 L 158 472 L 126 504 L 126 536 L 158 598 L 189 630 L 284 662 L 410 662 L 504 630 L 536 598 L 567 536 L 567 472 L 536 410 L 441 346 L 284 284 L 220 252 L 158 189 L 126 94.5 L 126 0 M 504 598 L 536 536 L 536 472 L 504 410 M 410 662 L 472 630 L 504 536 L 504 472 L 472 410 L 410 346 L 284 284 M 126 63 L 158 94.5 L 220 94.5 L 378 63 L 504 63 L 567 94.5 M 220 94.5 L 378 31.5 L 504 31.5 L 536 63 M 220 94.5 L 378 0 L 504 0 L 536 31.5 L 567 94.5 L 567 158" />
<glyph unicode="3" glyph-name="three" horiz-adv-x="630" d="M 158 536 L 158 504 L 189 504 L 189 536 L 158 536 M 158 567 L 189 567 L 220 536 L 220 504 L 189 472 L 158 472 L 126 504 L 126 536 L 158 598 L 189 630 L 284 662 L 410 662 L 504 630 L 536 567 L 536 472 L 504 410 L 410 378 M 472 630 L 504 567 L 504 472 L 472 410 M 378 662 L 441 630 L 472 567 L 472 472 L 441 410 L 378 378 M 315 378 L 410 378 L 472 346 L 536 284 L 567 220 L 567 126 L 536 63 L 504 31.5 L 410 0 L 284 0 L 189 31.5 L 158 63 L 126 126 L 126 158 L 158 189 L 189 189 L 220 158 L 220 126 L 189 94.5 L 158 94.5 M 504 284 L 536 220 L 536 126 L 504 63 M 378 378 L 441 346 L 472 315 L 504 220 L 504 126 L 472 31.5 L 410 0 M 158 158 L 158 126 L 189 126 L 189 158 L 158 158" />
<glyph unicode="4" glyph-name="four" horiz-adv-x="630" d="M 378 567 L 378 0 M 410 598 L 410 31.5 M 441 662 L 441 0 M 441 662 L 94.5 189 L 598 189 M 284 0 L 536 0 M 378 31.5 L 315 0 M 378 63 L 346 0 M 441 63 L 472 0 M 441 31.5 L 504 0" />
<glyph unicode="5" glyph-name="five" horiz-adv-x="630" d="M 189 662 L 126 346 L 189 410 L 284 441 L 378 441 L 472 410 L 536 346 L 567 252 L 567 189 L 536 94.5 L 472 31.5 L 378 0 L 284 0 L 189 31.5 L 158 63 L 126 126 L 126 158 L 158 189 L 189 189 L 220 158 L 220 126 L 189 94.5 L 158 94.5 M 504 346 L 536 284 L 536 158 L 504 94.5 M 378 441 L 441 410 L 472 378 L 504 284 L 504 158 L 472 63 L 441 31.5 L 378 0 M 158 158 L 158 126 L 189 126 L 189 158 L 158 158 M 189 662 L 504 662 M 189 630 L 441 630 M 189 598 L 315 598 L 441 630 L 504 662" />
<glyph unicode="6" glyph-name="six" horiz-adv-x="630" d="M 472 567 L 472 536 L 504 536 L 504 567 L 472 567 M 504 598 L 472 598 L 441 567 L 441 536 L 472 504 L 504 504 L 536 536 L 536 567 L 504 630 L 441 662 L 346 662 L 252 630 L 189 567 L 158 504 L 126 378 L 126 189 L 158 94.5 L 220 31.5 L 315 0 L 378 0 L 472 31.5 L 536 94.5 L 567 189 L 567 220 L 536 315 L 472 378 L 378 410 L 315 410 L 252 378 L 220 346 L 189 284 M 220 567 L 189 504 L 158 378 L 158 189 L 189 94.5 L 220 63 M 504 94.5 L 536 158 L 536 252 L 504 315 M 346 662 L 284 630 L 252 598 L 220 536 L 189 410 L 189 189 L 220 94.5 L 252 31.5 L 315 0 M 378 0 L 441 31.5 L 472 63 L 504 158 L 504 252 L 472 346 L 441 378 L 378 410" />
<glyph unicode="7" glyph-name="seven" horiz-adv-x="630" d="M 126 662 L 126 472 M 567 662 L 567 567 L 536 472 L 410 315 L 378 252 L 346 126 L 346 0 M 378 284 L 346 220 L 315 126 L 315 0 M 536 472 L 378 315 L 315 220 L 284 126 L 284 0 L 346 0 M 126 536 L 158 598 L 220 662 L 284 662 L 441 567 L 504 567 L 536 598 L 567 662 M 189 598 L 220 630 L 284 630 L 346 598 M 126 536 L 158 567 L 220 598 L 284 598 L 441 567" />
<glyph unicode="8" glyph-name="eight" horiz-adv-x="630" d="M 284 662 L 189 630 L 158 567 L 158 472 L 189 410 L 284 378 L 410 378 L 504 410 L 536 472 L 536 567 L 504 630 L 410 662 L 284 662 M 220 630 L 189 567 L 189 472 L 220 410 M 472 410 L 504 472 L 504 567 L 472 630 M 284 662 L 252 630 L 220 567 L 220 472 L 252 410 L 284 378 M 410 378 L 441 410 L 472 472 L 472 567 L 441 630 L 410 662 M 284 378 L 189 346 L 158 315 L 126 252 L 126 126 L 158 63 L 189 31.5 L 284 0 L 410 0 L 504 31.5 L 536 63 L 567 126 L 567 252 L 536 315 L 504 346 L 410 378 M 189 315 L 158 252 L 158 126 L 189 63 M 504 63 L 536 126 L 536 252 L 504 315 M 284 378 L 220 346 L 189 252 L 189 126 L 220 31.5 L 284 0 M 410 0 L 472 31.5 L 504 126 L 504 252 L 472 346 L 410 378" />
<glyph unicode="9" glyph-name="nine" horiz-adv-x="630" d="M 189 126 L 189 94.5 L 220 94.5 L 220 126 L 189 126 M 504 378 L 472 315 L 441 284 L 378 252 L 315 252 L 220 284 L 158 346 L 126 441 L 126 472 L 158 567 L 220 630 L 315 662 L 378 662 L 472 630 L 536 567 L 567 472 L 567 284 L 536 158 L 504 94.5 L 441 31.5 L 346 0 L 252 0 L 189 31.5 L 158 94.5 L 158 126 L 189 158 L 220 158 L 252 126 L 252 94.5 L 220 63 L 189 63 M 189 346 L 158 410 L 158 504 L 189 567 M 472 598 L 504 567 L 536 472 L 536 284 L 504 158 L 472 94.5 M 315 252 L 252 284 L 220 315 L 189 410 L 189 504 L 220 598 L 252 630 L 315 662 M 378 662 L 441 630 L 472 567 L 504 472 L 504 252 L 472 126 L 441 63 L 410 31.5 L 346 0" />
<glyph unicode=":" glyph-name="colon" horiz-adv-x="346" d="M 189 441 L 158 410 L 158 378 L 189 346 L 220 346 L 252 378 L 252 410 L 220 441 L 189 441 M 189 410 L 189 378 L 220 378 L 220 410 L 189 410 M 189 94.5 L 158 63 L 158 31.5 L 189 0 L 220 0 L 252 31.5 L 252 63 L 220 94.5 L 189 94.5 M 189 63 L 189 31.5 L 220 31.5 L 220 63 L 189 63" />
<glyph unicode=";" glyph-name="semicolon" horiz-adv-x="346" d="M 189 441 L 158 410 L 158 378 L 189 346 L 220 346 L 252 378 L 252 410 L 220 441 L 189 441 M 189 410 L 189 378 L 220 378 L 220 410 L 189 410 M 252 31.5 L 220 0 L 189 0 L 158 31.5 L 158 63 L 189 94.5 L 220 94.5 L 252 63 L 252 -31.5 L 220 -94.5 L 158 -126 M 189 63 L 189 31.5 L 220 31.5 L 220 63 L 189 63 M 220 0 L 252 -31.5 M 252 31.5 L 220 -94.5" />
<glyph unicode="&#x3c;" glyph-name="less" horiz-adv-x="756" d="M 662 567 L 158 284 L 662 0" />
<glyph unicode="=" glyph-name="equal" horiz-adv-x="788" d="M 158 441 L 693 441 L 693 410 M 158 441 L 158 410 L 693 410 M 158 189 L 693 189 L 693 158 M 158 189 L 158 158 L 693 158" />
<glyph unicode="&#x3e;" glyph-name="greater" horiz-adv-x="756" d="M 158 567 L 662 284 L 158 0" />
<glyph unicode="?" glyph-name="question" horiz-adv-x="598" d="M 158 504 L 158 536 L 189 536 L 189 472 L 126 472 L 126 536 L 158 598 L 189 630 L 252 662 L 378 662 L 472 630 L 504 598 L 536 536 L 536 472 L 504 410 L 472 378 L 346 315 M 472 598 L 504 567 L 504 441 L 472 410 M 378 662 L 441 630 L 472 567 L 472 441 L 441 378 L 410 346 M 315 315 L 315 220 L 346 220 L 346 315 L 315 315 M 315 94.5 L 284 63 L 284 31.5 L 315 0 L 346 0 L 378 31.5 L 378 63 L 346 94.5 L 315 94.5 M 315 63 L 315 31.5 L 346 31.5 L 346 63 L 315 63" />
<glyph unicode="@" glyph-name="at" horiz-adv-x="850" d="M 598 410 L 567 472 L 504 504 L 410 504 L 346 472 L 315 441 L 284 346 L 284 252 L 315 189 L 378 158 L 472 158 L 536 189 L 567 252 M 410 504 L 346 441 L 315 346 L 315 252 L 346 189 L 378 158 M 598 504 L 567 252 L 567 189 L 630 158 L 693 158 L 756 220 L 788 315 L 788 378 L 756 472 L 724 536 L 662 598 L 598 630 L 504 662 L 410 662 L 315 630 L 252 598 L 189 536 L 158 472 L 126 378 L 126 284 L 158 189 L 189 126 L 252 63 L 315 31.5 L 410 0 L 504 0 L 598 31.5 L 662 63 L 693 94.5 M 630 504 L 598 252 L 598 189 L 630 158" />
<glyph unicode="A" glyph-name="A" horiz-adv-x="630" d="M 346 662 L 126 31.5 M 315 567 L 504 0 M 346 567 L 536 0 M 346 662 L 567 0 M 189 189 L 472 189 M 63 0 L 252 0 M 410 0 L 630 0 M 126 31.5 L 94.5 0 M 126 31.5 L 189 0 M 504 31.5 L 441 0 M 504 63 L 472 0 M 536 63 L 598 0" />
<glyph unicode="B" glyph-name="B" horiz-adv-x="693" d="M 189 662 L 189 0 M 220 630 L 220 31.5 M 252 662 L 252 0 M 94.5 662 L 472 662 L 567 630 L 598 598 L 630 536 L 630 472 L 598 410 L 567 378 L 472 346 M 567 598 L 598 536 L 598 472 L 567 410 M 472 662 L 536 630 L 567 567 L 567 441 L 536 378 L 472 346 M 252 346 L 472 346 L 567 315 L 598 284 L 630 220 L 630 126 L 598 63 L 567 31.5 L 472 0 L 94.5 0 M 567 284 L 598 220 L 598 126 L 567 63 M 472 346 L 536 315 L 567 252 L 567 94.5 L 536 31.5 L 472 0 M 126 662 L 189 630 M 158 662 L 189 598 M 284 662 L 252 598 M 315 662 L 252 630 M 189 31.5 L 126 0 M 189 63 L 158 0 M 252 63 L 284 0 M 252 31.5 L 315 0" />
<glyph unicode="C" glyph-name="C" horiz-adv-x="662" d="M 567 567 L 598 662 L 598 472 L 567 567 L 504 630 L 441 662 L 346 662 L 252 630 L 189 567 L 158 504 L 126 410 L 126 252 L 158 158 L 189 94.5 L 252 31.5 L 346 0 L 441 0 L 504 31.5 L 567 94.5 L 598 158 M 220 567 L 189 504 L 158 410 L 158 252 L 189 158 L 220 94.5 M 346 662 L 284 630 L 220 536 L 189 410 L 189 252 L 220 126 L 284 31.5 L 346 0" />
<glyph unicode="D" glyph-name="D" horiz-adv-x="693" d="M 189 662 L 189 0 M 220 630 L 220 31.5 M 252 662 L 252 0 M 94.5 662 L 410 662 L 504 630 L 567 567 L 598 504 L 630 410 L 630 252 L 598 158 L 567 94.5 L 504 31.5 L 410 0 L 94.5 0 M 536 567 L 567 504 L 598 410 L 598 252 L 567 158 L 536 94.5 M 410 662 L 472 630 L 536 536 L 567 410 L 567 252 L 536 126 L 472 31.5 L 410 0 M 126 662 L 189 630 M 158 662 L 189 598 M 284 662 L 252 598 M 315 662 L 252 630 M 189 31.5 L 126 0 M 189 63 L 158 0 M 252 63 L 284 0 M 252 31.5 L 315 0" />
<glyph unicode="E" glyph-name="E" horiz-adv-x="662" d="M 189 662 L 189 0 M 220 630 L 220 31.5 M 252 662 L 252 0 M 94.5 662 L 598 662 L 598 472 M 252 346 L 441 346 M 441 472 L 441 220 M 94.5 0 L 598 0 L 598 189 M 126 662 L 189 630 M 158 662 L 189 598 M 284 662 L 252 598 M 315 662 L 252 630 M 441 662 L 598 630 M 504 662 L 598 598 M 536 662 L 598 567 M 567 662 L 598 472 M 441 472 L 410 346 L 441 220 M 441 410 L 378 346 L 441 284 M 441 378 L 315 346 L 441 315 M 189 31.5 L 126 0 M 189 63 L 158 0 M 252 63 L 284 0 M 252 31.5 L 315 0 M 441 0 L 598 31.5 M 504 0 L 598 63 M 536 0 L 598 94.5 M 567 0 L 598 189" />
<glyph unicode="F" glyph-name="F" horiz-adv-x="630" d="M 189 662 L 189 0 M 220 630 L 220 31.5 M 252 662 L 252 0 M 94.5 662 L 598 662 L 598 472 M 252 346 L 441 346 M 441 472 L 441 220 M 94.5 0 L 346 0 M 126 662 L 189 630 M 158 662 L 189 598 M 284 662 L 252 598 M 315 662 L 252 630 M 441 662 L 598 630 M 504 662 L 598 598 M 536 662 L 598 567 M 567 662 L 598 472 M 441 472 L 410 346 L 441 220 M 441 410 L 378 346 L 441 284 M 441 378 L 315 346 L 441 315 M 189 31.5 L 126 0 M 189 63 L 158 0 M 252 63 L 284 0 M 252 31.5 L 315 0" />
<glyph unicode="G" glyph-name="G" horiz-adv-x="724" d="M 567 567 L 598 662 L 598 472 L 567 567 L 504 630 L 441 662 L 346 662 L 252 630 L 189 567 L 158 504 L 126 410 L 126 252 L 158 158 L 189 94.5 L 252 31.5 L 346 0 L 441 0 L 504 31.5 L 567 31.5 L 598 0 L 598 252 M 220 567 L 189 504 L 158 410 L 158 252 L 189 158 L 220 94.5 M 346 662 L 284 630 L 220 536 L 189 410 L 189 252 L 220 126 L 284 31.5 L 346 0 M 567 220 L 567 63 M 536 252 L 536 63 L 504 31.5 M 441 252 L 693 252 M 472 252 L 536 220 M 504 252 L 536 189 M 630 252 L 598 189 M 662 252 L 598 220" />
<glyph unicode="H" glyph-name="H" horiz-adv-x="756" d="M 189 662 L 189 0 M 220 630 L 220 31.5 M 252 662 L 252 0 M 567 662 L 567 0 M 598 630 L 598 31.5 M 630 662 L 630 0 M 94.5 662 L 346 662 M 472 662 L 724 662 M 252 346 L 567 346 M 94.5 0 L 346 0 M 472 0 L 724 0 M 126 662 L 189 630 M 158 662 L 189 598 M 284 662 L 252 598 M 315 662 L 252 630 M 504 662 L 567 630 M 536 662 L 567 598 M 662 662 L 630 598 M 693 662 L 630 630 M 189 31.5 L 126 0 M 189 63 L 158 0 M 252 63 L 284 0 M 252 31.5 L 315 0 M 567 31.5 L 504 0 M 567 63 L 536 0 M 630 63 L 662 0 M 630 31.5 L 693 0" />
<glyph unicode="I" glyph-name="I" horiz-adv-x="378" d="M 189 662 L 189 0 M 220 630 L 220 31.5 M 252 662 L 252 0 M 94.5 662 L 346 662 M 94.5 0 L 346 0 M 126 662 L 189 630 M 158 662 L 189 598 M 284 662 L 252 598 M 315 662 L 252 630 M 189 31.5 L 126 0 M 189 63 L 158 0 M 252 63 L 284 0 M 252 31.5 L 315 0" />
<glyph unicode="J" glyph-name="J" horiz-adv-x="504" d="M 315 662 L 315 126 L 284 31.5 L 252 0 M 346 630 L 346 126 L 315 31.5 M 378 662 L 378 126 L 346 31.5 L 252 0 L 189 0 L 126 31.5 L 94.5 94.5 L 94.5 158 L 126 189 L 158 189 L 189 158 L 189 126 L 158 94.5 L 126 94.5 M 126 158 L 126 126 L 158 126 L 158 158 L 126 158 M 220 662 L 472 662 M 252 662 L 315 630 M 284 662 L 315 598 M 410 662 L 378 598 M 441 662 L 378 630" />
<glyph unicode="K" glyph-name="K" horiz-adv-x="693" d="M 189 662 L 189 0 M 220 630 L 220 31.5 M 252 662 L 252 0 M 598 630 L 252 284 M 346 346 L 567 0 M 378 346 L 598 0 M 378 410 L 630 0 M 94.5 662 L 346 662 M 504 662 L 693 662 M 94.5 0 L 346 0 M 472 0 L 693 0 M 126 662 L 189 630 M 158 662 L 189 598 M 284 662 L 252 598 M 315 662 L 252 630 M 567 662 L 598 630 M 662 662 L 598 630 M 189 31.5 L 126 0 M 189 63 L 158 0 M 252 63 L 284 0 M 252 31.5 L 315 0 M 567 63 L 504 0 M 567 63 L 662 0" />
<glyph unicode="L" glyph-name="L" horiz-adv-x="567" d="M 189 662 L 189 0 M 220 630 L 220 31.5 M 252 662 L 252 0 M 94.5 662 L 346 662 M 94.5 0 L 567 0 L 567 189 M 126 662 L 189 630 M 158 662 L 189 598 M 284 662 L 252 598 M 315 662 L 252 630 M 189 31.5 L 126 0 M 189 63 L 158 0 M 252 63 L 284 0 M 252 31.5 L 315 0 M 410 0 L 567 31.5 M 472 0 L 567 63 M 504 0 L 567 94.5 M 536 0 L 567 189" />
<glyph unicode="M" glyph-name="M" horiz-adv-x="819" d="M 189 662 L 189 31.5 M 189 662 L 410 0 M 220 662 L 410 94.5 M 252 662 L 441 94.5 M 630 662 L 410 0 M 630 662 L 630 0 M 662 630 L 662 31.5 M 693 662 L 693 0 M 94.5 662 L 252 662 M 630 662 L 788 662 M 94.5 0 L 284 0 M 536 0 L 788 0 M 126 662 L 189 630 M 724 662 L 693 598 M 756 662 L 693 630 M 189 31.5 L 126 0 M 189 31.5 L 252 0 M 630 31.5 L 567 0 M 630 63 L 598 0 M 693 63 L 724 0 M 693 31.5 L 756 0" />
<glyph unicode="N" glyph-name="N" horiz-adv-x="756" d="M 189 662 L 189 31.5 M 189 662 L 630 0 M 220 662 L 598 94.5 M 252 662 L 630 94.5 M 630 630 L 630 0 M 94.5 662 L 252 662 M 536 662 L 724 662 M 94.5 0 L 284 0 M 126 662 L 189 630 M 567 662 L 630 630 M 693 662 L 630 630 M 189 31.5 L 126 0 M 189 31.5 L 252 0" />
<glyph unicode="O" glyph-name="O" horiz-adv-x="693" d="M 346 662 L 252 630 L 189 567 L 158 504 L 126 378 L 126 284 L 158 158 L 189 94.5 L 252 31.5 L 346 0 L 410 0 L 504 31.5 L 567 94.5 L 598 158 L 630 284 L 630 378 L 598 504 L 567 567 L 504 630 L 410 662 L 346 662 M 220 567 L 189 504 L 158 410 L 158 252 L 189 158 L 220 94.5 M 536 94.5 L 567 158 L 598 252 L 598 410 L 567 504 L 536 567 M 346 662 L 284 630 L 220 536 L 189 410 L 189 252 L 220 126 L 284 31.5 L 346 0 M 410 0 L 472 31.5 L 536 126 L 567 252 L 567 410 L 536 536 L 472 630 L 410 662" />
<glyph unicode="P" glyph-name="P" horiz-adv-x="693" d="M 189 662 L 189 0 M 220 630 L 220 31.5 M 252 662 L 252 0 M 94.5 662 L 472 662 L 567 630 L 598 598 L 630 536 L 630 441 L 598 378 L 567 346 L 472 315 L 252 315 M 567 598 L 598 536 L 598 441 L 567 378 M 472 662 L 536 630 L 567 567 L 567 410 L 536 346 L 472 315 M 94.5 0 L 346 0 M 126 662 L 189 630 M 158 662 L 189 598 M 284 662 L 252 598 M 315 662 L 252 630 M 189 31.5 L 126 0 M 189 63 L 158 0 M 252 63 L 284 0 M 252 31.5 L 315 0" />
<glyph unicode="Q" glyph-name="Q" horiz-adv-x="693" d="M 346 662 L 252 630 L 189 567 L 158 504 L 126 378 L 126 284 L 158 158 L 189 94.5 L 252 31.5 L 346 0 L 410 0 L 504 31.5 L 567 94.5 L 598 158 L 630 284 L 630 378 L 598 504 L 567 567 L 504 630 L 410 662 L 346 662 M 220 567 L 189 504 L 158 410 L 158 252 L 189 158 L 220 94.5 M 536 94.5 L 567 158 L 598 252 L 598 410 L 567 504 L 536 567 M 346 662 L 284 630 L 220 536 L 189 410 L 189 252 L 220 126 L 284 31.5 L 346 0 M 410 0 L 472 31.5 L 536 126 L 567 252 L 567 410 L 536 536 L 472 630 L 410 662 M 252 94.5 L 284 158 L 346 189 L 378 189 L 441 158 L 472 94.5 L 504 -94.5 L 536 -158 L 598 -158 L 630 -94.5 L 630 -31.5 M 504 -31.5 L 536 -94.5 L 567 -126 L 598 -126 M 472 94.5 L 536 -63 L 567 -94.5 L 598 -94.5 L 630 -63" />
<glyph unicode="R" glyph-name="R" horiz-adv-x="693" d="M 189 662 L 189 0 M 220 630 L 220 31.5 M 252 662 L 252 0 M 94.5 662 L 472 662 L 567 630 L 598 598 L 630 536 L 630 472 L 598 410 L 567 378 L 472 346 L 252 346 M 567 598 L 598 536 L 598 472 L 567 410 M 472 662 L 536 630 L 567 567 L 567 441 L 536 378 L 472 346 M 378 346 L 441 315 L 472 252 L 536 63 L 567 0 L 630 0 L 662 63 L 662 126 M 536 126 L 567 63 L 598 31.5 L 630 31.5 M 441 315 L 472 284 L 567 94.5 L 598 63 L 630 63 L 662 94.5 M 94.5 0 L 346 0 M 126 662 L 189 630 M 158 662 L 189 598 M 284 662 L 252 598 M 315 662 L 252 630 M 189 31.5 L 126 0 M 189 63 L 158 0 M 252 63 L 284 0 M 252 31.5 L 315 0" />
<glyph unicode="S" glyph-name="S" horiz-adv-x="630" d="M 536 567 L 567 662 L 567 472 L 536 567 L 472 630 L 378 662 L 284 662 L 189 630 L 126 567 L 126 472 L 158 410 L 252 346 L 441 284 L 504 252 L 536 189 L 536 94.5 L 504 31.5 M 158 472 L 189 410 L 252 378 L 441 315 L 504 284 L 536 220 M 189 630 L 158 567 L 158 504 L 189 441 L 252 410 L 441 346 L 536 284 L 567 220 L 567 126 L 536 63 L 504 31.5 L 410 0 L 315 0 L 220 31.5 L 158 94.5 L 126 189 L 126 0 L 158 94.5" />
<glyph unicode="T" glyph-name="T" horiz-adv-x="630" d="M 94.5 662 L 94.5 472 M 315 662 L 315 0 M 346 630 L 346 31.5 M 378 662 L 378 0 M 598 662 L 598 472 M 94.5 662 L 598 662 M 220 0 L 472 0 M 126 662 L 94.5 472 M 158 662 L 94.5 567 M 189 662 L 94.5 598 M 252 662 L 94.5 630 M 441 662 L 598 630 M 504 662 L 598 598 M 536 662 L 598 567 M 567 662 L 598 472 M 315 31.5 L 252 0 M 315 63 L 284 0 M 378 63 L 410 0 M 378 31.5 L 441 0" />
<glyph unicode="U" glyph-name="U" horiz-adv-x="756" d="M 189 662 L 189 189 L 220 94.5 L 284 31.5 L 378 0 L 441 0 L 536 31.5 L 598 94.5 L 630 189 L 630 630 M 220 630 L 220 158 L 252 94.5 M 252 662 L 252 158 L 284 63 L 315 31.5 L 378 0 M 94.5 662 L 346 662 M 536 662 L 724 662 M 126 662 L 189 630 M 158 662 L 189 598 M 284 662 L 252 598 M 315 662 L 252 630 M 567 662 L 630 630 M 693 662 L 630 630" />
<glyph unicode="V" glyph-name="V" horiz-adv-x="630" d="M 126 662 L 346 0 M 158 662 L 346 94.5 L 346 0 M 189 662 L 378 94.5 M 567 630 L 346 0 M 63 662 L 284 662 M 441 662 L 630 662 M 94.5 662 L 158 598 M 220 662 L 189 598 M 252 662 L 189 630 M 504 662 L 567 630 M 598 662 L 567 630" />
<glyph unicode="W" glyph-name="W" horiz-adv-x="756" d="M 158 662 L 284 0 M 189 662 L 284 158 L 284 0 M 220 662 L 315 158 M 410 662 L 315 158 L 284 0 M 410 662 L 536 0 M 441 662 L 536 158 L 536 0 M 472 662 L 567 158 M 662 630 L 567 158 L 536 0 M 63 662 L 315 662 M 410 662 L 472 662 M 567 662 L 756 662 M 94.5 662 L 189 630 M 126 662 L 189 598 M 252 662 L 220 598 M 284 662 L 220 630 M 598 662 L 662 630 M 724 662 L 662 630" />
<glyph unicode="X" glyph-name="X" horiz-adv-x="630" d="M 126 662 L 504 0 M 158 662 L 536 0 M 189 662 L 567 0 M 536 630 L 158 31.5 M 63 662 L 284 662 M 441 662 L 630 662 M 63 0 L 252 0 M 410 0 L 630 0 M 94.5 662 L 189 598 M 220 662 L 189 598 M 252 662 L 189 630 M 472 662 L 536 630 M 598 662 L 536 630 M 158 31.5 L 94.5 0 M 158 31.5 L 220 0 M 504 31.5 L 441 0 M 504 63 L 472 0 M 504 63 L 598 0" />
<glyph unicode="Y" glyph-name="Y" horiz-adv-x="693" d="M 126 662 L 346 315 L 346 0 M 158 662 L 378 315 L 378 31.5 M 189 662 L 410 315 L 410 0 M 598 630 L 410 315 M 63 662 L 284 662 M 504 662 L 693 662 M 252 0 L 504 0 M 94.5 662 L 158 630 M 252 662 L 189 630 M 536 662 L 598 630 M 662 662 L 598 630 M 346 31.5 L 284 0 M 346 63 L 315 0 M 410 63 L 441 0 M 410 31.5 L 472 0" />
<glyph unicode="Z" glyph-name="Z" horiz-adv-x="630" d="M 567 662 L 126 662 L 126 472 M 504 662 L 126 0 M 536 662 L 158 0 M 567 662 L 189 0 M 126 0 L 567 0 L 567 189 M 158 662 L 126 472 M 189 662 L 126 567 M 220 662 L 126 598 M 284 662 L 126 630 M 410 0 L 567 31.5 M 472 0 L 567 63 M 504 0 L 567 94.5 M 536 0 L 567 189" />
<glyph unicode="[" glyph-name="bracketleft" horiz-adv-x="441" d="M 158 788 L 158 -220 M 189 788 L 189 -220 M 158 788 L 378 788 M 158 -220 L 378 -220" />
<glyph unicode="\" glyph-name="backslash" horiz-adv-x="441" d="M 31.5 662 L 472 -94.5" />
<glyph unicode="]" glyph-name="bracketright" horiz-adv-x="441" d="M 315 788 L 315 -220 M 346 788 L 346 -220 M 126 788 L 346 788 M 126 -220 L 346 -220" />
<glyph unicode="^" glyph-name="asciicircum" horiz-adv-x="693" d="M 126 220 L 378 378 L 630 220 M 126 220 L 378 346 L 630 220" />
<glyph unicode="_" glyph-name="underscore" horiz-adv-x="630" d="M 31.5 -220 L 662 -220" />
<glyph unicode="`" glyph-name="grave" horiz-adv-x="378" d="M 158 662 L 315 472 M 158 662 L 126 630 L 315 472" />
<glyph unicode="a" glyph-name="a" horiz-adv-x="630" d="M 189 346 L 189 378 L 220 378 L 220 315 L 158 315 L 158 378 L 189 410 L 252 441 L 378 441 L 441 410 L 472 378 L 504 315 L 504 94.5 L 536 31.5 L 567 0 M 441 378 L 472 315 L 472 94.5 L 504 31.5 M 378 441 L 410 410 L 441 346 L 441 94.5 L 472 31.5 L 567 0 L 598 0 M 441 284 L 410 252 L 252 220 L 158 189 L 126 126 L 126 94.5 L 158 31.5 L 252 0 L 346 0 L 410 31.5 L 441 94.5 M 189 189 L 158 126 L 158 94.5 L 189 31.5 M 410 252 L 284 220 L 220 189 L 189 126 L 189 94.5 L 220 31.5 L 252 0" />
<glyph unicode="b" glyph-name="b" horiz-adv-x="662" d="M 189 662 L 189 0 L 220 31.5 L 284 31.5 M 220 630 L 220 63 M 94.5 662 L 252 662 L 252 31.5 M 252 346 L 284 410 L 346 441 L 410 441 L 504 410 L 567 346 L 598 252 L 598 189 L 567 94.5 L 504 31.5 L 410 0 L 346 0 L 284 31.5 L 252 94.5 M 536 346 L 567 284 L 567 158 L 536 94.5 M 410 441 L 472 410 L 504 378 L 536 284 L 536 158 L 504 63 L 472 31.5 L 410 0 M 126 662 L 189 630 M 158 662 L 189 598" />
<glyph unicode="c" glyph-name="c" horiz-adv-x="598" d="M 504 315 L 504 346 L 472 346 L 472 284 L 536 284 L 536 346 L 472 410 L 410 441 L 315 441 L 220 410 L 158 346 L 126 252 L 126 189 L 158 94.5 L 220 31.5 L 315 0 L 378 0 L 472 31.5 L 536 94.5 M 189 346 L 158 284 L 158 158 L 189 94.5 M 315 441 L 252 410 L 220 378 L 189 284 L 189 158 L 220 63 L 252 31.5 L 315 0" />
<glyph unicode="d" glyph-name="d" horiz-adv-x="662" d="M 472 662 L 472 0 L 630 0 M 504 630 L 504 31.5 M 378 662 L 536 662 L 536 0 M 472 346 L 441 410 L 378 441 L 315 441 L 220 410 L 158 346 L 126 252 L 126 189 L 158 94.5 L 220 31.5 L 315 0 L 378 0 L 441 31.5 L 472 94.5 M 189 346 L 158 284 L 158 158 L 189 94.5 M 315 441 L 252 410 L 220 378 L 189 284 L 189 158 L 220 63 L 252 31.5 L 315 0 M 410 662 L 472 630 M 441 662 L 472 598 M 536 63 L 567 0 M 536 31.5 L 598 0" />
<glyph unicode="e" glyph-name="e" horiz-adv-x="598" d="M 189 252 L 536 252 L 536 315 L 504 378 L 472 410 L 378 441 L 315 441 L 220 410 L 158 346 L 126 252 L 126 189 L 158 94.5 L 220 31.5 L 315 0 L 378 0 L 472 31.5 L 536 94.5 M 504 284 L 504 315 L 472 378 M 189 346 L 158 284 L 158 158 L 189 94.5 M 472 252 L 472 346 L 441 410 L 378 441 M 315 441 L 252 410 L 220 378 L 189 284 L 189 158 L 220 63 L 252 31.5 L 315 0" />
<glyph unicode="f" glyph-name="f" horiz-adv-x="441" d="M 410 598 L 410 630 L 378 630 L 378 567 L 441 567 L 441 630 L 410 662 L 315 662 L 252 630 L 220 598 L 189 504 L 189 0 M 252 598 L 220 504 L 220 31.5 M 315 662 L 284 630 L 252 567 L 252 0 M 94.5 441 L 378 441 M 94.5 0 L 346 0 M 189 31.5 L 126 0 M 189 63 L 158 0 M 252 63 L 284 0 M 252 31.5 L 315 0" />
<glyph unicode="g" glyph-name="g" horiz-adv-x="598" d="M 504 410 L 536 378 L 567 410 L 536 441 L 504 441 L 441 410 L 410 378 M 284 441 L 220 410 L 189 378 L 158 315 L 158 252 L 189 189 L 220 158 L 284 126 L 346 126 L 410 158 L 441 189 L 472 252 L 472 315 L 441 378 L 410 410 L 346 441 L 284 441 M 220 378 L 189 315 L 189 252 L 220 189 M 410 189 L 441 252 L 441 315 L 410 378 M 284 441 L 252 410 L 220 346 L 220 220 L 252 158 L 284 126 M 346 126 L 378 158 L 410 220 L 410 346 L 378 410 L 346 441 M 189 189 L 158 158 L 126 94.5 L 126 63 L 158 0 L 189 -31.5 L 284 -63 L 410 -63 L 504 -94.5 L 536 -126 M 189 0 L 284 -31.5 L 410 -31.5 L 504 -63 M 126 63 L 158 31.5 L 252 0 L 410 0 L 504 -31.5 L 536 -94.5 L 536 -126 L 504 -189 L 410 -220 L 220 -220 L 126 -189 L 94.5 -126 L 94.5 -94.5 L 126 -31.5 L 220 0 M 220 -220 L 158 -189 L 126 -126 L 126 -94.5 L 158 -31.5 L 220 0" />
<glyph unicode="h" glyph-name="h" horiz-adv-x="724" d="M 189 662 L 189 0 M 220 630 L 220 31.5 M 94.5 662 L 252 662 L 252 0 M 252 315 L 284 378 L 315 410 L 378 441 L 472 441 L 536 410 L 567 378 L 598 284 L 598 0 M 536 378 L 567 284 L 567 31.5 M 472 441 L 504 410 L 536 315 L 536 0 M 94.5 0 L 346 0 M 441 0 L 693 0 M 126 662 L 189 630 M 158 662 L 189 598 M 189 31.5 L 126 0 M 189 63 L 158 0 M 252 63 L 284 0 M 252 31.5 L 315 0 M 536 31.5 L 472 0 M 536 63 L 504 0 M 598 63 L 630 0 M 598 31.5 L 662 0" />
<glyph unicode="i" glyph-name="i" horiz-adv-x="378" d="M 189 662 L 189 598 L 252 598 L 252 662 L 189 662 M 220 662 L 220 598 M 189 630 L 252 630 M 189 441 L 189 0 M 220 410 L 220 31.5 M 94.5 441 L 252 441 L 252 0 M 94.5 0 L 346 0 M 126 441 L 189 410 M 158 441 L 189 378 M 189 31.5 L 126 0 M 189 63 L 158 0 M 252 63 L 284 0 M 252 31.5 L 315 0" />
<glyph unicode="j" glyph-name="j" horiz-adv-x="410" d="M 252 662 L 252 598 L 315 598 L 315 662 L 252 662 M 284 662 L 284 598 M 252 630 L 315 630 M 252 441 L 252 -94.5 L 220 -189 L 189 -220 M 284 410 L 284 -63 L 252 -158 M 158 441 L 315 441 L 315 -63 L 284 -158 L 252 -189 L 189 -220 L 94.5 -220 L 63 -189 L 63 -126 L 126 -126 L 126 -189 L 94.5 -189 L 94.5 -158 M 189 441 L 252 410 M 220 441 L 252 378" />
<glyph unicode="k" glyph-name="k" horiz-adv-x="693" d="M 189 662 L 189 0 M 220 630 L 220 31.5 M 94.5 662 L 252 662 L 252 0 M 536 410 L 252 126 M 378 252 L 598 0 M 378 220 L 567 0 M 346 220 L 536 0 M 441 441 L 662 441 M 94.5 0 L 346 0 M 441 0 L 662 0 M 126 662 L 189 630 M 158 662 L 189 598 M 472 441 L 536 410 M 630 441 L 536 410 M 189 31.5 L 126 0 M 189 63 L 158 0 M 252 63 L 284 0 M 252 31.5 L 315 0 M 536 63 L 472 0 M 504 63 L 630 0" />
<glyph unicode="l" glyph-name="l" horiz-adv-x="378" d="M 189 662 L 189 0 M 220 630 L 220 31.5 M 94.5 662 L 252 662 L 252 0 M 94.5 0 L 346 0 M 126 662 L 189 630 M 158 662 L 189 598 M 189 31.5 L 126 0 M 189 63 L 158 0 M 252 63 L 284 0 M 252 31.5 L 315 0" />
<glyph unicode="m" glyph-name="m" horiz-adv-x="1071.0" d="M 189 441 L 189 0 M 220 410 L 220 31.5 M 94.5 441 L 252 441 L 252 0 M 252 315 L 284 378 L 315 410 L 378 441 L 472 441 L 536 410 L 567 378 L 598 284 L 598 0 M 536 378 L 567 284 L 567 31.5 M 472 441 L 504 410 L 536 315 L 536 0 M 598 315 L 630 378 L 662 410 L 724 441 L 819 441 L 882 410 L 914 378 L 945 284 L 945 0 M 882 378 L 914 284 L 914 31.5 M 819 441 L 850 410 L 882 315 L 882 0 M 94.5 0 L 346 0 M 441 0 L 693 0 M 788 0 L 1039.5 0 M 126 441 L 189 410 M 158 441 L 189 378 M 189 31.5 L 126 0 M 189 63 L 158 0 M 252 63 L 284 0 M 252 31.5 L 315 0 M 536 31.5 L 472 0 M 536 63 L 504 0 M 598 63 L 630 0 M 598 31.5 L 662 0 M 882 31.5 L 819 0 M 882 63 L 850 0 M 945 63 L 976 0 M 945 31.5 L 1008.0 0" />
<glyph unicode="n" glyph-name="n" horiz-adv-x="724" d="M 189 441 L 189 0 M 220 410 L 220 31.5 M 94.5 441 L 252 441 L 252 0 M 252 315 L 284 378 L 315 410 L 378 441 L 472 441 L 536 410 L 567 378 L 598 284 L 598 0 M 536 378 L 567 284 L 567 31.5 M 472 441 L 504 410 L 536 315 L 536 0 M 94.5 0 L 346 0 M 441 0 L 693 0 M 126 441 L 189 410 M 158 441 L 189 378 M 189 31.5 L 126 0 M 189 63 L 158 0 M 252 63 L 284 0 M 252 31.5 L 315 0 M 536 31.5 L 472 0 M 536 63 L 504 0 M 598 63 L 630 0 M 598 31.5 L 662 0" />
<glyph unicode="o" glyph-name="o" horiz-adv-x="630" d="M 315 441 L 220 410 L 158 346 L 126 252 L 126 189 L 158 94.5 L 220 31.5 L 315 0 L 378 0 L 472 31.5 L 536 94.5 L 567 189 L 567 252 L 536 346 L 472 410 L 378 441 L 315 441 M 189 346 L 158 284 L 158 158 L 189 94.5 M 504 94.5 L 536 158 L 536 284 L 504 346 M 315 441 L 252 410 L 220 378 L 189 284 L 189 158 L 220 63 L 252 31.5 L 315 0 M 378 0 L 441 31.5 L 472 63 L 504 158 L 504 284 L 472 378 L 441 410 L 378 441" />
<glyph unicode="p" glyph-name="p" horiz-adv-x="662" d="M 189 441 L 189 -220 M 220 410 L 220 -189 M 94.5 441 L 252 441 L 252 -220 M 252 346 L 284 410 L 346 441 L 410 441 L 504 410 L 567 346 L 598 252 L 598 189 L 567 94.5 L 504 31.5 L 410 0 L 346 0 L 284 31.5 L 252 94.5 M 536 346 L 567 284 L 567 158 L 536 94.5 M 410 441 L 472 410 L 504 378 L 536 284 L 536 158 L 504 63 L 472 31.5 L 410 0 M 94.5 -220 L 346 -220 M 126 441 L 189 410 M 158 441 L 189 378 M 189 -189 L 126 -220 M 189 -158 L 158 -220 M 252 -158 L 284 -220 M 252 -189 L 315 -220" />
<glyph unicode="q" glyph-name="q" horiz-adv-x="630" d="M 472 410 L 472 -220 M 504 378 L 504 -189 M 441 410 L 504 410 L 536 441 L 536 -220 M 472 346 L 441 410 L 378 441 L 315 441 L 220 410 L 158 346 L 126 252 L 126 189 L 158 94.5 L 220 31.5 L 315 0 L 378 0 L 441 31.5 L 472 94.5 M 189 346 L 158 284 L 158 158 L 189 94.5 M 315 441 L 252 410 L 220 378 L 189 284 L 189 158 L 220 63 L 252 31.5 L 315 0 M 378 -220 L 630 -220 M 472 -189 L 410 -220 M 472 -158 L 441 -220 M 536 -158 L 567 -220 M 536 -189 L 598 -220" />
<glyph unicode="r" glyph-name="r" horiz-adv-x="536" d="M 189 441 L 189 0 M 220 410 L 220 31.5 M 94.5 441 L 252 441 L 252 0 M 472 378 L 472 410 L 441 410 L 441 346 L 504 346 L 504 410 L 472 441 L 410 441 L 346 410 L 284 346 L 252 252 M 94.5 0 L 346 0 M 126 441 L 189 410 M 158 441 L 189 378 M 189 31.5 L 126 0 M 189 63 L 158 0 M 252 63 L 284 0 M 252 31.5 L 315 0" />
<glyph unicode="s" glyph-name="s" horiz-adv-x="536" d="M 441 378 L 472 441 L 472 315 L 441 378 L 410 410 L 346 441 L 220 441 L 158 410 L 126 378 L 126 315 L 158 252 L 220 220 L 378 189 L 441 158 L 472 63 M 158 410 L 126 315 M 158 284 L 220 252 L 378 220 L 441 189 M 472 158 L 441 31.5 M 126 378 L 158 315 L 220 284 L 378 252 L 441 220 L 472 158 L 472 63 L 441 31.5 L 378 0 L 252 0 L 189 31.5 L 158 63 L 126 126 L 126 0 L 158 63" />
<glyph unicode="t" glyph-name="t" horiz-adv-x="472" d="M 189 598 L 189 158 L 220 63 L 252 31.5 L 315 0 L 378 0 L 441 31.5 L 472 94.5 M 220 598 L 220 126 L 252 63 M 189 598 L 252 662 L 252 126 L 284 31.5 L 315 0 M 94.5 441 L 378 441" />
<glyph unicode="u" glyph-name="u" horiz-adv-x="724" d="M 189 441 L 189 158 L 220 63 L 252 31.5 L 315 0 L 410 0 L 472 31.5 L 504 63 L 536 126 M 220 410 L 220 126 L 252 63 M 94.5 441 L 252 441 L 252 126 L 284 31.5 L 315 0 M 536 441 L 536 0 L 693 0 M 567 410 L 567 31.5 M 441 441 L 598 441 L 598 0 M 126 441 L 189 410 M 158 441 L 189 378 M 598 63 L 630 0 M 598 31.5 L 662 0" />
<glyph unicode="v" glyph-name="v" horiz-adv-x="567" d="M 126 441 L 315 0 M 158 441 L 315 63 M 189 441 L 346 63 M 504 410 L 346 63 L 315 0 M 63 441 L 284 441 M 378 441 L 567 441 M 94.5 441 L 189 378 M 252 441 L 189 410 M 441 441 L 504 410 M 536 441 L 504 410" />
<glyph unicode="w" glyph-name="w" horiz-adv-x="756" d="M 158 441 L 284 0 M 189 441 L 284 94.5 M 220 441 L 315 94.5 M 410 441 L 315 94.5 L 284 0 M 410 441 L 536 0 M 441 441 L 536 94.5 M 410 441 L 472 441 L 567 94.5 M 662 410 L 567 94.5 L 536 0 M 63 441 L 315 441 M 567 441 L 756 441 M 94.5 441 L 189 410 M 284 441 L 220 410 M 598 441 L 662 410 M 724 441 L 662 410" />
<glyph unicode="x" glyph-name="x" horiz-adv-x="630" d="M 158 441 L 472 0 M 189 441 L 504 0 M 220 441 L 536 0 M 504 410 L 189 31.5 M 94.5 441 L 315 441 M 410 441 L 598 441 M 94.5 0 L 284 0 M 378 0 L 598 0 M 126 441 L 189 410 M 284 441 L 220 410 M 441 441 L 504 410 M 567 441 L 504 410 M 189 31.5 L 126 0 M 189 31.5 L 252 0 M 472 31.5 L 410 0 M 504 31.5 L 567 0" />
<glyph unicode="y" glyph-name="y" horiz-adv-x="598" d="M 158 441 L 346 0 M 189 441 L 346 63 M 220 441 L 378 63 M 536 410 L 378 63 L 284 -126 L 220 -189 L 158 -220 L 94.5 -220 L 63 -189 L 63 -126 L 126 -126 L 126 -189 L 94.5 -189 L 94.5 -158 M 94.5 441 L 315 441 M 410 441 L 598 441 M 126 441 L 220 378 M 284 441 L 220 410 M 472 441 L 536 410 M 567 441 L 536 410" />
<glyph unicode="z" glyph-name="z" horiz-adv-x="567" d="M 441 441 L 126 0 M 472 441 L 158 0 M 504 441 L 189 0 M 504 441 L 126 441 L 126 315 M 126 0 L 504 0 L 504 126 M 158 441 L 126 315 M 189 441 L 126 346 M 220 441 L 126 378 M 284 441 L 126 410 M 346 0 L 504 31.5 M 410 0 L 504 63 M 441 0 L 504 94.5 M 472 0 L 504 126" />
<glyph unicode="{" glyph-name="braceleft" horiz-adv-x="441" d="M 315 788 L 252 756 L 220 724 L 189 662 L 189 598 L 220 536 L 252 504 L 284 441 L 284 378 L 220 315 M 252 756 L 220 693 L 220 630 L 252 567 L 284 536 L 315 472 L 315 410 L 284 346 L 158 284 L 284 220 L 315 158 L 315 94.5 L 284 31.5 L 252 0 L 220 -63 L 220 -126 L 252 -189 M 220 252 L 284 189 L 284 126 L 252 63 L 220 31.5 L 189 -31.5 L 189 -94.5 L 220 -158 L 252 -189 L 315 -220" />
<glyph unicode="|" glyph-name="bar" horiz-adv-x="252" d="M 158 788 L 158 -220" />
<glyph unicode="}" glyph-name="braceright" horiz-adv-x="441" d="M 189 788 L 252 756 L 284 724 L 315 662 L 315 598 L 284 536 L 252 504 L 220 441 L 220 378 L 284 315 M 252 756 L 284 693 L 284 630 L 252 567 L 220 536 L 189 472 L 189 410 L 220 346 L 346 284 L 220 220 L 189 158 L 189 94.5 L 220 31.5 L 252 0 L 284 -63 L 284 -126 L 252 -189 M 284 252 L 220 189 L 220 126 L 252 63 L 284 31.5 L 315 -31.5 L 315 -94.5 L 284 -158 L 252 -189 L 189 -220" />
<glyph unicode="~" glyph-name="asciitilde" horiz-adv-x="756" d="M 126 189 L 126 252 L 158 346 L 220 378 L 284 378 L 346 346 L 472 252 L 536 220 L 598 220 L 662 252 L 693 315 M 126 252 L 158 315 L 220 346 L 284 346 L 346 315 L 472 220 L 536 189 L 598 189 L 662 220 L 693 315 L 693 378" />
<glyph unicode="&#xa0;" glyph-name="nbspace" horiz-adv-x="378" />
<glyph unicode="&#xa1;" glyph-name="exclamdown" horiz-adv-x="346" d="M 220 0 L 252 31.5 L 252 94.5 L 220 346 M 220 0 L 220 441 L 189 441 M 220 0 L 189 0 L 189 441 M 189 0 L 158 31.5 L 158 94.5 L 189 346 M 220 567 L 252 598 L 252 630 L 220 662 L 189 662 L 158 630 L 158 598 L 189 567 L 220 567 M 220 598 L 220 630 L 189 630 L 189 598 L 220 598" />
<glyph unicode="&#xa2;" glyph-name="cent" horiz-adv-x="202" d="M 504 315 L 504 346 L 472 346 L 472 284 L 536 284 L 536 346 L 472 410 L 410 441 L 315 441 L 220 410 L 158 346 L 126 252 L 126 189 L 158 94.5 L 220 31.5 L 315 0 L 378 0 L 472 31.5 L 536 94.5 M 189 346 L 158 284 L 158 158 L 189 94.5 M 315 441 L 252 410 L 220 378 L 189 284 L 189 158 L 220 63 L 252 31.5 L 315 0 M 353 630 L 353 -176" />
<glyph unicode="&#xa5;" glyph-name="yen" horiz-adv-x="693" d="M 126 662 L 346 315 L 346 0 M 158 662 L 378 315 L 378 31.5 M 189 662 L 410 315 L 410 0 M 598 630 L 410 315 M 63 662 L 284 662 M 504 662 L 693 662 M 252 0 L 504 0 M 94.5 662 L 158 630 M 252 662 L 189 630 M 536 662 L 598 630 M 662 662 L 598 630 M 346 31.5 L 284 0 M 346 63 L 315 0 M 410 63 L 441 0 M 410 31.5 L 472 0 M 208 170 L 548 170 M 208 265 L 548 265" />
<glyph unicode="&#xa6;" glyph-name="brokenbar" horiz-adv-x="75.6" d="M 217 236 L 217 -66.1 M 217 709 L 217 406" />
<glyph unicode="&#xa8;" glyph-name="dieresis" horiz-adv-x="567" d=" M 189 756 L 157 724 L 157 693 L 189 662 L 220 662 L 252 693 L 252 724 L 220 756 L 189 756 M 189 724 L 189 693 L 220 693 L 220 724 L 189 724 M 441 756 L 410 724 L 410 693 L 441 662 L 473 662 L 504 693 L 504 724 L 473 756 L 441 756 M 441 724 L 441 693 L 473 693 L 473 724 L 441 724" />
<glyph unicode="&#xa9;" glyph-name="copyright" horiz-adv-x="693" d="M 378 662 L 315 630 L 252 567 L 220 504 L 189 410 L 189 252 L 220 158 L 252 94.5 L 315 31.5 L 378 0 L 504 0 L 567 31.5 L 630 94.5 L 662 158 L 693 252 L 693 410 L 662 504 L 630 567 L 567 630 L 504 662 L 378 662 M 410 630 L 315 598 L 252 504 L 220 410 L 220 252 L 252 158 L 315 63 L 410 31.5 L 472 31.5 L 567 63 L 630 158 L 662 252 L 662 410 L 630 504 L 567 598 L 472 630 L 410 630 M 551 410 L 536 441 L 504 472 L 472 488 L 410 488 L 378 472 L 346 441 L 331 410 L 315 362 L 315 284 L 331 236 L 346 205 L 378 173 L 410 158 L 472 158 L 504 173 L 536 205 L 551 236 M 551 410 L 536 410 L 520 441 L 504 457 L 472 472 L 410 472 L 378 457 L 346 410 L 331 362 L 331 284 L 346 236 L 378 189 L 410 173 L 472 173 L 504 189 L 520 205 L 536 236 L 551 236" />
<glyph unicode="&#xaa;" glyph-name="ordfeminine" horiz-adv-x="315" d="M 220 803 L 220 819 L 236 819 L 236 788 L 205 788 L 205 819 L 220 835 L 252 850 L 315 850 L 346 835 L 362 819 L 378 788 L 378 677 L 394 646 L 410 630 M 346 819 L 362 788 L 362 677 L 378 646 M 315 850 L 331 835 L 346 803 L 346 677 L 362 646 L 410 630 L 425 630 M 346 772 L 331 756 L 252 740 L 205 724 L 189 693 L 189 677 L 205 646 L 252 630 L 299 630 L 331 646 L 346 677 M 220 724 L 205 693 L 205 677 L 220 646 M 331 756 L 268 740 L 236 724 L 220 693 L 220 677 L 236 646 L 252 630" />
<glyph unicode="&#xab;" glyph-name="guillemotleft" horiz-adv-x="454" d="M 265 454 L 63 227 L 265 0 M 391 454 L 189 227 L 391 0" />
<glyph unicode="&#xae;" glyph-name="registered" horiz-adv-x="693" d="M 378 662 L 315 630 L 252 567 L 220 504 L 189 410 L 189 252 L 220 158 L 252 94.5 L 315 31.5 L 378 0 L 504 0 L 567 31.5 L 630 94.5 L 662 158 L 693 252 L 693 410 L 662 504 L 630 567 L 567 630 L 504 662 L 378 662 M 410 630 L 315 598 L 252 504 L 220 410 L 220 252 L 252 158 L 315 63 L 410 31.5 L 472 31.5 L 567 63 L 630 158 L 662 252 L 662 410 L 630 504 L 567 598 L 472 630 L 410 630 M 331 488 L 331 158 M 346 472 L 346 158 L 331 158 M 331 488 L 457 488 L 504 472 L 520 457 L 536 425 L 536 378 L 520 346 L 504 331 L 457 315 L 346 315 M 346 472 L 457 472 L 504 457 L 520 425 L 520 378 L 504 346 L 457 331 L 346 331 M 425 315 L 520 158 L 536 158 M 441 315 L 536 158" />
<glyph unicode="&#xb0;" glyph-name="degree" horiz-adv-x="249" d="M 227 765 L 198 756 L 180 737 L 170 718 L 161 680 L 161 652 L 170 614 L 180 595 L 198 576 L 227 567 L 246 567 L 274 576 L 293 595 L 302 614 L 312 652 L 312 680 L 302 718 L 293 737 L 274 756 L 246 765 L 227 765 M 189 737 L 180 718 L 170 690 L 170 643 L 180 614 L 189 595 M 284 595 L 293 614 L 302 643 L 302 690 L 293 718 L 284 737 M 227 765 L 208 756 L 189 728 L 180 690 L 180 643 L 189 605 L 208 576 L 227 567 M 246 567 L 265 576 L 284 605 L 293 643 L 293 690 L 284 728 L 265 756 L 246 765" />
<glyph unicode="&#xb1;" glyph-name="plusminus" horiz-adv-x="630" d="M 580 37.8 L 1033.2 37.8 M 781 643 L 781 214 L 806 214 M 781 643 L 806 643 L 806 214 M 580 441 L 1008.0 441 L 1008.0 416 M 580 441 L 580 416 L 1008.0 416" />
<glyph unicode="&#xb2;" glyph-name="twosuperior" horiz-adv-x="315" d="M 205 898 L 205 882 L 220 882 L 220 898 L 205 898 M 205 914 L 220 914 L 236 898 L 236 882 L 220 866 L 205 866 L 189 882 L 189 898 L 205 929 L 220 945 L 268 961 L 331 961 L 378 945 L 394 929 L 410 898 L 410 866 L 394 835 L 346 803 L 268 772 L 236 756 L 205 724 L 189 677 L 189 630 M 378 929 L 394 898 L 394 866 L 378 835 M 331 961 L 362 945 L 378 898 L 378 866 L 362 835 L 331 803 L 268 772 M 189 662 L 205 677 L 236 677 L 315 662 L 378 662 L 410 677 M 236 677 L 315 646 L 378 646 L 394 662 M 236 677 L 315 630 L 378 630 L 394 646 L 410 677 L 410 709" />
<glyph unicode="&#xb3;" glyph-name="threesuperior" horiz-adv-x="315" d="M 205 898 L 205 882 L 220 882 L 220 898 L 205 898 M 205 914 L 220 914 L 236 898 L 236 882 L 220 866 L 205 866 L 189 882 L 189 898 L 205 929 L 220 945 L 268 961 L 331 961 L 378 945 L 394 914 L 394 866 L 378 835 L 331 819 M 362 945 L 378 914 L 378 866 L 362 835 M 315 961 L 346 945 L 362 914 L 362 866 L 346 835 L 315 819 M 284 819 L 331 819 L 362 803 L 394 772 L 410 740 L 410 693 L 394 662 L 378 646 L 331 630 L 268 630 L 220 646 L 205 662 L 189 693 L 189 709 L 205 724 L 220 724 L 236 709 L 236 693 L 220 677 L 205 677 M 378 772 L 394 740 L 394 693 L 378 662 M 315 819 L 346 803 L 362 788 L 378 740 L 378 693 L 362 646 L 331 630 M 205 709 L 205 693 L 220 693 L 220 709 L 205 709" />
<glyph unicode="&#xb4;" glyph-name="acute" horiz-adv-x="378" d=" M 410 788 L 252 598 M 410 788 L 441 756 L 252 598" />
<glyph unicode="&#xb7;" glyph-name="middot" horiz-adv-x="416" d="M 302 416 L 265 378 L 265 340 L 302 302 L 340 302 L 378 340 L 378 378 L 340 416 L 302 416 M 302 378 L 302 340 L 340 340 L 340 378 L 302 378" />
<glyph unicode="&#xb9;" glyph-name="onesuperior" horiz-adv-x="315" d="M 284 929 L 284 630 M 299 929 L 299 646 M 315 961 L 315 630 M 315 961 L 268 914 L 236 898 M 220 630 L 378 630 M 284 646 L 252 630 M 284 662 L 268 630 M 315 662 L 331 630 M 315 646 L 346 630" />
<glyph unicode="&#xba;" glyph-name="ordmasculine" horiz-adv-x="249" d="M 227 765 L 198 756 L 180 737 L 170 718 L 161 680 L 161 652 L 170 614 L 180 595 L 198 576 L 227 567 L 246 567 L 274 576 L 293 595 L 302 614 L 312 652 L 312 680 L 302 718 L 293 737 L 274 756 L 246 765 L 227 765 M 189 737 L 180 718 L 170 690 L 170 643 L 180 614 L 189 595 M 284 595 L 293 614 L 302 643 L 302 690 L 293 718 L 284 737 M 227 765 L 208 756 L 189 728 L 180 690 L 180 643 L 189 605 L 208 576 L 227 567 M 246 567 L 265 576 L 284 605 L 293 643 L 293 690 L 284 728 L 265 756 L 246 765" />
<glyph unicode="&#xbb;" glyph-name="guillemotright" horiz-adv-x="454" d="M 63 454 L 265 227 L 63 0 M 189 454 L 391 227 L 189 0" />
<glyph unicode="&#xbc;" glyph-name="onequarter" horiz-adv-x="680" d="M 189 737 L 189 378 M 208 737 L 208 397 M 227 775 L 227 378 M 227 775 L 170 718 L 132 699 M 113 378 L 302 378 M 189 397 L 151 378 M 189 416 L 170 378 M 227 416 L 246 378 M 227 397 L 265 378 M 693 788 L 126 -220 L 158 -220 M 693 788 L 724 788 L 158 -220 M 718 321 L 718 -18.9 M 737 340 L 737 0 M 756 378 L 756 -18.9 M 756 378 L 548 94.5 L 850 94.5 M 662 -18.9 L 813 -18.9 M 718 0 L 680 -18.9 M 718 18.9 L 699 -18.9 M 756 18.9 L 775 -18.9 M 756 0 L 794 -18.9" />
<glyph unicode="&#xbd;" glyph-name="onehalf" horiz-adv-x="680" d="M 189 737 L 189 378 M 208 737 L 208 397 M 227 775 L 227 378 M 227 775 L 170 718 L 132 699 M 113 378 L 302 378 M 189 397 L 151 378 M 189 416 L 170 378 M 227 416 L 246 378 M 227 397 L 265 378 M 693 788 L 126 -220 L 158 -220 M 693 788 L 724 788 L 158 -220 M 586 302 L 586 284 L 605 284 L 605 302 L 586 302 M 586 321 L 605 321 L 624 302 L 624 284 L 605 265 L 586 265 L 567 284 L 567 302 L 586 340 L 605 359 L 662 378 L 737 378 L 794 359 L 813 340 L 832 302 L 832 265 L 813 227 L 756 189 L 662 151 L 624 132 L 586 94.5 L 567 37.8 L 567 -18.9 M 794 340 L 813 302 L 813 265 L 794 227 M 737 378 L 775 359 L 794 302 L 794 265 L 775 227 L 737 189 L 662 151 M 567 18.9 L 586 37.8 L 624 37.8 L 718 18.9 L 794 18.9 L 832 37.8 M 624 37.8 L 718 0 L 794 0 L 813 18.9 M 624 37.8 L 718 -18.9 L 794 -18.9 L 813 0 L 832 37.8 L 832 75.6" />
<glyph unicode="&#xbe;" glyph-name="threequarters" horiz-adv-x="680" d="M 94.5 699 L 94.5 680 L 113 680 L 113 699 L 94.5 699 M 94.5 718 L 113 718 L 132 699 L 132 680 L 113 662 L 94.5 662 L 75.6 680 L 75.6 699 L 94.5 737 L 113 756 L 170 775 L 246 775 L 302 756 L 321 718 L 321 662 L 302 624 L 246 605 M 284 756 L 302 718 L 302 662 L 284 624 M 227 775 L 265 756 L 284 718 L 284 662 L 265 624 L 227 605 M 189 605 L 246 605 L 284 586 L 321 548 L 340 510 L 340 454 L 321 416 L 302 397 L 246 378 L 170 378 L 113 397 L 94.5 416 L 75.6 454 L 75.6 472 L 94.5 491 L 113 491 L 132 472 L 132 454 L 113 435 L 94.5 435 M 302 548 L 321 510 L 321 454 L 302 416 M 227 605 L 265 586 L 284 567 L 302 510 L 302 454 L 284 397 L 246 378 M 94.5 472 L 94.5 454 L 113 454 L 113 472 L 94.5 472 M 693 788 L 126 -220 L 158 -220 M 693 788 L 724 788 L 158 -220 M 718 321 L 718 -18.9 M 737 340 L 737 0 M 756 378 L 756 -18.9 M 756 378 L 548 94.5 L 850 94.5 M 662 -18.9 L 813 -18.9 M 718 0 L 680 -18.9 M 718 18.9 L 699 -18.9 M 756 18.9 L 775 -18.9 M 756 0 L 794 -18.9" />
<glyph unicode="&#xbf;" glyph-name="questiondown" horiz-adv-x="598" d="M 504 158 L 504 126 L 472 126 L 472 189 L 536 189 L 536 126 L 504 63 L 472 31.5 L 410 0 L 284 0 L 189 31.5 L 158 63 L 126 126 L 126 189 L 158 252 L 189 284 L 315 346 M 189 63 L 158 94.5 L 158 220 L 189 252 M 284 0 L 220 31.5 L 189 94.5 L 189 220 L 220 284 L 252 315 M 346 346 L 346 441 L 315 441 L 315 346 L 346 346 M 346 567 L 378 598 L 378 630 L 346 662 L 315 662 L 284 630 L 284 598 L 315 567 L 346 567 M 346 598 L 346 630 L 315 630 L 315 598 L 346 598" />
<glyph unicode="&#xc0;" glyph-name="Agrave" horiz-adv-x="630" d="M 346 662 L 126 31.5 M 315 567 L 504 0 M 346 567 L 536 0 M 346 662 L 567 0 M 189 189 L 472 189 M 63 0 L 252 0 M 410 0 L 630 0 M 126 31.5 L 94.5 0 M 126 31.5 L 189 0 M 504 31.5 L 441 0 M 504 63 L 472 0 M 536 63 L 598 0 M 220 1039.5 L 378 850 M 220 1039.5 L 189 1008.0 L 378 850" />
<glyph unicode="&#xc1;" glyph-name="Aacute" horiz-adv-x="630" d="M 346 662 L 126 31.5 M 315 567 L 504 0 M 346 567 L 536 0 M 346 662 L 567 0 M 189 189 L 472 189 M 63 0 L 252 0 M 410 0 L 630 0 M 126 31.5 L 94.5 0 M 126 31.5 L 189 0 M 504 31.5 L 441 0 M 504 63 L 472 0 M 536 63 L 598 0 M 536 1039.5 L 378 850 M 536 1039.5 L 567 1008.0 L 378 850" />
<glyph unicode="&#xc2;" glyph-name="Acircumflex" horiz-adv-x="630" d="M 346 662 L 126 31.5 M 315 567 L 504 0 M 346 567 L 536 0 M 346 662 L 567 0 M 189 189 L 472 189 M 63 0 L 252 0 M 410 0 L 630 0 M 126 31.5 L 94.5 0 M 126 31.5 L 189 0 M 504 31.5 L 441 0 M 504 63 L 472 0 M 536 63 L 598 0 M 189 813 L 340 907 L 491 813 M 189 813 L 340 888 L 491 813" />
<glyph unicode="&#xc3;" glyph-name="Atilde" horiz-adv-x="630" d="M 346 662 L 126 31.5 M 315 567 L 504 0 M 346 567 L 536 0 M 346 662 L 567 0 M 189 189 L 472 189 M 63 0 L 252 0 M 410 0 L 630 0 M 126 31.5 L 94.5 0 M 126 31.5 L 189 0 M 504 31.5 L 441 0 M 504 63 L 472 0 M 536 63 L 598 0 M 202 794 L 202 832 L 220 888 L 258 907 L 296 907 L 334 888 L 410 832 L 447 813 L 485 813 L 523 832 L 542 869 M 202 832 L 220 869 L 258 888 L 296 888 L 334 869 L 410 813 L 447 794 L 485 794 L 523 813 L 542 869 L 542 907" />
<glyph unicode="&#xc4;" glyph-name="Adieresis" horiz-adv-x="630" d="M 346 662 L 126 31.5 M 315 567 L 504 0 M 346 567 L 536 0 M 346 662 L 567 0 M 189 189 L 472 189 M 63 0 L 252 0 M 410 0 L 630 0 M 126 31.5 L 94.5 0 M 126 31.5 L 189 0 M 504 31.5 L 441 0 M 504 63 L 472 0 M 536 63 L 598 0 M 250 945 L 218 914 L 218 882 L 250 850 L 281 850 L 313 882 L 313 914 L 281 945 L 250 945 M 250 914 L 250 882 L 281 882 L 281 914 L 250 914 M 506 945 L 475 914 L 475 882 L 506 850 L 538 850 L 569 882 L 569 914 L 538 945 L 506 945 M 506 914 L 506 882 L 538 882 L 538 914 L 506 914" />
<glyph unicode="&#xc5;" glyph-name="Aring" horiz-adv-x="630" d="M 346 662 L 126 31.5 M 315 567 L 504 0 M 346 567 L 536 0 M 346 662 L 567 0 M 189 189 L 472 189 M 63 0 L 252 0 M 410 0 L 630 0 M 126 31.5 L 94.5 0 M 126 31.5 L 189 0 M 504 31.5 L 441 0 M 504 63 L 472 0 M 536 63 L 598 0 M 340 1048.9 L 312 1039.5 L 293 1020.6 L 284 1001.7 L 274 964 L 274 936 L 284 898 L 293 879 L 312 860 L 340 850 L 359 850 L 387 860 L 406 879 L 416 898 L 425 936 L 425 964 L 416 1001.7 L 406 1020.6 L 387 1039.5 L 359 1048.9 L 340 1048.9 M 302 1020.6 L 293 1001.7 L 284 973 L 284 926 L 293 898 L 302 879 M 397 879 L 406 898 L 416 926 L 416 973 L 406 1001.7 L 397 1020.6 M 340 1048.9 L 321 1039.5 L 302 1011.1 L 293 973 L 293 926 L 302 888 L 321 860 L 340 850 M 359 850 L 378 860 L 397 888 L 406 926 L 406 973 L 397 1011.1 L 378 1039.5 L 359 1048.9" />
<glyph unicode="&#xc8;" glyph-name="Egrave" horiz-adv-x="662" d="M 189 662 L 189 0 M 220 630 L 220 31.5 M 252 662 L 252 0 M 94.5 662 L 598 662 L 598 472 M 252 346 L 441 346 M 441 472 L 441 220 M 94.5 0 L 598 0 L 598 189 M 126 662 L 189 630 M 158 662 L 189 598 M 284 662 L 252 598 M 315 662 L 252 630 M 441 662 L 598 630 M 504 662 L 598 598 M 536 662 L 598 567 M 567 662 L 598 472 M 441 472 L 410 346 L 441 220 M 441 410 L 378 346 L 441 284 M 441 378 L 315 346 L 441 315 M 189 31.5 L 126 0 M 189 63 L 158 0 M 252 63 L 284 0 M 252 31.5 L 315 0 M 441 0 L 598 31.5 M 504 0 L 598 63 M 536 0 L 598 94.5 M 567 0 L 598 189 M 236 1039.5 L 394 850 M 236 1039.5 L 205 1008.0 L 394 850" />
<glyph unicode="&#xc9;" glyph-name="Eacute" horiz-adv-x="662" d="M 189 662 L 189 0 M 220 630 L 220 31.5 M 252 662 L 252 0 M 94.5 662 L 598 662 L 598 472 M 252 346 L 441 346 M 441 472 L 441 220 M 94.5 0 L 598 0 L 598 189 M 126 662 L 189 630 M 158 662 L 189 598 M 284 662 L 252 598 M 315 662 L 252 630 M 441 662 L 598 630 M 504 662 L 598 598 M 536 662 L 598 567 M 567 662 L 598 472 M 441 472 L 410 346 L 441 220 M 441 410 L 378 346 L 441 284 M 441 378 L 315 346 L 441 315 M 189 31.5 L 126 0 M 189 63 L 158 0 M 252 63 L 284 0 M 252 31.5 L 315 0 M 441 0 L 598 31.5 M 504 0 L 598 63 M 536 0 L 598 94.5 M 567 0 L 598 189 M 551 1039.5 L 394 850 M 551 1039.5 L 583 1008.0 L 394 850" />
<glyph unicode="&#xca;" glyph-name="Ecircumflex" horiz-adv-x="662" d="M 189 662 L 189 0 M 220 630 L 220 31.5 M 252 662 L 252 0 M 94.5 662 L 598 662 L 598 472 M 252 346 L 441 346 M 441 472 L 441 220 M 94.5 0 L 598 0 L 598 189 M 126 662 L 189 630 M 158 662 L 189 598 M 284 662 L 252 598 M 315 662 L 252 630 M 441 662 L 598 630 M 504 662 L 598 598 M 536 662 L 598 567 M 567 662 L 598 472 M 441 472 L 410 346 L 441 220 M 441 410 L 378 346 L 441 284 M 441 378 L 315 346 L 441 315 M 189 31.5 L 126 0 M 189 63 L 158 0 M 252 63 L 284 0 M 252 31.5 L 315 0 M 441 0 L 598 31.5 M 504 0 L 598 63 M 536 0 L 598 94.5 M 567 0 L 598 189 M 198 813 L 350 907 L 501 813 M 198 813 L 350 888 L 501 813" />
<glyph unicode="&#xcb;" glyph-name="Edieresis" horiz-adv-x="662" d="M 189 662 L 189 0 M 220 630 L 220 31.5 M 252 662 L 252 0 M 94.5 662 L 598 662 L 598 472 M 252 346 L 441 346 M 441 472 L 441 220 M 94.5 0 L 598 0 L 598 189 M 126 662 L 189 630 M 158 662 L 189 598 M 284 662 L 252 598 M 315 662 L 252 630 M 441 662 L 598 630 M 504 662 L 598 598 M 536 662 L 598 567 M 567 662 L 598 472 M 441 472 L 410 346 L 441 220 M 441 410 L 378 346 L 441 284 M 441 378 L 315 346 L 441 315 M 189 31.5 L 126 0 M 189 63 L 158 0 M 252 63 L 284 0 M 252 31.5 L 315 0 M 441 0 L 598 31.5 M 504 0 L 598 63 M 536 0 L 598 94.5 M 567 0 L 598 189 M 269 945 L 237 914 L 237 882 L 269 850 L 300 850 L 332 882 L 332 914 L 300 945 L 269 945 M 269 914 L 269 882 L 300 882 L 300 914 L 269 914 M 519 945 L 487 914 L 487 882 L 519 850 L 550 850 L 582 882 L 582 914 L 550 945 L 519 945 M 519 914 L 519 882 L 550 882 L 550 914 L 519 914" />
<glyph unicode="&#xcc;" glyph-name="Igrave" horiz-adv-x="378" d="M 189 662 L 189 0 M 220 630 L 220 31.5 M 252 662 L 252 0 M 94.5 662 L 346 662 M 94.5 0 L 346 0 M 126 662 L 189 630 M 158 662 L 189 598 M 284 662 L 252 598 M 315 662 L 252 630 M 189 31.5 L 126 0 M 189 63 L 158 0 M 252 63 L 284 0 M 252 31.5 L 315 0 M 94.5 1039.5 L 252 850 M 94.5 1039.5 L 63 1008.0 L 252 850" />
<glyph unicode="&#xcd;" glyph-name="Iacute" horiz-adv-x="378" d="M 189 662 L 189 0 M 220 630 L 220 31.5 M 252 662 L 252 0 M 94.5 662 L 346 662 M 94.5 0 L 346 0 M 126 662 L 189 630 M 158 662 L 189 598 M 284 662 L 252 598 M 315 662 L 252 630 M 189 31.5 L 126 0 M 189 63 L 158 0 M 252 63 L 284 0 M 252 31.5 L 315 0 M 410 1039.5 L 252 850 M 410 1039.5 L 441 1008.0 L 252 850" />
<glyph unicode="&#xce;" glyph-name="Icircumflex" horiz-adv-x="378" d="M 189 662 L 189 0 M 220 630 L 220 31.5 M 252 662 L 252 0 M 94.5 662 L 346 662 M 94.5 0 L 346 0 M 126 662 L 189 630 M 158 662 L 189 598 M 284 662 L 252 598 M 315 662 L 252 630 M 189 31.5 L 126 0 M 189 63 L 158 0 M 252 63 L 284 0 M 252 31.5 L 315 0 M 56.7 813 L 208 907 L 359 813 M 56.7 813 L 208 888 L 359 813" />
<glyph unicode="&#xcf;" glyph-name="Idieresis" horiz-adv-x="378" d="M 189 662 L 189 0 M 220 630 L 220 31.5 M 252 662 L 252 0 M 94.5 662 L 346 662 M 94.5 0 L 346 0 M 126 662 L 189 630 M 158 662 L 189 598 M 284 662 L 252 598 M 315 662 L 252 630 M 189 31.5 L 126 0 M 189 63 L 158 0 M 252 63 L 284 0 M 252 31.5 L 315 0 M 119 945 L 87.9 914 L 87.9 882 L 119 850 L 151 850 L 182 882 L 182 914 L 151 945 L 119 945 M 119 914 L 119 882 L 151 882 L 151 914 L 119 914 M 385 945 L 353 914 L 353 882 L 385 850 L 416 850 L 448 882 L 448 914 L 416 945 L 385 945 M 385 914 L 385 882 L 416 882 L 416 914 L 385 914" />
<glyph unicode="&#xd0;" glyph-name="Eth" horiz-adv-x="693" d="M 78.8 252 L 362 252 M 189 662 L 189 0 M 220 630 L 220 31.5 M 252 662 L 252 0 M 94.5 662 L 410 662 L 504 630 L 567 567 L 598 504 L 630 410 L 630 252 L 598 158 L 567 94.5 L 504 31.5 L 410 0 L 94.5 0 M 536 567 L 567 504 L 598 410 L 598 252 L 567 158 L 536 94.5 M 410 662 L 472 630 L 536 536 L 567 410 L 567 252 L 536 126 L 472 31.5 L 410 0 M 126 662 L 189 630 M 158 662 L 189 598 M 284 662 L 252 598 M 315 662 L 252 630 M 189 31.5 L 126 0 M 189 63 L 158 0 M 252 63 L 284 0 M 252 31.5 L 315 0" />
<glyph unicode="&#xd1;" glyph-name="Ntilde" horiz-adv-x="756" d="M 189 662 L 189 31.5 M 189 662 L 630 0 M 220 662 L 598 94.5 M 252 662 L 630 94.5 M 630 630 L 630 0 M 94.5 662 L 252 662 M 536 662 L 724 662 M 94.5 0 L 284 0 M 126 662 L 189 630 M 567 662 L 630 630 M 693 662 L 630 630 M 189 31.5 L 126 0 M 189 31.5 L 252 0 M 227 794 L 227 832 L 246 888 L 284 907 L 321 907 L 359 888 L 435 832 L 472 813 L 510 813 L 548 832 L 567 869 M 227 832 L 246 869 L 284 888 L 321 888 L 359 869 L 435 813 L 472 794 L 510 794 L 548 813 L 567 869 L 567 907" />
<glyph unicode="&#xd2;" glyph-name="Ograve" horiz-adv-x="693" d="M 346 662 L 252 630 L 189 567 L 158 504 L 126 378 L 126 284 L 158 158 L 189 94.5 L 252 31.5 L 346 0 L 410 0 L 504 31.5 L 567 94.5 L 598 158 L 630 284 L 630 378 L 598 504 L 567 567 L 504 630 L 410 662 L 346 662 M 220 567 L 189 504 L 158 410 L 158 252 L 189 158 L 220 94.5 M 536 94.5 L 567 158 L 598 252 L 598 410 L 567 504 L 536 567 M 346 662 L 284 630 L 220 536 L 189 410 L 189 252 L 220 126 L 284 31.5 L 346 0 M 410 0 L 472 31.5 L 536 126 L 567 252 L 567 410 L 536 536 L 472 630 L 410 662 M 252 1039.5 L 410 850 M 252 1039.5 L 220 1008.0 L 410 850" />
<glyph unicode="&#xd3;" glyph-name="Oacute" horiz-adv-x="693" d="M 346 662 L 252 630 L 189 567 L 158 504 L 126 378 L 126 284 L 158 158 L 189 94.5 L 252 31.5 L 346 0 L 410 0 L 504 31.5 L 567 94.5 L 598 158 L 630 284 L 630 378 L 598 504 L 567 567 L 504 630 L 410 662 L 346 662 M 220 567 L 189 504 L 158 410 L 158 252 L 189 158 L 220 94.5 M 536 94.5 L 567 158 L 598 252 L 598 410 L 567 504 L 536 567 M 346 662 L 284 630 L 220 536 L 189 410 L 189 252 L 220 126 L 284 31.5 L 346 0 M 410 0 L 472 31.5 L 536 126 L 567 252 L 567 410 L 536 536 L 472 630 L 410 662 M 567 1039.5 L 410 850 M 567 1039.5 L 598 1008.0 L 410 850" />
<glyph unicode="&#xd4;" glyph-name="Ocircumflex" horiz-adv-x="693" d="M 346 662 L 252 630 L 189 567 L 158 504 L 126 378 L 126 284 L 158 158 L 189 94.5 L 252 31.5 L 346 0 L 410 0 L 504 31.5 L 567 94.5 L 598 158 L 630 284 L 630 378 L 598 504 L 567 567 L 504 630 L 410 662 L 346 662 M 220 567 L 189 504 L 158 410 L 158 252 L 189 158 L 220 94.5 M 536 94.5 L 567 158 L 598 252 L 598 410 L 567 504 L 536 567 M 346 662 L 284 630 L 220 536 L 189 410 L 189 252 L 220 126 L 284 31.5 L 346 0 M 410 0 L 472 31.5 L 536 126 L 567 252 L 567 410 L 536 536 L 472 630 L 410 662 M 208 813 L 359 907 L 510 813 M 208 813 L 359 888 L 510 813" />
<glyph unicode="&#xd5;" glyph-name="Otilde" horiz-adv-x="693" d="M 346 662 L 252 630 L 189 567 L 158 504 L 126 378 L 126 284 L 158 158 L 189 94.5 L 252 31.5 L 346 0 L 410 0 L 504 31.5 L 567 94.5 L 598 158 L 630 284 L 630 378 L 598 504 L 567 567 L 504 630 L 410 662 L 346 662 M 220 567 L 189 504 L 158 410 L 158 252 L 189 158 L 220 94.5 M 536 94.5 L 567 158 L 598 252 L 598 410 L 567 504 L 536 567 M 346 662 L 284 630 L 220 536 L 189 410 L 189 252 L 220 126 L 284 31.5 L 346 0 M 410 0 L 472 31.5 L 536 126 L 567 252 L 567 410 L 536 536 L 472 630 L 410 662 M 214 794 L 214 832 L 233 888 L 271 907 L 309 907 L 346 888 L 422 832 L 460 813 L 498 813 L 535 832 L 554 869 M 214 832 L 233 869 L 271 888 L 309 888 L 346 869 L 422 813 L 460 794 L 498 794 L 535 813 L 554 869 L 554 907" />
<glyph unicode="&#xd6;" glyph-name="Odieresis" horiz-adv-x="693" d="M 346 662 L 252 630 L 189 567 L 158 504 L 126 378 L 126 284 L 158 158 L 189 94.5 L 252 31.5 L 346 0 L 410 0 L 504 31.5 L 567 94.5 L 598 158 L 630 284 L 630 378 L 598 504 L 567 567 L 504 630 L 410 662 L 346 662 M 220 567 L 189 504 L 158 410 L 158 252 L 189 158 L 220 94.5 M 536 94.5 L 567 158 L 598 252 L 598 410 L 567 504 L 536 567 M 346 662 L 284 630 L 220 536 L 189 410 L 189 252 L 220 126 L 284 31.5 L 346 0 M 410 0 L 472 31.5 L 536 126 L 567 252 L 567 410 L 536 536 L 472 630 L 410 662 M 285 945 L 254 914 L 254 882 L 285 850 L 317 850 L 348 882 L 348 914 L 317 945 L 285 945 M 285 914 L 285 882 L 317 882 L 317 914 L 285 914 M 534 945 L 502 914 L 502 882 L 534 850 L 565 850 L 597 882 L 597 914 L 565 945 L 534 945 M 534 914 L 534 882 L 565 882 L 565 914 L 534 914" />
<glyph unicode="&#xd7;" glyph-name="multiply" horiz-adv-x="567" d="M 189 441 L 536 0 L 567 0 M 189 441 L 220 441 L 567 0 M 567 441 L 536 441 L 189 0 M 567 441 L 220 0 L 189 0" />
<glyph unicode="&#xd8;" glyph-name="Oslash" horiz-adv-x="693" d="M 346 662 L 252 630 L 189 567 L 158 504 L 126 378 L 126 284 L 158 158 L 189 94.5 L 252 31.5 L 346 0 L 410 0 L 504 31.5 L 567 94.5 L 598 158 L 630 284 L 630 378 L 598 504 L 567 567 L 504 630 L 410 662 L 346 662 M 220 567 L 189 504 L 158 410 L 158 252 L 189 158 L 220 94.5 M 536 94.5 L 567 158 L 598 252 L 598 410 L 567 504 L 536 567 M 346 662 L 284 630 L 220 536 L 189 410 L 189 252 L 220 126 L 284 31.5 L 346 0 M 410 0 L 472 31.5 L 536 126 L 567 252 L 567 410 L 536 536 L 472 630 L 410 662 M 595 765 L 85.1 -142 L 113 -142 M 595 765 L 624 765 L 113 -142" />
<glyph unicode="&#xd9;" glyph-name="Ugrave" horiz-adv-x="756" d="M 189 662 L 189 189 L 220 94.5 L 284 31.5 L 378 0 L 441 0 L 536 31.5 L 598 94.5 L 630 189 L 630 630 M 220 630 L 220 158 L 252 94.5 M 252 662 L 252 158 L 284 63 L 315 31.5 L 378 0 M 94.5 662 L 346 662 M 536 662 L 724 662 M 126 662 L 189 630 M 158 662 L 189 598 M 284 662 L 252 598 M 315 662 L 252 630 M 567 662 L 630 630 M 693 662 L 630 630 M 284 1039.5 L 441 850 M 284 1039.5 L 252 1008.0 L 441 850" />
<glyph unicode="&#xda;" glyph-name="Uacute" horiz-adv-x="756" d="M 189 662 L 189 189 L 220 94.5 L 284 31.5 L 378 0 L 441 0 L 536 31.5 L 598 94.5 L 630 189 L 630 630 M 220 630 L 220 158 L 252 94.5 M 252 662 L 252 158 L 284 63 L 315 31.5 L 378 0 M 94.5 662 L 346 662 M 536 662 L 724 662 M 126 662 L 189 630 M 158 662 L 189 598 M 284 662 L 252 598 M 315 662 L 252 630 M 567 662 L 630 630 M 693 662 L 630 630 M 598 1039.5 L 441 850 M 598 1039.5 L 630 1008.0 L 441 850" />
<glyph unicode="&#xdb;" glyph-name="Ucircumflex" horiz-adv-x="756" d="M 189 662 L 189 189 L 220 94.5 L 284 31.5 L 378 0 L 441 0 L 536 31.5 L 598 94.5 L 630 189 L 630 630 M 220 630 L 220 158 L 252 94.5 M 252 662 L 252 158 L 284 63 L 315 31.5 L 378 0 M 94.5 662 L 346 662 M 536 662 L 724 662 M 126 662 L 189 630 M 158 662 L 189 598 M 284 662 L 252 598 M 315 662 L 252 630 M 567 662 L 630 630 M 693 662 L 630 630 M 227 813 L 378 907 L 529 813 M 227 813 L 378 888 L 529 813" />
<glyph unicode="&#xdc;" glyph-name="Udieresis" horiz-adv-x="756" d="M 189 662 L 189 189 L 220 94.5 L 284 31.5 L 378 0 L 441 0 L 536 31.5 L 598 94.5 L 630 189 L 630 630 M 220 630 L 220 158 L 252 94.5 M 252 662 L 252 158 L 284 63 L 315 31.5 L 378 0 M 94.5 662 L 346 662 M 536 662 L 724 662 M 126 662 L 189 630 M 158 662 L 189 598 M 284 662 L 252 598 M 315 662 L 252 630 M 567 662 L 630 630 M 693 662 L 630 630 M 321 945 L 289 914 L 289 882 L 321 850 L 352 850 L 384 882 L 384 914 L 352 945 L 321 945 M 321 914 L 321 882 L 352 882 L 352 914 L 321 914 M 561 945 L 530 914 L 530 882 L 561 850 L 593 850 L 624 882 L 624 914 L 593 945 L 561 945 M 561 914 L 561 882 L 593 882 L 593 914 L 561 914" />
<glyph unicode="&#xdd;" glyph-name="Yacute" horiz-adv-x="693" d="M 126 662 L 346 315 L 346 0 M 158 662 L 378 315 L 378 31.5 M 189 662 L 410 315 L 410 0 M 598 630 L 410 315 M 63 662 L 284 662 M 504 662 L 693 662 M 252 0 L 504 0 M 94.5 662 L 158 630 M 252 662 L 189 630 M 536 662 L 598 630 M 662 662 L 598 630 M 346 31.5 L 284 0 M 346 63 L 315 0 M 410 63 L 441 0 M 410 31.5 L 472 0 M 567 1039.5 L 410 850 M 567 1039.5 L 598 1008.0 L 410 850" />
<glyph unicode="&#xe0;" glyph-name="agrave" horiz-adv-x="630" d="M 189 346 L 189 378 L 220 378 L 220 315 L 158 315 L 158 378 L 189 410 L 252 441 L 378 441 L 441 410 L 472 378 L 504 315 L 504 94.5 L 536 31.5 L 567 0 M 441 378 L 472 315 L 472 94.5 L 504 31.5 M 378 441 L 410 410 L 441 346 L 441 94.5 L 472 31.5 L 567 0 L 598 0 M 441 284 L 410 252 L 252 220 L 158 189 L 126 126 L 126 94.5 L 158 31.5 L 252 0 L 346 0 L 410 31.5 L 441 94.5 M 189 189 L 158 126 L 158 94.5 L 189 31.5 M 410 252 L 284 220 L 220 189 L 189 126 L 189 94.5 L 220 31.5 L 252 0 M 189 788 L 346 598 M 189 788 L 158 756 L 346 598" />
<glyph unicode="&#xe1;" glyph-name="aacute" horiz-adv-x="630" d="M 189 346 L 189 378 L 220 378 L 220 315 L 158 315 L 158 378 L 189 410 L 252 441 L 378 441 L 441 410 L 472 378 L 504 315 L 504 94.5 L 536 31.5 L 567 0 M 441 378 L 472 315 L 472 94.5 L 504 31.5 M 378 441 L 410 410 L 441 346 L 441 94.5 L 472 31.5 L 567 0 L 598 0 M 441 284 L 410 252 L 252 220 L 158 189 L 126 126 L 126 94.5 L 158 31.5 L 252 0 L 346 0 L 410 31.5 L 441 94.5 M 189 189 L 158 126 L 158 94.5 L 189 31.5 M 410 252 L 284 220 L 220 189 L 189 126 L 189 94.5 L 220 31.5 L 252 0 M 536 788 L 378 598 M 536 788 L 567 756 L 378 598" />
<glyph unicode="&#xe2;" glyph-name="acircumflex" horiz-adv-x="630" d="M 189 346 L 189 378 L 220 378 L 220 315 L 158 315 L 158 378 L 189 410 L 252 441 L 378 441 L 441 410 L 472 378 L 504 315 L 504 94.5 L 536 31.5 L 567 0 M 441 378 L 472 315 L 472 94.5 L 504 31.5 M 378 441 L 410 410 L 441 346 L 441 94.5 L 472 31.5 L 567 0 L 598 0 M 441 284 L 410 252 L 252 220 L 158 189 L 126 126 L 126 94.5 L 158 31.5 L 252 0 L 346 0 L 410 31.5 L 441 94.5 M 189 189 L 158 126 L 158 94.5 L 189 31.5 M 410 252 L 284 220 L 220 189 L 189 126 L 189 94.5 L 220 31.5 L 252 0 M 189 605 L 340 699 L 491 605 M 189 605 L 340 680 L 491 605" />
<glyph unicode="&#xe3;" glyph-name="atilde" horiz-adv-x="630" d="M 189 346 L 189 378 L 220 378 L 220 315 L 158 315 L 158 378 L 189 410 L 252 441 L 378 441 L 441 410 L 472 378 L 504 315 L 504 94.5 L 536 31.5 L 567 0 M 441 378 L 472 315 L 472 94.5 L 504 31.5 M 378 441 L 410 410 L 441 346 L 441 94.5 L 472 31.5 L 567 0 L 598 0 M 441 284 L 410 252 L 252 220 L 158 189 L 126 126 L 126 94.5 L 158 31.5 L 252 0 L 346 0 L 410 31.5 L 441 94.5 M 189 189 L 158 126 L 158 94.5 L 189 31.5 M 410 252 L 284 220 L 220 189 L 189 126 L 189 94.5 L 220 31.5 L 252 0 M 202 605 L 202 643 L 220 699 L 258 718 L 296 718 L 334 699 L 410 643 L 447 624 L 485 624 L 523 643 L 542 680 M 202 643 L 220 680 L 258 699 L 296 699 L 334 680 L 410 624 L 447 605 L 485 605 L 523 624 L 542 680 L 542 718" />
<glyph unicode="&#xe4;" glyph-name="adieresis" horiz-adv-x="630" d="M 189 346 L 189 378 L 220 378 L 220 315 L 158 315 L 158 378 L 189 410 L 252 441 L 378 441 L 441 410 L 472 378 L 504 315 L 504 94.5 L 536 31.5 L 567 0 M 441 378 L 472 315 L 472 94.5 L 504 31.5 M 378 441 L 410 410 L 441 346 L 441 94.5 L 472 31.5 L 567 0 L 598 0 M 441 284 L 410 252 L 252 220 L 158 189 L 126 126 L 126 94.5 L 158 31.5 L 252 0 L 346 0 L 410 31.5 L 441 94.5 M 189 189 L 158 126 L 158 94.5 L 189 31.5 M 410 252 L 284 220 L 220 189 L 189 126 L 189 94.5 L 220 31.5 L 252 0 M 222 756 L 190 724 L 190 693 L 222 662 L 253 662 L 285 693 L 285 724 L 253 756 L 222 756 M 222 724 L 222 693 L 253 693 L 253 724 L 222 724 M 471 756 L 440 724 L 440 693 L 471 662 L 503 662 L 534 693 L 534 724 L 503 756 L 471 756 M 471 724 L 471 693 L 503 693 L 503 724 L 471 724" />
<glyph unicode="&#xe5;" glyph-name="aring" horiz-adv-x="630" d="M 189 346 L 189 378 L 220 378 L 220 315 L 158 315 L 158 378 L 189 410 L 252 441 L 378 441 L 441 410 L 472 378 L 504 315 L 504 94.5 L 536 31.5 L 567 0 M 441 378 L 472 315 L 472 94.5 L 504 31.5 M 378 441 L 410 410 L 441 346 L 441 94.5 L 472 31.5 L 567 0 L 598 0 M 441 284 L 410 252 L 252 220 L 158 189 L 126 126 L 126 94.5 L 158 31.5 L 252 0 L 346 0 L 410 31.5 L 441 94.5 M 189 189 L 158 126 L 158 94.5 L 189 31.5 M 410 252 L 284 220 L 220 189 L 189 126 L 189 94.5 L 220 31.5 L 252 0 M 293 813 L 265 803 L 246 784 L 236 765 L 227 728 L 227 699 L 236 662 L 246 643 L 265 624 L 293 614 L 312 614 L 340 624 L 359 643 L 369 662 L 378 699 L 378 728 L 369 765 L 359 784 L 340 803 L 312 813 L 293 813 M 255 784 L 246 765 L 236 737 L 236 690 L 246 662 L 255 643 M 350 643 L 359 662 L 369 690 L 369 737 L 359 765 L 350 784 M 293 813 L 274 803 L 255 775 L 246 737 L 246 690 L 255 652 L 274 624 L 293 614 M 312 614 L 331 624 L 350 652 L 359 690 L 359 737 L 350 775 L 331 803 L 312 813" />
<glyph unicode="&#xe8;" glyph-name="egrave" horiz-adv-x="598" d="M 189 252 L 536 252 L 536 315 L 504 378 L 472 410 L 378 441 L 315 441 L 220 410 L 158 346 L 126 252 L 126 189 L 158 94.5 L 220 31.5 L 315 0 L 378 0 L 472 31.5 L 536 94.5 M 504 284 L 504 315 L 472 378 M 189 346 L 158 284 L 158 158 L 189 94.5 M 472 252 L 472 346 L 441 410 L 378 441 M 315 441 L 252 410 L 220 378 L 189 284 L 189 158 L 220 63 L 252 31.5 L 315 0 M 173 788 L 331 598 M 173 788 L 142 756 L 331 598" />
<glyph unicode="&#xe9;" glyph-name="eacute" horiz-adv-x="598" d="M 189 252 L 536 252 L 536 315 L 504 378 L 472 410 L 378 441 L 315 441 L 220 410 L 158 346 L 126 252 L 126 189 L 158 94.5 L 220 31.5 L 315 0 L 378 0 L 472 31.5 L 536 94.5 M 504 284 L 504 315 L 472 378 M 189 346 L 158 284 L 158 158 L 189 94.5 M 472 252 L 472 346 L 441 410 L 378 441 M 315 441 L 252 410 L 220 378 L 189 284 L 189 158 L 220 63 L 252 31.5 L 315 0 M 520 788 L 362 598 M 520 788 L 551 756 L 362 598" />
<glyph unicode="&#xea;" glyph-name="ecircumflex" horiz-adv-x="598" d="M 189 252 L 536 252 L 536 315 L 504 378 L 472 410 L 378 441 L 315 441 L 220 410 L 158 346 L 126 252 L 126 189 L 158 94.5 L 220 31.5 L 315 0 L 378 0 L 472 31.5 L 536 94.5 M 504 284 L 504 315 L 472 378 M 189 346 L 158 284 L 158 158 L 189 94.5 M 472 252 L 472 346 L 441 410 L 378 441 M 315 441 L 252 410 L 220 378 L 189 284 L 189 158 L 220 63 L 252 31.5 L 315 0 M 180 605 L 331 699 L 482 605 M 180 605 L 331 680 L 482 605" />
<glyph unicode="&#xeb;" glyph-name="edieresis" horiz-adv-x="598" d="M 189 252 L 536 252 L 536 315 L 504 378 L 472 410 L 378 441 L 315 441 L 220 410 L 158 346 L 126 252 L 126 189 L 158 94.5 L 220 31.5 L 315 0 L 378 0 L 472 31.5 L 536 94.5 M 504 284 L 504 315 L 472 378 M 189 346 L 158 284 L 158 158 L 189 94.5 M 472 252 L 472 346 L 441 410 L 378 441 M 315 441 L 252 410 L 220 378 L 189 284 L 189 158 L 220 63 L 252 31.5 L 315 0 M 199 756 L 168 724 L 168 693 L 199 662 L 231 662 L 262 693 L 262 724 L 231 756 L 199 756 M 199 724 L 199 693 L 231 693 L 231 724 L 199 724 M 462 756 L 431 724 L 431 693 L 462 662 L 494 662 L 525 693 L 525 724 L 494 756 L 462 756 M 462 724 L 462 693 L 494 693 L 494 724 L 462 724" />
<glyph unicode="&#xec;" glyph-name="igrave" horiz-adv-x="378" d="M 189 441 L 189 0 M 220 410 L 220 31.5 M 94.5 441 L 252 441 L 252 0 M 94.5 0 L 346 0 M 126 441 L 189 410 M 158 441 L 189 378 M 189 31.5 L 126 0 M 189 63 L 158 0 M 252 63 L 284 0 M 252 31.5 L 315 0 M 63 788 L 220 598 M 63 788 L 31.5 756 L 220 598" />
<glyph unicode="&#xed;" glyph-name="iacute" horiz-adv-x="378" d="M 189 441 L 189 0 M 220 410 L 220 31.5 M 94.5 441 L 252 441 L 252 0 M 94.5 0 L 346 0 M 126 441 L 189 410 M 158 441 L 189 378 M 189 31.5 L 126 0 M 189 63 L 158 0 M 252 63 L 284 0 M 252 31.5 L 315 0 M 410 788 L 252 598 M 410 788 L 441 756 L 252 598" />
<glyph unicode="&#xee;" glyph-name="icircumflex" horiz-adv-x="378" d="M 189 441 L 189 0 M 220 410 L 220 31.5 M 94.5 441 L 252 441 L 252 0 M 94.5 0 L 346 0 M 126 441 L 189 410 M 158 441 L 189 378 M 189 31.5 L 126 0 M 189 63 L 158 0 M 252 63 L 284 0 M 252 31.5 L 315 0 M 56.7 605 L 208 699 L 359 605 M 56.7 605 L 208 680 L 359 605" />
<glyph unicode="&#xef;" glyph-name="idieresis" horiz-adv-x="378" d="M 189 441 L 189 0 M 220 410 L 220 31.5 M 94.5 441 L 252 441 L 252 0 M 94.5 0 L 346 0 M 126 441 L 189 410 M 158 441 L 189 378 M 189 31.5 L 126 0 M 189 63 L 158 0 M 252 63 L 284 0 M 252 31.5 L 315 0 M 101 756 L 69 724 L 69 693 L 101 662 L 132 662 L 164 693 L 164 724 L 132 756 L 101 756 M 101 724 L 101 693 L 132 693 L 132 724 L 101 724 M 340 756 L 309 724 L 309 693 L 340 662 L 372 662 L 403 693 L 403 724 L 372 756 L 340 756 M 340 724 L 340 693 L 372 693 L 372 724 L 340 724" />
<glyph unicode="&#xf1;" glyph-name="ntilde" horiz-adv-x="724" d="M 189 441 L 189 0 M 220 410 L 220 31.5 M 94.5 441 L 252 441 L 252 0 M 252 315 L 284 378 L 315 410 L 378 441 L 472 441 L 536 410 L 567 378 L 598 284 L 598 0 M 536 378 L 567 284 L 567 31.5 M 472 441 L 504 410 L 536 315 L 536 0 M 94.5 0 L 346 0 M 441 0 L 693 0 M 126 441 L 189 410 M 158 441 L 189 378 M 189 31.5 L 126 0 M 189 63 L 158 0 M 252 63 L 284 0 M 252 31.5 L 315 0 M 536 31.5 L 472 0 M 536 63 L 504 0 M 598 63 L 630 0 M 598 31.5 L 662 0 M 220 605 L 220 643 L 239 699 L 277 718 L 315 718 L 353 699 L 428 643 L 466 624 L 504 624 L 542 643 L 561 680 M 220 643 L 239 680 L 277 699 L 315 699 L 353 680 L 428 624 L 466 605 L 504 605 L 542 624 L 561 680 L 561 718" />
<glyph unicode="&#xf2;" glyph-name="ograve" horiz-adv-x="630" d="M 315 441 L 220 410 L 158 346 L 126 252 L 126 189 L 158 94.5 L 220 31.5 L 315 0 L 378 0 L 472 31.5 L 536 94.5 L 567 189 L 567 252 L 536 346 L 472 410 L 378 441 L 315 441 M 189 346 L 158 284 L 158 158 L 189 94.5 M 504 94.5 L 536 158 L 536 284 L 504 346 M 315 441 L 252 410 L 220 378 L 189 284 L 189 158 L 220 63 L 252 31.5 L 315 0 M 378 0 L 441 31.5 L 472 63 L 504 158 L 504 284 L 472 378 L 441 410 L 378 441 M 189 788 L 346 598 M 189 788 L 158 756 L 346 598" />
<glyph unicode="&#xf3;" glyph-name="oacute" horiz-adv-x="630" d="M 315 441 L 220 410 L 158 346 L 126 252 L 126 189 L 158 94.5 L 220 31.5 L 315 0 L 378 0 L 472 31.5 L 536 94.5 L 567 189 L 567 252 L 536 346 L 472 410 L 378 441 L 315 441 M 189 346 L 158 284 L 158 158 L 189 94.5 M 504 94.5 L 536 158 L 536 284 L 504 346 M 315 441 L 252 410 L 220 378 L 189 284 L 189 158 L 220 63 L 252 31.5 L 315 0 M 378 0 L 441 31.5 L 472 63 L 504 158 L 504 284 L 472 378 L 441 410 L 378 441 M 536 788 L 378 598 M 536 788 L 567 756 L 378 598" />
<glyph unicode="&#xf4;" glyph-name="ocircumflex" horiz-adv-x="630" d="M 315 441 L 220 410 L 158 346 L 126 252 L 126 189 L 158 94.5 L 220 31.5 L 315 0 L 378 0 L 472 31.5 L 536 94.5 L 567 189 L 567 252 L 536 346 L 472 410 L 378 441 L 315 441 M 189 346 L 158 284 L 158 158 L 189 94.5 M 504 94.5 L 536 158 L 536 284 L 504 346 M 315 441 L 252 410 L 220 378 L 189 284 L 189 158 L 220 63 L 252 31.5 L 315 0 M 378 0 L 441 31.5 L 472 63 L 504 158 L 504 284 L 472 378 L 441 410 L 378 441 M 189 605 L 340 699 L 491 605 M 189 605 L 340 680 L 491 605" />
<glyph unicode="&#xf5;" glyph-name="otilde" horiz-adv-x="630" d="M 315 441 L 220 410 L 158 346 L 126 252 L 126 189 L 158 94.5 L 220 31.5 L 315 0 L 378 0 L 472 31.5 L 536 94.5 L 567 189 L 567 252 L 536 346 L 472 410 L 378 441 L 315 441 M 189 346 L 158 284 L 158 158 L 189 94.5 M 504 94.5 L 536 158 L 536 284 L 504 346 M 315 441 L 252 410 L 220 378 L 189 284 L 189 158 L 220 63 L 252 31.5 L 315 0 M 378 0 L 441 31.5 L 472 63 L 504 158 L 504 284 L 472 378 L 441 410 L 378 441 M 202 605 L 202 643 L 220 699 L 258 718 L 296 718 L 334 699 L 410 643 L 447 624 L 485 624 L 523 643 L 542 680 M 202 643 L 220 680 L 258 699 L 296 699 L 334 680 L 410 624 L 447 605 L 485 605 L 523 624 L 542 680 L 542 718" />
<glyph unicode="&#xf6;" glyph-name="odieresis" horiz-adv-x="630" d="M 315 441 L 220 410 L 158 346 L 126 252 L 126 189 L 158 94.5 L 220 31.5 L 315 0 L 378 0 L 472 31.5 L 536 94.5 L 567 189 L 567 252 L 536 346 L 472 410 L 378 441 L 315 441 M 189 346 L 158 284 L 158 158 L 189 94.5 M 504 94.5 L 536 158 L 536 284 L 504 346 M 315 441 L 252 410 L 220 378 L 189 284 L 189 158 L 220 63 L 252 31.5 L 315 0 M 378 0 L 441 31.5 L 472 63 L 504 158 L 504 284 L 472 378 L 441 410 L 378 441 M 224 756 L 193 724 L 193 693 L 224 662 L 256 662 L 287 693 L 287 724 L 256 756 L 224 756 M 224 724 L 224 693 L 256 693 L 256 724 L 224 724 M 469 756 L 437 724 L 437 693 L 469 662 L 500 662 L 532 693 L 532 724 L 500 756 L 469 756 M 469 724 L 469 693 L 500 693 L 500 724 L 469 724" />
<glyph unicode="&#xf7;" glyph-name="divide" horiz-adv-x="614" d="M 315 583 L 284 551 L 284 520 L 315 488 L 346 488 L 378 520 L 378 551 L 346 583 L 315 583 M 315 551 L 315 520 L 346 520 L 346 551 L 315 551 M 315 236 L 284 205 L 284 173 L 315 142 L 346 142 L 378 173 L 378 205 L 346 236 L 315 236 M 315 205 L 315 173 L 346 173 L 346 205 L 315 205 M 118 378 L 543 378" />
<glyph unicode="&#xf8;" glyph-name="oslash" horiz-adv-x="630" d="M 315 441 L 220 410 L 158 346 L 126 252 L 126 189 L 158 94.5 L 220 31.5 L 315 0 L 378 0 L 472 31.5 L 536 94.5 L 567 189 L 567 252 L 536 346 L 472 410 L 378 441 L 315 441 M 189 346 L 158 284 L 158 158 L 189 94.5 M 504 94.5 L 536 158 L 536 284 L 504 346 M 315 441 L 252 410 L 220 378 L 189 284 L 189 158 L 220 63 L 252 31.5 L 315 0 M 378 0 L 441 31.5 L 472 63 L 504 158 L 504 284 L 472 378 L 441 410 L 378 441 M 507 551 L 110 -154 L 132 -154 M 507 551 L 529 551 L 132 -154" />
<glyph unicode="&#xf9;" glyph-name="ugrave" horiz-adv-x="724" d="M 189 441 L 189 158 L 220 63 L 252 31.5 L 315 0 L 410 0 L 472 31.5 L 504 63 L 536 126 M 220 410 L 220 126 L 252 63 M 94.5 441 L 252 441 L 252 126 L 284 31.5 L 315 0 M 536 441 L 536 0 L 693 0 M 567 410 L 567 31.5 M 441 441 L 598 441 L 598 0 M 126 441 L 189 410 M 158 441 L 189 378 M 598 63 L 630 0 M 598 31.5 L 662 0 M 236 788 L 394 598 M 236 788 L 205 756 L 394 598" />
<glyph unicode="&#xfa;" glyph-name="uacute" horiz-adv-x="724" d="M 189 441 L 189 158 L 220 63 L 252 31.5 L 315 0 L 410 0 L 472 31.5 L 504 63 L 536 126 M 220 410 L 220 126 L 252 63 M 94.5 441 L 252 441 L 252 126 L 284 31.5 L 315 0 M 536 441 L 536 0 L 693 0 M 567 410 L 567 31.5 M 441 441 L 598 441 L 598 0 M 126 441 L 189 410 M 158 441 L 189 378 M 598 63 L 630 0 M 598 31.5 L 662 0 M 583 788 L 425 598 M 583 788 L 614 756 L 425 598" />
<glyph unicode="&#xfb;" glyph-name="ucircumflex" horiz-adv-x="724" d="M 189 441 L 189 158 L 220 63 L 252 31.5 L 315 0 L 410 0 L 472 31.5 L 504 63 L 536 126 M 220 410 L 220 126 L 252 63 M 94.5 441 L 252 441 L 252 126 L 284 31.5 L 315 0 M 536 441 L 536 0 L 693 0 M 567 410 L 567 31.5 M 441 441 L 598 441 L 598 0 M 126 441 L 189 410 M 158 441 L 189 378 M 598 63 L 630 0 M 598 31.5 L 662 0 M 217 605 L 369 699 L 520 605 M 217 605 L 369 680 L 520 605" />
<glyph unicode="&#xfc;" glyph-name="udieresis" horiz-adv-x="724" d="M 189 441 L 189 158 L 220 63 L 252 31.5 L 315 0 L 410 0 L 472 31.5 L 504 63 L 536 126 M 220 410 L 220 126 L 252 63 M 94.5 441 L 252 441 L 252 126 L 284 31.5 L 315 0 M 536 441 L 536 0 L 693 0 M 567 410 L 567 31.5 M 441 441 L 598 441 L 598 0 M 126 441 L 189 410 M 158 441 L 189 378 M 598 63 L 630 0 M 598 31.5 L 662 0 M 272 756 L 240 724 L 240 693 L 272 662 L 303 662 L 335 693 L 335 724 L 303 756 L 272 756 M 272 724 L 272 693 L 303 693 L 303 724 L 272 724 M 516 756 L 484 724 L 484 693 L 516 662 L 547 662 L 579 693 L 579 724 L 547 756 L 516 756 M 516 724 L 516 693 L 547 693 L 547 724 L 516 724" />
<glyph unicode="&#xfd;" glyph-name="yacute" horiz-adv-x="598" d="M 158 441 L 346 0 M 189 441 L 346 63 M 220 441 L 378 63 M 536 410 L 378 63 L 284 -126 L 220 -189 L 158 -220 L 94.5 -220 L 63 -189 L 63 -126 L 126 -126 L 126 -189 L 94.5 -189 L 94.5 -158 M 94.5 441 L 315 441 M 410 441 L 598 441 M 126 441 L 220 378 M 284 441 L 220 410 M 472 441 L 536 410 M 567 441 L 536 410 M 520 788 L 362 598 M 520 788 L 551 756 L 362 598" />
<glyph unicode="&#xff;" glyph-name="ydieresis" horiz-adv-x="598" d="M 158 441 L 346 0 M 189 441 L 346 63 M 220 441 L 378 63 M 536 410 L 378 63 L 284 -126 L 220 -189 L 158 -220 L 94.5 -220 L 63 -189 L 63 -126 L 126 -126 L 126 -189 L 94.5 -189 L 94.5 -158 M 94.5 441 L 315 441 M 410 441 L 598 441 M 126 441 L 220 378 M 284 441 L 220 410 M 472 441 L 536 410 M 567 441 L 536 410 M 208 756 L 176 724 L 176 693 L 208 662 L 239 662 L 271 693 L 271 724 L 239 756 L 208 756 M 208 724 L 208 693 L 239 693 L 239 724 L 208 724 M 454 756 L 422 724 L 422 693 L 454 662 L 485 662 L 517 693 L 517 724 L 485 756 L 454 756 M 454 724 L 454 693 L 485 693 L 485 724 L 454 724" />
<glyph unicode="&#x2013;" glyph-name="endash" horiz-adv-x="614" d="M 118 284 L 543 284" />
<glyph unicode="&#x2014;" glyph-name="emdash" horiz-adv-x="819" d="M 158 284 L 724 284" />
<glyph unicode="&#x201c;" glyph-name="quotedblleft" horiz-adv-x="472" d="M 170 737 L 241 567 M 170 737 L 156 709 L 241 567 M 312 737 L 383 567 M 312 737 L 298 709 L 383 567" />
<glyph unicode="&#x201d;" glyph-name="quotedblright" horiz-adv-x="472" d="M 128 652 L 56.7 482 M 128 652 L 142 624 L 56.7 482 M 269 652 L 198 482 M 269 652 L 284 624 L 198 482" />
<glyph unicode="&#x2039;" glyph-name="guilsinglleft" horiz-adv-x="302" d="M 265 454 L 63 227 L 265 0" />
<glyph unicode="&#x203a;" glyph-name="guilsinglright" horiz-adv-x="302" d="M 63 454 L 265 227 L 63 0" />
<glyph unicode="&#x20ac;" glyph-name="Euro" horiz-adv-x="662" d="M 567 567 L 598 662 L 598 472 L 567 567 L 504 630 L 441 662 L 346 662 L 252 630 L 189 567 L 158 504 L 126 410 L 126 252 L 158 158 L 189 94.5 L 252 31.5 L 346 0 L 441 0 L 504 31.5 L 567 94.5 L 598 158 M 220 567 L 189 504 L 158 410 L 158 252 L 189 158 L 220 94.5 M 346 662 L 284 630 L 220 536 L 189 410 L 189 252 L 220 126 L 284 31.5 L 346 0 M 94.5 227 L 435 227 M 94.5 302 L 435 302" />
<glyph unicode="&#x0178;" glyph-name="Ydieresis" horiz-adv-x="693" d="M 126 662 L 346 315 L 346 0 M 158 662 L 378 315 L 378 31.5 M 189 662 L 410 315 L 410 0 M 598 630 L 410 315 M 63 662 L 284 662 M 504 662 L 693 662 M 252 0 L 504 0 M 94.5 662 L 158 630 M 252 662 L 189 630 M 536 662 L 598 630 M 662 662 L 598 630 M 346 31.5 L 284 0 M 346 63 L 315 0 M 410 63 L 441 0 M 410 31.5 L 472 0 M 282 945 L 251 914 L 251 882 L 282 850 L 314 850 L 345 882 L 345 914 L 314 945 L 282 945 M 282 914 L 282 882 L 314 882 L 314 914 L 282 914 M 537 945 L 505 914 L 505 882 L 537 850 L 568 850 L 600 882 L 600 914 L 568 945 L 537 945 M 537 914 L 537 882 L 568 882 L 568 914 L 537 914" />
<glyph unicode="&#x102;" glyph-name="Abreve" horiz-adv-x="630" d="M 346 662 L 126 31.5 M 315 567 L 504 0 M 346 567 L 536 0 M 346 662 L 567 0 M 189 189 L 472 189 M 63 0 L 252 0 M 410 0 L 630 0 M 126 31.5 L 94.5 0 M 126 31.5 L 189 0 M 504 31.5 L 441 0 M 504 63 L 472 0 M 536 63 L 598 0 M258.86 982.168C258.86 982.168 327.051 880 371.281 880C415.511 880 483.702 982.168 483.702 982.168M258.86 982.168C258.86 982.168 329.384 900.692 371.281 900.692C413.178 900.692 483.702 982.168 483.702 982.168" />
<glyph unicode="&#x114;" glyph-name="Ebreve" horiz-adv-x="662" d="M 189 662 L 189 0 M 220 630 L 220 31.5 M 252 662 L 252 0 M 94.5 662 L 598 662 L 598 472 M 252 346 L 441 346 M 441 472 L 441 220 M 94.5 0 L 598 0 L 598 189 M 126 662 L 189 630 M 158 662 L 189 598 M 284 662 L 252 598 M 315 662 L 252 630 M 441 662 L 598 630 M 504 662 L 598 598 M 536 662 L 598 567 M 567 662 L 598 472 M 441 472 L 410 346 L 441 220 M 441 410 L 378 346 L 441 284 M 441 378 L 315 346 L 441 315 M 189 31.5 L 126 0 M 189 63 L 158 0 M 252 63 L 284 0 M 252 31.5 L 315 0 M 441 0 L 598 31.5 M 504 0 L 598 63 M 536 0 L 598 94.5 M 567 0 L 598 189 M268.86 982.168C268.86 982.168 337.051 880 381.281 880C425.511 880 493.702 982.168 493.702 982.168M268.86 982.168C268.86 982.168 339.384 900.692 381.281 900.692C423.178 900.692 493.702 982.168 493.702 982.168" />
<glyph unicode="&#x11E;" glyph-name="Gbreve" horiz-adv-x="724" d="M 567 567 L 598 662 L 598 472 L 567 567 L 504 630 L 441 662 L 346 662 L 252 630 L 189 567 L 158 504 L 126 410 L 126 252 L 158 158 L 189 94.5 L 252 31.5 L 346 0 L 441 0 L 504 31.5 L 567 31.5 L 598 0 L 598 252 M 220 567 L 189 504 L 158 410 L 158 252 L 189 158 L 220 94.5 M 346 662 L 284 630 L 220 536 L 189 410 L 189 252 L 220 126 L 284 31.5 L 346 0 M 567 220 L 567 63 M 536 252 L 536 63 L 504 31.5 M 441 252 L 693 252 M 472 252 L 536 220 M 504 252 L 536 189 M 630 252 L 598 189 M 662 252 L 598 220 M288.86 982.168C288.86 982.168 357.051 880 401.281 880C445.511 880 513.702 982.168 513.702 982.168M288.86 982.168C288.86 982.168 359.384 900.692 401.281 900.692C443.178 900.692 513.702 982.168 513.702 982.168" />
<glyph unicode="&#x12C;" glyph-name="Ibreve" horiz-adv-x="378" d="M 189 662 L 189 0 M 220 630 L 220 31.5 M 252 662 L 252 0 M 94.5 662 L 346 662 M 94.5 0 L 346 0 M 126 662 L 189 630 M 158 662 L 189 598 M 284 662 L 252 598 M 315 662 L 252 630 M 189 31.5 L 126 0 M 189 63 L 158 0 M 252 63 L 284 0 M 252 31.5 L 315 0 M138.86 982.168C138.86 982.168 207.051 880 251.281 880C295.511 880 363.702 982.168 363.702 982.168M138.86 982.168C138.86 982.168 209.384 900.692 251.281 900.692C293.178 900.692 363.702 982.168 363.702 982.168" />
<glyph unicode="&#x14E;" glyph-name="Obreve" horiz-adv-x="693" d="M 346 662 L 252 630 L 189 567 L 158 504 L 126 378 L 126 284 L 158 158 L 189 94.5 L 252 31.5 L 346 0 L 410 0 L 504 31.5 L 567 94.5 L 598 158 L 630 284 L 630 378 L 598 504 L 567 567 L 504 630 L 410 662 L 346 662 M 220 567 L 189 504 L 158 410 L 158 252 L 189 158 L 220 94.5 M 536 94.5 L 567 158 L 598 252 L 598 410 L 567 504 L 536 567 M 346 662 L 284 630 L 220 536 L 189 410 L 189 252 L 220 126 L 284 31.5 L 346 0 M 410 0 L 472 31.5 L 536 126 L 567 252 L 567 410 L 536 536 L 472 630 L 410 662 M278.86 982.168C278.86 982.168 347.051 880 391.281 880C435.511 880 503.702 982.168 503.702 982.168M278.86 982.168C278.86 982.168 349.384 900.692 391.281 900.692C433.178 900.692 503.702 982.168 503.702 982.168" />
<glyph unicode="&#x16C;" glyph-name="Ubreve" horiz-adv-x="756" d="M 189 662 L 189 189 L 220 94.5 L 284 31.5 L 378 0 L 441 0 L 536 31.5 L 598 94.5 L 630 189 L 630 630 M 220 630 L 220 158 L 252 94.5 M 252 662 L 252 158 L 284 63 L 315 31.5 L 378 0 M 94.5 662 L 346 662 M 536 662 L 724 662 M 126 662 L 189 630 M 158 662 L 189 598 M 284 662 L 252 598 M 315 662 L 252 630 M 567 662 L 630 630 M 693 662 L 630 630 M298.86 982.168C298.86 982.168 367.051 880 411.281 880C455.511 880 523.702 982.168 523.702 982.168M298.86 982.168C298.86 982.168 369.384 900.692 411.281 900.692C453.178 900.692 523.702 982.168 523.702 982.168" />
<glyph unicode="&#x103;" glyph-name="abreve" horiz-adv-x="630" d="M 189 346 L 189 378 L 220 378 L 220 315 L 158 315 L 158 378 L 189 410 L 252 441 L 378 441 L 441 410 L 472 378 L 504 315 L 504 94.5 L 536 31.5 L 567 0 M 441 378 L 472 315 L 472 94.5 L 504 31.5 M 378 441 L 410 410 L 441 346 L 441 94.5 L 472 31.5 L 567 0 L 598 0 M 441 284 L 410 252 L 252 220 L 158 189 L 126 126 L 126 94.5 L 158 31.5 L 252 0 L 346 0 L 410 31.5 L 441 94.5 M 189 189 L 158 126 L 158 94.5 L 189 31.5 M 410 252 L 284 220 L 220 189 L 189 126 L 189 94.5 L 220 31.5 L 252 0 M258.86 782.168C258.86 782.168 327.051 680 371.281 680C415.511 680 483.702 782.168 483.702 782.168M258.86 782.168C258.86 782.168 329.384 700.692 371.281 700.692C413.178 700.692 483.702 782.168 483.702 782.168" />
<glyph unicode="&#x115;" glyph-name="ebreve" horiz-adv-x="598" d="M 189 252 L 536 252 L 536 315 L 504 378 L 472 410 L 378 441 L 315 441 L 220 410 L 158 346 L 126 252 L 126 189 L 158 94.5 L 220 31.5 L 315 0 L 378 0 L 472 31.5 L 536 94.5 M 504 284 L 504 315 L 472 378 M 189 346 L 158 284 L 158 158 L 189 94.5 M 472 252 L 472 346 L 441 410 L 378 441 M 315 441 L 252 410 L 220 378 L 189 284 L 189 158 L 220 63 L 252 31.5 L 315 0 M248.86 782.168C248.86 782.168 317.051 680 361.281 680C405.511 680 473.702 782.168 473.702 782.168M248.86 782.168C248.86 782.168 319.384 700.692 361.281 700.692C403.178 700.692 473.702 782.168 473.702 782.168" />
<glyph unicode="&#x11F;" glyph-name="gbreve" horiz-adv-x="598" d="M 504 410 L 536 378 L 567 410 L 536 441 L 504 441 L 441 410 L 410 378 M 284 441 L 220 410 L 189 378 L 158 315 L 158 252 L 189 189 L 220 158 L 284 126 L 346 126 L 410 158 L 441 189 L 472 252 L 472 315 L 441 378 L 410 410 L 346 441 L 284 441 M 220 378 L 189 315 L 189 252 L 220 189 M 410 189 L 441 252 L 441 315 L 410 378 M 284 441 L 252 410 L 220 346 L 220 220 L 252 158 L 284 126 M 346 126 L 378 158 L 410 220 L 410 346 L 378 410 L 346 441 M 189 189 L 158 158 L 126 94.5 L 126 63 L 158 0 L 189 -31.5 L 284 -63 L 410 -63 L 504 -94.5 L 536 -126 M 189 0 L 284 -31.5 L 410 -31.5 L 504 -63 M 126 63 L 158 31.5 L 252 0 L 410 0 L 504 -31.5 L 536 -94.5 L 536 -126 L 504 -189 L 410 -220 L 220 -220 L 126 -189 L 94.5 -126 L 94.5 -94.5 L 126 -31.5 L 220 0 M 220 -220 L 158 -189 L 126 -126 L 126 -94.5 L 158 -31.5 L 220 0 M248.86 782.168C248.86 782.168 317.051 680 361.281 680C405.511 680 473.702 782.168 473.702 782.168M248.86 782.168C248.86 782.168 319.384 700.692 361.281 700.692C403.178 700.692 473.702 782.168 473.702 782.168" />
<glyph unicode="&#x12D;" glyph-name="ibreve" horiz-adv-x="378" d="M 189 441 L 189 0 M 220 410 L 220 31.5 M 94.5 441 L 252 441 L 252 0 M 94.5 0 L 346 0 M 126 441 L 189 410 M 158 441 L 189 378 M 189 31.5 L 126 0 M 189 63 L 158 0 M 252 63 L 284 0 M 252 31.5 L 315 0 M138.86 782.168C138.86 782.168 207.051 680 251.281 680C295.511 680 363.702 782.168 363.702 782.168M138.86 782.168C138.86 782.168 209.384 700.692 251.281 700.692C293.178 700.692 363.702 782.168 363.702 782.168" />
<glyph unicode="&#x14F;" glyph-name="obreve" horiz-adv-x="630" d="M 315 441 L 220 410 L 158 346 L 126 252 L 126 189 L 158 94.5 L 220 31.5 L 315 0 L 378 0 L 472 31.5 L 536 94.5 L 567 189 L 567 252 L 536 346 L 472 410 L 378 441 L 315 441 M 189 346 L 158 284 L 158 158 L 189 94.5 M 504 94.5 L 536 158 L 536 284 L 504 346 M 315 441 L 252 410 L 220 378 L 189 284 L 189 158 L 220 63 L 252 31.5 L 315 0 M 378 0 L 441 31.5 L 472 63 L 504 158 L 504 284 L 472 378 L 441 410 L 378 441 M258.86 782.168C258.86 782.168 327.051 680 371.281 680C415.511 680 483.702 782.168 483.702 782.168M258.86 782.168C258.86 782.168 329.384 700.692 371.281 700.692C413.178 700.692 483.702 782.168 483.702 782.168" />
<glyph unicode="&#x16D;" glyph-name="ubreve" horiz-adv-x="724" d="M 189 441 L 189 158 L 220 63 L 252 31.5 L 315 0 L 410 0 L 472 31.5 L 504 63 L 536 126 M 220 410 L 220 126 L 252 63 M 94.5 441 L 252 441 L 252 126 L 284 31.5 L 315 0 M 536 441 L 536 0 L 693 0 M 567 410 L 567 31.5 M 441 441 L 598 441 L 598 0 M 126 441 L 189 410 M 158 441 L 189 378 M 598 63 L 630 0 M 598 31.5 L 662 0 M288.86 782.168C288.86 782.168 357.051 680 401.281 680C445.511 680 513.702 782.168 513.702 782.168M288.86 782.168C288.86 782.168 359.384 700.692 401.281 700.692C443.178 700.692 513.702 782.168 513.702 782.168" />
<glyph unicode="&#x15F;" glyph-name="scedilla" horiz-adv-x="536" d="M314.626 -22.9688L315.118 -55.479L347.401 -72.1402L349.747 -112.462L296.727 -123.968L244.31 -107.348M336.442 -13.369L329.967 -43.4244L364.486 -58.766L367.043 -122.69L291.613 -144.424L244.31 -107.348L276.272 -108.626L328.689 -102.234L327.411 -76.6646L287.778 -66.4369L289.056 -14.0195M441 378L472 441L472 315L441 378L410 410L346 441L220 441L158 410L126 378L126 315L158 252L220 220L378 189L441 158L472 63M158 410L126 315M158 284L220 252L378 220L441 189M472 158L441 31.5M126 378L158 315L220 284L378 252L441 220L472 158L472 63L441 31.5L378 -0L252 -0L189 31.5L158 63L126 126L126 -0L158 63" />
<glyph unicode="&#xE6;" glyph-name="ae" horiz-adv-x="890" d="M631.177 441L568.177 410L536.177 378L505.177 284L505.177 108L536.177 63L568.177 31.5L631.177 3.99571e-05M788.177 252L788.177 346L757.177 410L694.177 441M820.177 284L820.177 315L788.177 378M505.177 252L852.177 252L852.177 315L820.177 378L788.177 410L694.177 441L631.177 441L536.177 410L483.473 355.597M631.177 3.99571e-05L694.177 3.99571e-05L788.177 31.5L852.177 94.5M189 346L189 378L220 378L220 315L158 315L158 378L189 410L252 441L378 441L441 410L472 378L504 315M441 378L472 315L472 94.5L538.733 28.7579M378 441L410 410L441 346L441 94.5L472 31.5L567 -0L618 -0M441 284L410 252L252 220L158 189L126 126L126 94.5L158 31.5L252 -0L346 -0L410 31.5L441 94.5M189 189L158 126L158 94.5L189 31.5M410 252L284 220L220 189L189 126L189 94.5L220 31.5L252 -0" />
<glyph unicode="&#xc7;" glyph-name="Ccedilla" horiz-adv-x="662" d="M412 2.77417e-05C417.005 -10.1067 402.693 -25.1602 411.377 -33.4328C455.305 -75.2779 460.151 -176.045 304.04 -110.124C346.201 -109.974 381.27 -108.468 391.552 -81.4044C403.605 -44.7511 354.978 -51.9778 356.474 -0.762211ZM386.436 -11.249C426.159 -92.887 445.144 -142.2 304.04 -110.124M567 567L598 662L598 472L567 567L504 630L441 662L346 662L252 630L189 567L158 504L126 410L126 252L158 158L189 94.5L252 31.5L346 -0L441 -0L504 31.5L567 94.5L598 158M220 567L189 504L158 410L158 252L189 158L220 94.5M346 662L284 630L220 536L189 410L189 252L220 126L284 31.5L346 -0" />
<glyph unicode="&#x15E;" glyph-name="Scedilla" horiz-adv-x="630" d="M358.706 -29.4358L359.283 -67.5311L397.111 -87.0547L399.86 -134.303L337.732 -147.786L276.31 -128.311M384.27 -18.1869L376.683 -53.4056L417.132 -71.3829L420.128 -146.288L331.74 -171.756L276.31 -128.311L313.763 -129.809L375.185 -122.319L373.687 -92.3564L327.245 -80.3715L328.744 -18.9491M536 567L567 662L567 472L536 567L472 630L378 662L284 662L189 630L126 567L126 472L158 410L252 346L441 284L504 252L536 189L536 94.5L504 31.5M158 472L189 410L252 378L441 315L504 284L536 220M189 630L158 567L158 504L189 441L252 410L441 346L536 284L567 220L567 126L536 63L504 31.5L410 -0L315 -0L220 31.5L158 94.5L126 189L126 -0L158 94.5" />
<glyph unicode="&#xC6;" glyph-name="AE" horiz-adv-x="930" d="M504.085 662L504.085 -0M535.085 630L535.085 31.5M567.085 662L567.085 -0M409.585 662L913.085 662L913.085 472M567.085 346L756.085 346M756.085 472L756.085 220M409.585 -0L913.085 -0L913.085 189M441.085 662L504.085 630M473.085 662L504.085 598M599.085 662L567.085 598M630.085 662L567.085 630M756.085 662L913.085 630M819.085 662L913.085 598M851.085 662L913.085 567M882.085 662L913.085 472M756.085 472L725.085 346L756.085 220M756.085 410L693.085 346L756.085 284M756.085 378L630.085 346L756.085 315M504.085 31.5L441.085 -0M504.085 63L473.085 -0M567.085 63L599.085 -0M567.085 31.5L630.085 -0M756.085 -0L913.085 31.5M819.085 -0L913.085 63M851.085 -0L913.085 94.5M882.085 -0L913.085 189M126 31.5L189 -0M126 31.5L94.5 -0M63 -0L252 -0M221 189L504 189M506 662L126 31.5" />
<glyph unicode="&#x130;" glyph-name="Idotaccent" horiz-adv-x="378" d="M186.127 850.983L186.127 786.983L249.127 786.983L249.127 850.983L186.127 850.983M217.127 850.983L217.127 786.983M186.127 818.983L249.127 818.983M189 662L189 -0M220 630L220 31.5M252 662L252 -0M94.5 662L346 662M94.5 -0L346 -0M126 662L189 630M158 662L189 598M284 662L252 598M315 662L252 630M189 31.5L126 -0M189 63L158 -0M252 63L284 -0M252 31.5L315 -0" />
<glyph unicode="&#x2D8;" glyph-name="breve" horiz-adv-x="693" d="M218.86 362.168C218.86 362.168 287.051 260 331.281 260C375.511 260 443.702 362.168 443.702 362.168M218.86 362.168C218.86 362.168 289.384 280.692 331.281 280.692C373.178 280.692 443.702 362.168 443.702 362.168" />
<glyph unicode="&#xe7;" glyph-name="ccedilla" horiz-adv-x="598" d="M387.787 -74.7441C387.787 -74.7441 384.031 -108.487 361.065 -122.125C338.099 -135.764 316.592 -134.43 316.592 -134.43M337 -6L362.939 -40.4565L403.388 -58.4338L406.385 -133.339L317.996 -158.807L259.388 -115.362L300.019 -116.86C356.662 -123.488 377.223 -87.9681 335.502 -67.4224L337 -6M504 315L504 346L472 346L472 284L536 284L536 346L472 410L410 441L315 441L220 410L158 346L126 252L126 189L158 94.5L220 31.5L315 -0L378 -0L472 31.5L536 94.5M189 346L158 284L158 158L189 94.5M315 441L252 410L220 378L189 284L189 158L220 63L252 31.5L315 -0" />
<glyph unicode="&#xa3;" glyph-name="sterling" horiz-adv-x="567" d="M251.327 261.29L324.075 261.29M94.8663 237.505L311.356 237.505L423.123 286.112L218.338 286.112ZM94.5 -0L567 -0L567 189M189 31.5L126 -0M189 63L158 -0M252 63L284 -0M252 31.5L315 -0M410 -0L567 31.5M472 -0L567 63M504 -0L567 94.5M536 -0L567 189M479 597.487L510 535.487L510 511.487L496.065 472.758M380 661.487L444 629.487L475 566.487L475 420.487M479 419.487L510 451.487L542 513.487L542 535.487L510 597.487L479 629.487L384 661.487L347.702 661.5L252 629.513L221 597.513L189 535.513L189 409.25L189 -0M252 597.513L221 535.513L220.25 405.25L220 31.5M347 661.513L283 629.513L252 566.513L252 406.5L252 -0" />
<glyph unicode="&#x131;" glyph-name="dotlessi" horiz-adv-x="378" d="M189 441L189 -0M220 410L220 31.5M94.5 441L252 441L252 -0M94.5 -0L346 -0M126 441L189 410M158 441L189 378M189 31.5L126 -0M189 63L158 -0M252 63L284 -0M252 31.5L315 -0" />
<glyph unicode="&#xb8;" glyph-name="cedilla" horiz-adv-x="756" d="M472 -0L464.413 -35.2187L504.862 -53.196L507.858 -128.101L419.47 -153.569L364.04 -110.124L401.493 -111.622L462.915 -104.132L461.417 -74.1695L414.976 -62.1847L416.474 -0.762239Z" />
<glyph unicode="&#xb8;" glyph-name="cedilla" horiz-adv-x="756" d="M446.436 -11.249C445.826 -71.4469 491.557 -66.2929 491.379 -116.117L425.463 -129.599L364.04 -110.124" />
<glyph unicode="&#xdf;" glyph-name="germandbls" horiz-adv-x="693" d="M559 598L590 536L590 472L559 410M460 662L524 630L555 567L555 441L524 378L460 346M271.625 -0L114.5 -0M587 284L618 220L618 126L587 63M492 346L556 315L587 252L587 94.5L556 31.5L492 -0M209 31.5L146 -0M209 63L178 -0M392 346L492 346L587 315L618 284L650 220L650 126L618 63L587 31.5L492 -0L391.625 -0L391.625 61.7522M464 346L559 378L590 410L622 472L622 536L590 598L559 630L464 662L367.702 662.013L272 630.026L241 598.026L209 536.026L209 457.013L209 -0M272 598.026L241 536.026L240.5 461.013L240 31.5M367 662.026L303 630.026L272 567.026L272 411.513L272 -0" />
</font>
</defs>
</svg>
