<?xml version="1.0" encoding="UTF-8" ?>
<!DOCTYPE svg PUBLIC "-//W3C//DTD SVG 1.1//EN" "http://www.w3.org/Graphics/SVG/1.1/DTD/svg11.dtd" >

<svg xmlns="http://www.w3.org/2000/svg" xmlns:xlink="http://www.w3.org/1999/xlink" version="1.1">

<metadata>
Font name:               EMS Allure
License:                 SIL Open Font License http://scripts.sil.org/OFL
Created by:              Sheldon B. Michaels
SVG font conversion by:  Windell H. Oskay
A derivative of:         Allura
Designer:                Rob Leuschke, TypeSETit
Link:                    http://www.typesetit.com
Google font page:        https://fonts.google.com/specimen/Allura
</metadata>
<defs>
<font id="EMSAllure" horiz-adv-x="378" >
<font-face
font-family="EMS Allure"
units-per-em="1000"
ascent="800"
descent="-200"
cap-height="500"
x-height="300"
/>
<missing-glyph horiz-adv-x="378" />
<glyph unicode=" " glyph-name="space" horiz-adv-x="378" />
<glyph unicode="!" glyph-name="exclam" horiz-adv-x="359" d="M 444 665 L 403 592 L 295 362 L 232 214 M 204 63 L 182 40.9" />
<glyph unicode="&#x22;" glyph-name="quotedbl" horiz-adv-x="302" d="M 94.5 548 L 78.8 403 M 233 548 L 211 400" />
<glyph unicode="#" glyph-name="numbersign" horiz-adv-x="926" d="M 410 743 L 167 40.9 M 693 737 L 460 37.8 M 94.5 469 L 825 472 M 12.6 192 L 753 192" />
<glyph unicode="$" glyph-name="dollar" horiz-adv-x="592" d="M 372 403 L 447 463 L 479 532 L 463 586 L 419 608 L 328 608 L 205 576 L 126 513 L 97.6 457 L 91.4 422 L 97.6 375 L 246 198 L 274 151 L 249 117 L 192 101 L 142 107 L 88.2 117 L 63 129 M 432 658 L 403 633 L 239 359 L 63 12.6" />
<glyph unicode="%" glyph-name="percent" horiz-adv-x="548" d="M 189 649 L 120 621 L 66.1 558 L 66.1 479 L 104 444 L 164 450 L 211 495 L 243 545 L 246 602 L 233 633 L 205 646 L 271 624 L 413 630 L 476 662 L 410 573 L 211 280 L 56.7 18.9 M 306 202 L 261 132 L 255 59.9 L 296 22 L 340 22 L 400 66.1 L 432 113 L 441 202 L 410 233 L 353 236 L 306 202" />
<glyph unicode="&amp;" glyph-name="ampersand" horiz-adv-x="828" d="M 602 658 L 573 646 L 542 595 L 526 561 L 526 520 M 548 621 L 510 662 L 457 690 L 359 680 L 280 652 L 249 567 L 274 488 L 321 410 L 387 340 L 274 328 L 164 315 L 66.1 239 L 25.2 145 L 56.7 59.9 L 120 3.15 L 224 -15.8 L 343 -3.15 L 450 25.2 L 539 72.4 L 598 142 L 636 214 L 646 280 L 639 321 L 621 375 M 728 491 L 728 463 L 696 428 L 570 350 L 472 309 L 384 265 L 340 192 L 343 154 L 372 110" />
<glyph unicode="&apos;" glyph-name="quotesingle" horiz-adv-x="173" d="M 97.6 551 L 78.8 400" />
<glyph unicode="(" glyph-name="parenleft" horiz-adv-x="447" d="M 501 684 L 293 573 L 148 444 L 72.5 315 L 25.2 154 L 18.9 18.9 L 37.8 -97.6 L 66.1 -161" />
<glyph unicode=")" glyph-name="parenright" horiz-adv-x="617" d="M 372 684 L 428 554 L 425 362 L 356 158 L 246 9.45 L 139 -75.6 L 41 -123 L -50.4 -158" />
<glyph unicode="*" glyph-name="asterisk" horiz-adv-x="762" d="M 236 602 L 243 598 L 400 261 M 457 617 L 186 271 M 554 438 L 117 428" />
<glyph unicode="+" glyph-name="plus" horiz-adv-x="731" d="M 101 243 L 586 243 M 435 432 L 249 15.8" />
<glyph unicode="," glyph-name="comma" horiz-adv-x="211" d="M 104 56.7 L 123 22 L 101 -9.45 L 28.4 -117" />
<glyph unicode="-" glyph-name="hyphen" horiz-adv-x="444" d="M 161 236 L 387 243" />
<glyph unicode="." glyph-name="period" horiz-adv-x="224" d="M 145 63 L 129 37.8" />
<glyph unicode="/" glyph-name="slash" horiz-adv-x="564" d="M 482 655 L 252 356 L 126 183 L 25.2 22" />
<glyph unicode="0" glyph-name="zero" horiz-adv-x="662" d="M 466 583 L 432 608 L 343 611 L 293 589 L 189 520 L 132 463 L 85 387 L 47.2 265 L 41 164 L 81.9 63 L 151 15.8 L 230 -6.3 L 318 9.45 L 422 63 L 520 161 L 576 268 L 608 384 L 608 479 L 583 558 L 532 608 L 479 649 L 425 665 L 350 668" />
<glyph unicode="1" glyph-name="one" horiz-adv-x="378" d="M 170 450 L 261 523 L 315 589 L 356 646 L 384 646 L 287 428 L 192 211 L 154 101 L 145 37.8 M 6.3 9.45 L 69.3 31.5 L 132 31.5 L 205 37.8 L 284 34.6" />
<glyph unicode="2" glyph-name="two" horiz-adv-x="702" d="M 198 491 L 195 501 L 195 536 L 287 602 L 372 630 L 472 643 L 573 621 L 621 586 L 649 510 L 617 432 L 539 346 L 435 265 L 350 205 L 261 148 L 198 113 L 170 97.6 L 123 66.1 L 104 47.2 L 56.7 15.8 L 56.7 47.2 L 81.9 81.9 L 120 94.5 L 186 91.4 L 255 66.1 L 299 37.8 L 403 -3.15 L 513 -6.3 L 570 18.9 L 617 56.7 L 630 85.1" />
<glyph unicode="3" glyph-name="three" horiz-adv-x="665" d="M 239 498 L 255 567 L 321 617 L 406 639 L 479 643 L 558 624 L 605 564 L 608 498 L 589 460 L 545 422 L 510 394 L 438 378 L 362 365 L 312 346 L 299 356 L 293 384 L 369 378 L 482 356 L 536 337 L 567 290 L 576 208 L 554 145 L 495 78.8 L 428 31.5 L 353 0 L 220 -18.9 L 148 -9.45 L 104 18.9 L 75.6 72.4 L 85 110 L 101 132" />
<glyph unicode="4" glyph-name="four" horiz-adv-x="558" d="M 243 -6.3 L 268 94.5 L 321 249 L 419 463 L 504 636 L 372 526 L 239 422 L 104 340 L 37.8 284 L -3.15 224 L 50.4 252 L 88.2 268 L 183 268 L 261 265 L 334 249 L 410 249 L 491 280 L 529 306 L 554 337" />
<glyph unicode="5" glyph-name="five" horiz-adv-x="643" d="M 318 608 L 220 460 L 164 362 L 220 397 L 312 428 L 387 432 L 460 416 L 523 378 L 548 321 L 548 255 L 523 183 L 457 101 L 378 50.4 L 284 12.6 L 192 -3.15 L 117 -3.15 L 50.4 9.45 L 3.15 31.5 L -25.2 78.8 L -34.6 129 L -15.8 154 M 280 614 L 422 624 L 570 630 L 652 624" />
<glyph unicode="6" glyph-name="six" horiz-adv-x="602" d="M 551 507 L 554 576 L 523 624 L 450 636 L 337 614 L 214 520 L 145 432 L 88.2 312 L 59.9 186 L 69.3 97.6 L 120 31.5 L 195 6.3 L 274 6.3 L 334 34.6 L 406 91.4 L 454 154 L 479 252 L 463 324 L 406 365 L 337 372 L 271 359 L 227 321" />
<glyph unicode="7" glyph-name="seven" horiz-adv-x="501" d="M 110 507 L 148 592 L 208 630 L 318 636 L 447 621 L 523 617 L 576 611 L 617 633 L 435 438 L 293 261 L 189 139 L 126 31.5 L 113 25.2" />
<glyph unicode="8" glyph-name="eight" horiz-adv-x="592" d="M 384 662 L 268 611 L 195 536 L 202 460 L 227 406 L 293 375 L 359 375 L 435 350 L 482 280 L 479 195 L 444 145 L 343 75.6 L 255 25.2 L 173 15.8 L 94.5 22 L 37.8 53.6 L 25.2 132 L 69.3 214 L 170 290 L 422 428 L 501 469 L 554 513 L 573 589 L 548 643 L 491 668 L 384 662" />
<glyph unicode="9" glyph-name="nine" horiz-adv-x="605" d="M 369 328 L 318 293 L 243 284 L 164 309 L 126 359 L 126 454 L 170 551 L 239 611 L 299 643 L 403 658 L 485 630 L 539 558 L 551 482 L 529 369 L 498 284 L 435 183 L 359 110 L 284 50.4 L 227 22 L 158 9.45 L 104 9.45 L 47.2 53.6 L 34.6 88.2 L 37.8 158" />
<glyph unicode=":" glyph-name="colon" horiz-adv-x="246" d="M 195 252 L 183 230 M 139 63 L 126 40.9" />
<glyph unicode=";" glyph-name="semicolon" horiz-adv-x="224" d="M 189 252 L 173 230 M 101 59.9 L 120 40.9 L 117 18.9 L 101 -9.45 L 31.5 -101" />
<glyph unicode="&#x3c;" glyph-name="less" horiz-adv-x="450" d="M 391 561 L 101 277 L 167 186 L 208 132 L 252 59.9" />
<glyph unicode="=" glyph-name="equal" horiz-adv-x="646" d="M 189 318 L 573 328 M 145 139 L 189 154 L 548 151" />
<glyph unicode="&#x3e;" glyph-name="greater" horiz-adv-x="472" d="M 252 554 L 328 438 L 391 375 L 293 280 L 173 164 L 85 78.8" />
<glyph unicode="?" glyph-name="question" horiz-adv-x="564" d="M 139 561 L 151 602 L 173 624 L 246 665 L 309 696 L 413 693 L 469 652 L 498 561 L 466 476 L 422 413 L 362 365 L 315 337 L 246 280 L 214 236 L 202 205 M 129 56.7 L 107 31.5" />
<glyph unicode="@" glyph-name="at" horiz-adv-x="895" d="M 602 517 L 510 551 L 381 501 L 284 428 L 220 356 L 186 293 L 183 236 L 208 202 L 249 186 L 309 202 L 362 252 L 450 340 L 554 463 L 576 463 L 529 369 L 507 299 L 501 214 L 529 183 L 598 189 L 680 255 L 750 359 L 788 447 L 797 554 L 759 649 L 658 712 L 539 724 L 406 709 L 265 646 L 132 542 L 53.5 438 L -3.15 284 L 6.3 170 L 41 97.6 L 132 18.9 L 258 -15.8 L 410 -12.6 L 570 28.4 L 580 34.6 L 715 123 L 788 202 L 816 258 L 822 312 L 816 378" />
<glyph unicode="A" glyph-name="A" horiz-adv-x="1061.6" d="M -9.45 40.9 L 9.45 -15.8 L 66.1 -56.7 L 154 -66.1 L 274 -25.2 L 406 78.8 L 529 205 L 662 359 L 737 463 L 813 558 L 882 636 L 939 699 L 958 706 L 876 570 L 797 346 L 753 189 L 750 97.6 L 775 18.9 L 819 3.15 L 910 53.6 L 986 126 L 1030.1 180 M 129 161 L 132 246 L 167 302 L 249 331 L 324 334 L 441 312 L 513 296 L 652 280 L 813 261 L 901 261 L 929 274 L 958 293" />
<glyph unicode="B" glyph-name="B" horiz-adv-x="860" d="M 94.5 328 L 22 369 L 3.15 419 L 25.2 510 L 117 583 L 328 680 L 548 712 L 696 709 L 781 677 L 819 627 L 816 561 L 788 520 L 737 479 L 598 435 L 529 425 L 469 416 L 428 410 L 542 324 L 633 246 L 668 158 L 652 72.4 L 605 12.6 L 532 -37.8 L 438 -44.1 L 375 -44.1 L 318 -25.2 L 290 31.5 L 277 81.9 L 208 31.5 L 161 0 L 148 25.2 L 186 148 L 324 406 L 372 510 L 419 561 L 479 573 L 517 570" />
<glyph unicode="C" glyph-name="C" horiz-adv-x="690" d="M 296 362 L 403 372 L 526 441 L 617 526 L 658 608 L 639 680 L 564 712 L 375 662 L 249 576 L 110 419 L 41 280 L 12.6 132 L 59.9 25.2 L 189 -31.5 L 346 -15.8 L 476 34.6 L 595 113 L 668 189" />
<glyph unicode="D" glyph-name="D" horiz-adv-x="1033.2" d="M 652 554 L 545 507 L 472 403 L 454 334 L 387 186 L 350 107 L 302 9.45 L 265 -44.1 L 236 -37.8 L 205 31.5 L 202 113 L 214 208 L 233 145 L 375 34.6 L 510 -9.45 L 728 25.2 L 863 113 L 976 220 L 1033.2 372 L 1020.6 532 L 951 627 L 828 680 L 608 706 L 413 671 L 261 614 L 154 548 L 94.5 460 L 85 384 L 126 321 L 189 293" />
<glyph unicode="E" glyph-name="E" horiz-adv-x="850" d="M 662 580 L 668 504 L 589 662 L 501 718 L 400 706 L 324 621 L 328 526 L 365 428 L 406 372 L 444 321 L 504 306 L 507 337 L 466 350 L 359 346 L 180 321 L 41 217 L -3.15 107 L 44.1 9.45 L 170 -50.4 L 318 -47.2 L 498 -22 L 643 37.8 L 756 113 L 803 180 L 810 205 L 806 252" />
<glyph unicode="F" glyph-name="F" horiz-adv-x="624" d="M 517 576 L 435 551 L 369 479 L 331 384 L 277 296 L 217 170 L 164 75.6 L 158 25.2 L 176 0 L 224 9.45 L 252 47.2 L 268 66.1 M 72.5 372 L 25.2 403 L -6.3 476 L 44.1 589 L 145 652 L 346 690 L 513 674 L 630 658 L 709 658 L 791 655 L 828 677 L 813 680 L 740 605 L 718 554 L 721 507 M 230 309 L 195 287 L 570 331" />
<glyph unicode="G" glyph-name="G" horiz-adv-x="951" d="M 825 639 L 781 696 L 731 718 L 621 718 L 454 677 L 328 608 L 208 517 L 135 419 L 88.2 337 L 66.1 246 L 78.8 161 L 126 94.5 L 214 44.1 L 324 31.5 L 472 72.4 L 580 142 L 699 233 L 753 284 L 775 312 L 835 353 L 854 372 L 822 362 L 769 271 L 677 -41 L 573 -208 L 466 -353 L 365 -406 L 271 -413 L 227 -375 L 227 -302 L 265 -220 L 365 -117 L 495 -31.5 L 608 28.4 L 731 69.3 L 762 75.6 L 847 91.4" />
<glyph unicode="H" glyph-name="H" horiz-adv-x="939" d="M 290 539 L 302 539 L 400 592 L 447 652 L 482 699 L 444 589 M 444 589 L 324 255 L 211 56.7 L 110 -72.5 L 6.3 -126 L -50.4 -126 L -123 -94.5 L -129 -72.5 M 939 680 L 854 643 L 810 567 L 759 447 L 712 337 L 665 211 L 633 107 L 643 40.9 L 671 9.45 L 728 6.3 L 794 56.7 L 869 132 L 907 183 M 41 198 L 31.5 293 L 81.9 353 L 236 372 L 315 359 L 441 343 L 614 306 L 759 290 L 832 306 L 850 321" />
<glyph unicode="I" glyph-name="I" horiz-adv-x="548" d="M 501 693 L 410 413 L 334 224 L 280 126 L 220 50.4 L 167 28.4 L 97.6 18.9 L 9.45 25.2 L -6.3 50.4 L 22 72.4 L 66.1 40.9 L 117 31.5 L 447 37.8 M 233 450 L 176 523 L 202 602 L 277 665 L 394 684 L 523 677 L 598 674 L 665 649" />
<glyph unicode="J" glyph-name="J" horiz-adv-x="687" d="M 643 715 L 614 687 L 567 586 L 501 400 L 428 202 L 328 40.9 L 258 -34.6 L 145 -94.5 L 53.5 -72.5 L 28.4 9.45 L 81.9 110 L 214 243 L 309 302 L 428 356 L 529 384 L 624 403 M 268 438 L 217 476 L 211 567 L 265 633 L 397 674 L 523 684 L 636 668 L 684 646" />
<glyph unicode="K" glyph-name="K" horiz-adv-x="759" d="M 132 532 L 255 592 L 334 699 L 208 359 L 154 208 L 110 132 L 41 31.5 L -25.2 -50.4 L -126 -120 L -211 -129 L -258 -113 L -293 -56.7 M 756 699 L 564 583 L 381 435 L 236 293 L 145 180 M 296 403 L 350 189 L 435 40.9 L 529 -9.45 L 595 3.15 L 624 50.4 L 611 72.4 L 595 97.6" />
<glyph unicode="L" glyph-name="L" horiz-adv-x="617" d="M 230 126 L 239 126 L 425 202 L 589 337 L 687 510 L 702 624 M 709 624 L 671 702 L 605 721 L 498 680 L 410 567 L 346 369 L 249 88.2 L 214 -6.3 L 176 -69.3 L 145 -107 L 126 -120 M 123 81.9 L 6.3 50.4 L 18.9 81.9 L 135 40.9 L 302 -75.6 L 435 -151 L 583 -211 L 750 -202 L 819 -151 L 838 -120 L 841 -56.7" />
<glyph unicode="M" glyph-name="M" horiz-adv-x="1351.3" d="M 224 536 L 302 570 L 343 605 L 378 646 L 406 693 L 428 699 L 365 529 L 287 315 L 205 148 L 129 18.9 L 63 -41 L 0 -59.9 L -37.8 -15.8 L -18.9 47.2 L 94.5 186 L 249 356 L 447 542 L 570 614 L 649 633 L 721 605 L 756 513 L 740 315 L 721 189 L 687 75.6 L 712 81.9 L 784 198 L 961 463 L 1036.3 570 L 1105.7 621 L 1156.1 614 L 1174.9 589 L 1187.6 539 L 1149.8 428 L 1111.9 350 L 1067.8 255 L 1045.8 180 L 1045.8 101 L 1083.6 22 L 1181.2 37.8 L 1285.2 129 L 1319.8 183" />
<glyph unicode="N" glyph-name="N" horiz-adv-x="932" d="M -230 -37.8 L -211 -91.4 L -154 -126 L -66.1 -107 L 37.8 -34.6 L 129 107 L 214 271 L 274 432 L 321 561 L 350 658 L 359 328 L 381 189 L 447 34.6 L 507 -18.9 L 573 -34.6 L 643 0 L 731 129 L 788 274 L 825 472 L 832 589 L 819 646 L 797 709 L 844 643 L 873 605 L 898 586 L 926 570 M 158 513 L 170 517 L 258 558 L 293 595 L 328 658 M 158 513 L 170 517 L 258 558 L 293 595 L 328 658" />
<glyph unicode="O" glyph-name="O" horiz-adv-x="850" d="M 37.8 328 L 37.8 334 L 88.2 491 L 186 598 L 334 680 L 444 715 L 551 712 L 652 696 L 737 627 L 778 526 L 791 454 L 775 324 L 728 198 L 636 78.8 L 542 0 L 447 -44.1 L 290 -53.5 L 180 0 L 117 129 L 129 296 L 183 400 L 268 501 L 353 545 L 419 576 L 460 576 L 504 570" />
<glyph unicode="P" glyph-name="P" horiz-adv-x="639" d="M 504 576 L 441 561 L 387 526 L 346 479 L 331 416 L 306 362 L 246 265 L 198 173 L 170 97.6 L 161 63 L 154 31.5 L 170 0 L 205 12.6 L 243 56.7 M 101 359 L 41 394 L 22 463 L 44.1 545 L 132 611 L 230 658 L 324 687 L 450 702 L 624 693 L 740 649 L 803 595 L 810 523 L 775 441 L 718 378 L 639 340 L 504 296 L 375 274 L 299 261 L 214 271" />
<glyph unicode="Q" glyph-name="Q" horiz-adv-x="800" d="M 699 715 L 775 680 L 816 608 L 813 463 L 759 287 L 646 123 L 532 34.6 L 447 -3.15 L 337 -25.2 L 211 -3.15 L 113 53.6 L 53.5 167 L 50.4 353 L 117 513 L 214 614 L 296 668 L 384 715 L 479 740 L 573 724 L 646 677 L 684 595 L 687 469 L 668 356 L 598 239 L 513 151 L 438 104 L 384 85.1 L 274 47.2 L 230 63 L 236 85.1 L 296 78.8 L 397 31.5 L 498 -37.8 L 605 -107 L 734 -183 L 898 -214 M 895 -214 L 1036.3 -189 L 1080.4 -132 L 1083.6 -104 L 1080.4 -37.8" />
<glyph unicode="R" glyph-name="R" horiz-adv-x="639" d="M 498 573 L 419 564 L 356 501 L 340 438 L 293 334 L 208 198 L 154 85.1 L 142 34.6 L 161 3.15 L 198 18.9 L 220 37.8 L 227 44.1 M 81.9 369 L 28.4 419 L 22 495 L 53.5 561 L 161 636 L 274 671 L 406 696 L 558 693 L 671 680 L 772 617 L 813 536 L 788 447 L 677 365 L 554 321 L 432 284 L 334 280 L 202 293 L 198 315 L 312 230 L 381 117 L 498 -22 L 627 -117 L 762 -176 L 882 -176 L 945 -139 L 970 -101 L 976 -66.1" />
<glyph unicode="S" glyph-name="S" horiz-adv-x="706" d="M 693 580 L 721 621 L 721 668 L 665 709 L 520 690 L 350 636 L 268 558 L 265 485 L 362 438 L 517 391 L 617 337 L 658 277 L 652 224 L 617 170 L 523 97.6 L 372 34.6 L 167 -6.3 L 63 9.45 L 28.4 47.2 L 18.9 129 L 53.5 202 L 117 255 L 189 293 L 293 324" />
<glyph unicode="T" glyph-name="T" horiz-adv-x="554" d="M 56.7 378 L 9.45 425 L -3.15 501 L 37.8 592 L 113 646 L 198 677 L 287 690 L 466 687 L 639 665 L 806 662 L 860 674 L 825 690 L 743 580 L 734 539 L 728 485 L 743 463 M 529 570 L 450 539 L 391 476 L 324 353 L 239 205 L 180 66.1 L 180 25.2 L 198 0 L 230 22 L 268 63" />
<glyph unicode="U" glyph-name="U" horiz-adv-x="671" d="M 9.45 476 L 18.9 482 L 104 520 L 167 570 L 233 630 L 249 662 L 280 662 L 208 558 L 104 331 L 53.5 220 L 34.6 117 L 56.7 31.5 L 129 9.45 L 224 40.9 L 343 123 L 504 277 L 621 419 L 702 548 L 743 646 L 737 709 L 696 731 L 646 712 L 595 684 L 548 602 L 513 498 L 479 359 L 444 186 L 422 47.2 L 425 -56.7 L 441 -139 L 463 -180 L 498 -195 L 529 -198 L 558 -183" />
<glyph unicode="V" glyph-name="V" horiz-adv-x="737" d="M 53.5 454 L 0 529 L 25.2 611 L 72.5 646 L 189 668 L 302 677 L 391 677 L 447 655 L 469 649 M 331 718 L 337 586 L 299 482 L 258 410 L 211 290 L 164 167 L 142 81.9 L 145 -9.45 L 186 -37.8 L 277 -37.8 L 400 31.5 L 532 154 L 677 343 L 784 507 L 844 598 L 895 662 L 939 696 L 983 724 L 1001.7 724" />
<glyph unicode="W" glyph-name="W" horiz-adv-x="1206.4" d="M 69.3 444 L 34.6 476 L 9.45 545 L 47.2 614 L 145 662 L 265 680 L 391 677 L 460 665 L 488 652 M 416 709 L 387 592 L 328 501 L 220 353 L 135 217 L 91.4 145 L 53.5 66.1 L 41 6.3 L 47.2 -37.8 L 63 -56.7 L 97.6 -66.1 L 148 -59.9 L 233 -28.4 L 328 28.4 L 394 85.1 L 495 167 L 586 268 L 684 394 L 712 469 L 721 529 L 712 586 L 677 570 L 665 507 L 668 416 L 662 299 L 687 176 L 731 91.4 L 788 40.9 L 876 3.15 L 939 12.6 L 986 31.5 L 1052.1 126 L 1096.2 224 L 1118.2 324 L 1127.7 387 L 1115.1 517 L 1083.6 598 L 1017.4 649 L 945 668 L 898 662 L 876 643" />
<glyph unicode="X" glyph-name="X" horiz-adv-x="806" d="M 66.1 457 L 15.8 491 L 3.15 554 L 25.2 621 L 104 665 L 195 687 L 268 696 L 378 684 L 441 674 L 469 665 L 485 662 M 419 699 L 397 561 L 410 410 L 432 284 L 488 148 L 558 53.6 L 621 15.8 L 702 50.4 L 775 113 L 816 158 M 778 696 L 696 583 L 570 419 L 469 287 L 350 173 L 243 63 L 135 -15.8 L 31.5 -88.2 L -101 -132 L -192 -120 L -246 -101 L -268 -59.9 L -271 -41" />
<glyph unicode="Y" glyph-name="Y" horiz-adv-x="627" d="M 28.4 482 L 34.6 485 L 120 523 L 195 583 L 252 646 L 277 665 L 287 668 L 230 554 L 142 394 L 69.3 230 L 56.7 154 L 50.4 75.6 L 85 15.8 L 158 15.8 L 233 53.6 L 334 145 L 403 220 L 463 306 L 542 416 L 595 510 L 621 586 L 662 649 L 715 674 L 759 680 L 684 633 L 633 576 L 583 400 L 526 205 L 457 -6.3 L 406 -113 L 346 -211 L 296 -284 L 233 -346 L 148 -400 L 69.3 -413 L 31.5 -400 L 3.15 -350 L 6.3 -296 L 37.8 -233 L 107 -151 L 205 -59.9 L 331 9.45 L 416 40.9 L 570 91.4 L 598 91.4" />
<glyph unicode="Z" glyph-name="Z" horiz-adv-x="627" d="M 145 554 L 135 611 L 180 662 L 255 693 L 381 699 L 501 690 L 595 674 L 674 649 L 734 633 L 788 649 L 822 668 L 835 702 L 803 709 L 759 684 L 721 646 L 595 539 L 457 400 L 362 290 L 302 224 L 227 148 L 164 104 L 107 63 L 56.7 37.8 L 18.9 28.4 L 0 53.6 L 15.8 72.4 L 63 53.6 L 145 22 L 243 -50.4 L 378 -135 L 513 -205 L 671 -205 L 747 -167 L 781 -97.6 L 775 -69.3 L 769 -41 M 239 340 L 236 321 L 621 340" />
<glyph unicode="[" glyph-name="bracketleft" horiz-adv-x="526" d="M 570 652 L 444 652 L 318 469 L 180 236 L 94.5 75.6 L 69.3 12.6 L 202 12.6" />
<glyph unicode="\" glyph-name="backslash" horiz-adv-x="381" d="M 44.1 652 L 148 447 L 214 277 L 258 161 L 309 28.4" />
<glyph unicode="]" glyph-name="bracketright" horiz-adv-x="510" d="M 428 655 L 554 649 L 479 476 L 362 277 L 280 148 L 186 12.6 L 53.5 18.9" />
<glyph unicode="^" glyph-name="asciicircum" horiz-adv-x="791" d="M 186 662 L 378 765 L 485 658" />
<glyph unicode="_" glyph-name="underscore" horiz-adv-x="709" d="M -28.4 -34.6 L 674 -34.6" />
<glyph unicode="`" glyph-name="grave" horiz-adv-x="406" d="M 72.5 523 L 202 444" />
<glyph unicode="a" glyph-name="a" horiz-adv-x="526" d="M 495 183 L 457 132 L 406 78.8 L 331 31.5 L 271 18.9 L 243 63 L 255 142 L 296 274 L 277 243 L 176 145 L 69.3 56.7 L -18.9 18.9 L -63 66.1 L -56.7 154 L 34.6 261 L 148 331 L 230 356 L 312 356 L 324 343" />
<glyph unicode="b" glyph-name="b" horiz-adv-x="416" d="M -31.5 183 L 47.2 252 L 132 328 L 233 406 L 312 476 L 394 583 L 416 674 L 372 721 L 284 680 L 195 564 L 97.6 359 L 37.8 202 L 28.4 72.4 L 37.8 53.6 L 50.4 145 L 132 243 L 249 315 L 334 334 L 365 296 L 369 252 L 328 183 L 287 120 L 189 40.9 L 135 18.9 L -12.6 -9.45" />
<glyph unicode="c" glyph-name="c" horiz-adv-x="346" d="M 243 306 L 239 350 L 198 365 L 101 328 L -15.8 208 L -47.2 170 L -72.4 110 L -66.1 66.1 L -47.2 25.2 L 56.7 15.8 L 186 56.7 L 268 123 L 315 183" />
<glyph unicode="d" glyph-name="d" horiz-adv-x="381" d="M 328 312 L 302 356 L 258 369 L 151 334 L 47.2 265 L -37.8 176 L -63 107 L -56.7 50.4 L 12.6 15.8 L 78.8 63 L 176 148 L 277 252 L 387 334 L 532 457 L 668 592 L 693 668 L 690 709 L 639 721 L 561 684 L 510 633 L 441 523 L 387 425 L 293 217 L 246 66.1 L 233 -44.1 L 258 -97.6 L 302 -113 L 340 -101" />
<glyph unicode="e" glyph-name="e" horiz-adv-x="346" d="M 66.1 170 L 148 211 L 217 249 L 252 306 L 239 350 L 180 356 L 63 287 L 15.8 252 L -34.6 192 L -66.1 139 L -72.4 88.2 L -50.4 44.1 L 31.5 9.45 L 170 44.1 L 214 81.9 L 277 135 L 315 183" />
<glyph unicode="f" glyph-name="f" horiz-adv-x="334" d="M -110 -365 L -59.9 -321 L 9.45 -94.5 L 104 154 L 198 369 L 277 517 L 328 617 L 419 696 L 466 718 L 523 696 L 507 598 L 406 444 L 290 321 L 220 261 L 173 220 L 117 192 L 25.2 183 L 28.4 208 L 208 205 L 306 217" />
<glyph unicode="g" glyph-name="g" horiz-adv-x="469" d="M 306 350 L 195 353 L 69.3 287 L -15.8 205 L -56.7 164 L -78.8 110 L -59.9 56.7 L -18.9 18.9 L 91.4 69.3 L 176 158 L 265 252 L 287 274 L 318 274 L 164 -85 L 34.6 -331 L -22 -381 L -72.4 -410 L -117 -416 L -167 -381 L -148 -280 L -78.8 -220 L 22 -132 L 85 -88.2 L 258 22 L 369 110 L 438 183" />
<glyph unicode="h" glyph-name="h" horiz-adv-x="561" d="M -31.5 183 L 113 315 L 343 482 L 447 605 L 469 702 L 394 718 L 324 662 L 255 586 L 180 457 L 101 309 L 12.6 31.5 L 110 148 L 192 252 L 287 315 L 328 334 L 350 312 L 340 261 L 290 183 L 261 75.6 L 284 18.9 L 350 18.9 L 413 63 L 482 129 L 529 183" />
<glyph unicode="i" glyph-name="i" horiz-adv-x="249" d="M -31.5 183 L 37.8 236 L 59.9 328 L -37.8 85.1 L -18.9 22 L 53.5 6.3 L 132 69.3 L 183 129 L 217 183 M 123 476 L 94.5 438" />
<glyph unicode="j" glyph-name="j" horiz-adv-x="258" d="M -31.5 183 L 66.1 287 L 104 312 L 113 299 L -81.9 -145 L -173 -309 L -243 -391 L -306 -416 L -365 -406 L -387 -353 L -359 -287 L -252 -183 L -69.3 -59.9 L 56.7 31.5 L 151 107 L 227 183 M 205 482 L 167 444 L 186 428" />
<glyph unicode="k" glyph-name="k" horiz-adv-x="356" d="M -31.5 183 L 31.5 252 L 97.6 337 M 72.5 356 L 158 356 L 271 428 L 381 542 L 438 627 L 450 696 L 406 728 L 318 696 L 249 617 L 183 498 L 126 394 L 18.9 139 L -18.9 12.6 L 25.2 53.6 L 113 173 L 214 284 L 290 343 L 340 346 M 139 249 L 186 44.1 L 258 -85 L 362 -148 L 428 -148 L 457 -120 L 460 -101 L 457 -66.1" />
<glyph unicode="l" glyph-name="l" horiz-adv-x="261" d="M -25.2 176 L 91.4 265 L 239 428 L 346 589 L 394 662 L 381 709 L 312 718 L 243 674 L 148 532 L 41 340 L -28.4 198 L -50.4 85.1 L -22 25.2 L 44.1 18.9 L 120 53.6 L 195 132 L 230 183" />
<glyph unicode="m" glyph-name="m" horiz-adv-x="687" d="M -31.5 183 L 47.2 255 L 75.6 321 L -34.6 28.4 L 37.8 104 L 167 252 L 233 309 L 280 337 L 302 340 L 309 312 L 296 274 L 208 107 L 318 195 L 403 261 L 491 293 L 447 230 L 400 94.5 L 413 37.8 L 472 18.9 L 561 69.3 L 655 183" />
<glyph unicode="n" glyph-name="n" horiz-adv-x="580" d="M 148 328 L 41 25.2 L 183 186 L 271 280 L 334 318 L 381 337 L 394 312 L 331 195 L 290 101 L 293 47.2 L 328 15.8 L 387 25.2 L 450 69.3 L 513 132 L 548 183" />
<glyph unicode="o" glyph-name="o" horiz-adv-x="391" d="M 195 337 L 142 365 L 66.1 315 L -6.3 233 L -40.9 161 L -56.7 75.6 L 12.6 9.45 L 101 40.9 L 183 110 L 230 208 L 239 246 L 239 284 L 220 284 M 167 158 L 183 101 L 214 72.4 L 255 75.6 L 296 110 L 359 183" />
<glyph unicode="p" glyph-name="p" horiz-adv-x="356" d="M 25.2 359 L -72.4 56.7 L -176 -192 L -227 -350 L -255 -369 L -91.4 37.8 L -44.1 12.6 L 85 63 L 208 135 L 258 227 L 268 299 L 227 346 L 139 321 L 72.5 274 L 15.8 198 L -25.2 148 L -91.4 31.5" />
<glyph unicode="q" glyph-name="q" horiz-adv-x="542" d="M 324 334 L 224 359 L 88.2 293 L -34.6 180 L -59.9 120 L -53.6 69.3 L -31.5 28.4 L 34.6 25.2 L 120 75.6 L 186 154 L 315 284 L 422 416 L 372 406 L 255 91.4 L 139 -205 L 129 -350 L 161 -403 L 246 -403 L 280 -356 L 293 -249 L 280 -110 L 246 34.6 L 321 28.4 L 413 78.8 L 476 135 L 507 183" />
<glyph unicode="r" glyph-name="r" horiz-adv-x="369" d="M -31.5 183 L 34.6 287 L 154 463 L 47.2 391 L 47.2 365 L 59.9 356 L 258 353 L 145 214 L 81.9 101 L 97.6 22 L 186 28.4 L 296 132 L 337 183" />
<glyph unicode="s" glyph-name="s" horiz-adv-x="302" d="M -31.5 183 L 9.45 217 L 34.6 261 L 66.1 328 L 117 394 L 249 447 L 293 454 L 343 444 L 350 413 L 343 381 L 328 365 M 53.5 274 L 72.5 233 L 161 183 L 198 135 L 195 88.2 L 151 34.6 L 78.8 -6.3 L 31.5 -28.4 L -25.2 -31.5 L -34.6 -18.9 L -34.6 15.8 L -15.8 34.6" />
<glyph unicode="t" glyph-name="t" horiz-adv-x="290" d="M -31.5 183 L 18.9 224 L 53.5 261 L 110 337 L 183 457 L 217 510 L 183 517 L 9.45 151 L -6.3 66.1 L 18.9 22 L 97.6 28.4 L 192 110 L 258 183 M 53.5 346 L 258 356" />
<glyph unicode="u" glyph-name="u" horiz-adv-x="495" d="M 47.2 309 L -18.9 217 L -53.6 123 L -56.7 56.7 L -9.45 28.4 L 78.8 53.6 L 145 139 L 227 239 L 293 353 L 324 343 L 214 164 L 205 97.6 L 202 53.6 L 255 22 L 321 40.9 L 413 120 L 463 183" />
<glyph unicode="v" glyph-name="v" horiz-adv-x="321" d="M -31.5 183 L 56.7 274 L 72.5 312 L 69.3 337 L 34.6 356 L 0 356 M 41 334 L 28.4 170 L 0 85.1 L 0 9.45 L 126 186 L 224 299 L 318 381 L 403 432 L 447 419" />
<glyph unicode="w" glyph-name="w" horiz-adv-x="554" d="M 69.3 346 L -12.6 227 L -56.7 120 L -63 69.3 L -50.4 31.5 L -3.15 18.9 L 56.7 40.9 L 120 113 L 195 227 L 236 290 L 265 287 L 205 176 L 195 85.1 L 224 31.5 L 280 15.8 L 391 81.9 L 501 205 L 551 312 L 551 369 L 529 422 L 476 435" />
<glyph unicode="x" glyph-name="x" horiz-adv-x="488" d="M -31.5 183 L 59.9 306 L 126 321 L 142 277 L 158 202 L 180 117 L 202 40.9 L 271 12.6 L 340 40.9 L 397 101 L 457 183 M 400 346 L 362 343 L 227 236 L 110 135 L -3.15 6.3 L -81.9 -101 L -97.6 -132 L -117 -183" />
<glyph unicode="y" glyph-name="y" horiz-adv-x="488" d="M 88.2 312 L 3.15 233 L -31.5 186 L -47.2 132 L -53.6 85.1 L -37.8 47.2 L 12.6 31.5 L 69.3 47.2 L 176 151 L 280 277 L 334 334 L 369 331 L 274 139 L 183 -97.6 L 107 -230 L 28.4 -346 L -28.4 -397 L -135 -394 L -167 -346 L -123 -252 L -15.8 -167 L 123 -66.1 L 265 9.45 L 406 123 L 457 183" />
<glyph unicode="z" glyph-name="z" horiz-adv-x="551" d="M 34.6 202 L 85 277 L 145 331 L 214 340 L 302 315 L 384 296 L 447 318 L 457 340 L 432 356 L 397 334 L 340 280 L 126 85.1 L 59.9 22 L 3.15 9.45 L -12.6 37.8 L 18.9 66.1 L 66.1 66.1 L 117 40.9 L 220 -15.8 L 315 -18.9 L 384 28.4 L 469 117 L 520 183" />
<glyph unicode="{" glyph-name="braceleft" horiz-adv-x="488" d="M 432 668 L 299 643 L 233 545 L 227 444 L 189 384 L 132 369 L 63 362 L 126 328 L 154 274 L 123 208 L 75.6 158 L 34.6 72.4 L 72.5 -3.15 L 113 -18.9 L 158 -28.4" />
<glyph unicode="|" glyph-name="bar" horiz-adv-x="296" d="M 132 684 L 126 -28.4" />
<glyph unicode="}" glyph-name="braceright" horiz-adv-x="558" d="M 372 674 L 447 665 L 482 627 L 472 567 L 432 510 L 397 444 L 369 384 L 419 362 L 482 356 L 375 315 L 324 274 L 302 227 L 293 145 L 255 75.6 L 161 -18.9 L 120 -28.4 L 28.4 -31.5" />
<glyph unicode="~" glyph-name="asciitilde" horiz-adv-x="491" d="M 161 463 L 195 498 L 246 498 L 321 472 L 384 447 L 406 469 L 422 482" />
<glyph unicode="&#xa0;" glyph-name="nbspace" horiz-adv-x="378" />
<glyph unicode="&#xa1;" glyph-name="exclamdown" horiz-adv-x="359" d="M 110 40.9 L 151 113 L 258 343 L 321 491 M 350 643 L 372 665" />
<glyph unicode="&#xa2;" glyph-name="cent" horiz-adv-x="266" d="M 243 306 L 239 350 L 198 365 L 101 328 L -15.8 208 L -47.2 170 L -72.4 110 L -66.1 66.1 L -47.2 25.2 L 56.7 15.8 L 186 56.7 L 268 123 L 315 183 M 119 530 L 113 -111" />
<glyph unicode="&#xa3;" glyph-name="sterling" horiz-adv-x="942" d="M 449 411 L 784 435 M 1001.7 709 L 1017.4 806 L 995 863 L 920 895 L 841 869 L 753 819 L 671 712 L 608 580 L 561 422 L 491 217 L 432 139 L 340 40.9 L 186 9.45 L 101 31.5 L 66.1 63 L 78.8 129 L 161 173 L 243 176 L 343 139 L 463 75.6 L 583 25.2 L 690 12.6 L 806 40.9 L 873 81.9 L 914 145" />
<glyph unicode="&#xa5;" glyph-name="yen" horiz-adv-x="510" d="M 53.5 662 L 110 469 L 164 378 L 224 321 L 280 312 L 340 334 L 413 413 L 469 504 L 491 589 L 498 639 L 463 665 L 419 655 L 384 611 L 343 510 L 328 391 L 306 268 L 306 94.5 L 315 -53.5 M 186 135 L 416 135 M 186 261 L 416 261" />
<glyph unicode="&#xa6;" glyph-name="brokenbar" horiz-adv-x="90.7" d="M 290 220 L 293 142 L 285 68 L 279 15.1 L 273 -15.1 L 267 -37.8 M 290 693 L 293 614 L 285 541 L 279 488 L 273 457 L 267 435" />
<glyph unicode="&#xa8;" glyph-name="dieresis" horiz-adv-x="567" d=" M 249 491 L 234 466 M 499 531 L 484 505" />
<glyph unicode="&#xa9;" glyph-name="copyright" horiz-adv-x="850" d="M 37.8 328 L 37.8 334 L 88.2 491 L 186 598 L 334 680 L 444 715 L 551 712 L 652 696 L 737 627 L 778 526 L 791 454 L 775 324 L 728 198 L 636 78.8 L 542 0 L 447 -44.1 L 290 -53.5 L 180 0 L 117 129 L 129 296 L 183 400 L 268 501 L 353 545 L 419 576 L 460 576 L 504 570 M 369 339 L 422 343 L 484 378 L 529 421 L 550 461 L 540 498 L 502 513 L 408 488 L 345 446 L 276 367 L 241 298 L 227 224 L 250 170 L 315 142 L 394 150 L 458 175 L 518 214 L 554 252" />
<glyph unicode="&#xaa;" glyph-name="ordfeminine" horiz-adv-x="263" d="M 405 721 L 386 696 L 361 669 L 323 646 L 293 639 L 279 662 L 285 701 L 306 767 L 296 751 L 246 702 L 192 658 L 148 639 L 126 663 L 129 707 L 175 761 L 232 795 L 272 808 L 313 808 L 320 802" />
<glyph unicode="&#xab;" glyph-name="guillemotleft" horiz-adv-x="270" d="M 156 449 L 40.3 222 L 66.8 149 L 83.2 106 L 101 47.9 M 282 449 L 166 222 L 193 149 L 209 106 L 227 47.9" />
<glyph unicode="&#xae;" glyph-name="registered" horiz-adv-x="850" d="M 37.8 328 L 37.8 334 L 88.2 491 L 186 598 L 334 680 L 444 715 L 551 712 L 652 696 L 737 627 L 778 526 L 791 454 L 775 324 L 728 198 L 636 78.8 L 542 0 L 447 -44.1 L 290 -53.5 L 180 0 L 117 129 L 129 296 L 183 400 L 268 501 L 353 545 L 419 576 L 460 576 L 504 570 M 438 444 L 398 439 L 367 408 L 359 376 L 335 324 L 293 257 L 266 200 L 260 175 L 269 159 L 288 167 L 299 176 L 302 180 M 230 342 L 203 367 L 200 405 L 216 438 L 269 476 L 326 493 L 392 506 L 468 504 L 524 498 L 575 466 L 595 425 L 583 381 L 528 340 L 466 318 L 405 299 L 356 298 L 290 304 L 288 315 L 345 272 L 380 216 L 438 146 L 502 99.2 L 570 69.3 L 630 69.3 L 662 88.2 L 674 107 L 677 124" />
<glyph unicode="&#xb0;" glyph-name="degree" horiz-adv-x="306" d="M 153 665 L 153 667 L 168 714 L 198 747 L 242 771 L 275 782 L 307 781 L 337 776 L 363 755 L 375 725 L 379 703 L 374 664 L 360 627 L 333 591 L 304 567 L 276 554 L 229 551 L 196 567 L 177 606 L 180 656 L 197 687 L 222 717 L 248 730 L 267 740 L 280 740 L 293 738" />
<glyph unicode="&#xb1;" glyph-name="plusminus" horiz-adv-x="585" d="M 582 0 L 764 5.04 M 534 383 L 922 383 M 801 534 L 653 202" />
<glyph unicode="&#xb2;" glyph-name="twosuperior" horiz-adv-x="351" d="M 257 876 L 255 880 L 255 898 L 301 931 L 343 945 L 394 951 L 444 940 L 468 923 L 482 885 L 466 846 L 427 803 L 375 762 L 332 732 L 288 704 L 257 687 L 243 679 L 219 663 L 209 654 L 186 638 L 186 654 L 198 671 L 217 677 L 250 676 L 285 663 L 307 649 L 359 628 L 414 627 L 443 639 L 466 658 L 472 673" />
<glyph unicode="&#xb3;" glyph-name="threesuperior" horiz-adv-x="332" d="M 277 879 L 285 914 L 318 939 L 361 950 L 397 951 L 436 942 L 460 912 L 461 879 L 452 860 L 430 841 L 413 827 L 376 819 L 339 813 L 313 803 L 307 808 L 304 822 L 342 819 L 398 808 L 425 799 L 441 775 L 446 734 L 435 702 L 405 669 L 372 646 L 334 630 L 268 621 L 232 625 L 209 639 L 195 666 L 200 685 L 208 696" />
<glyph unicode="&#xb4;" glyph-name="acute" horiz-adv-x="378" d=" M 293 568 L 163 489" />
<glyph unicode="&#xb7;" glyph-name="middot" horiz-adv-x="268" d="M 249 340 L 231 310" />
<glyph unicode="&#xb9;" glyph-name="onesuperior" horiz-adv-x="189" d="M 243 855 L 288 891 L 315 925 L 335 953 L 350 953 L 301 844 L 254 736 L 235 680 L 230 649 M 161 635 L 192 646 L 224 646 L 260 649 L 299 647" />
<glyph unicode="&#xba;" glyph-name="ordmasculine" horiz-adv-x="306" d="M 153 665 L 153 667 L 168 714 L 198 747 L 242 771 L 275 782 L 307 781 L 337 776 L 363 755 L 375 725 L 379 703 L 374 664 L 360 627 L 333 591 L 304 567 L 276 554 L 229 551 L 196 567 L 177 606 L 180 656 L 197 687 L 222 717 L 248 730 L 267 740 L 280 740 L 293 738" />
<glyph unicode="&#xbb;" glyph-name="guillemotright" horiz-adv-x="284" d="M 101 444 L 131 350 L 156 300 L 117 224 L 69.3 131 L 34 63 M 227 444 L 257 350 L 282 300 L 243 224 L 195 131 L 160 63" />
<glyph unicode="&#xbc;" glyph-name="onequarter" horiz-adv-x="505" d="M 102 648 L 157 692 L 189 731 L 214 765 L 231 765 L 172 635 L 115 505 L 92.6 438 L 86.9 401 M 3.78 384 L 41.6 397 L 79.4 397 L 123 401 L 170 399 M 639 655 L 410 356 L 284 183 L 183 22 M 618 -3.78 L 633 56.7 L 665 149 L 724 278 L 775 382 L 696 316 L 616 253 L 535 204 L 495 170 L 471 134 L 503 151 L 525 161 L 582 161 L 629 159 L 673 149 L 718 149 L 767 168 L 790 183 L 805 202" />
<glyph unicode="&#xbd;" glyph-name="onehalf" horiz-adv-x="583" d="M 102 648 L 157 692 L 189 731 L 214 765 L 231 765 L 172 635 L 115 505 L 92.6 438 L 86.9 401 M 3.78 384 L 41.6 397 L 79.4 397 L 123 401 L 170 399 M 639 655 L 410 356 L 284 183 L 183 22 M 592 295 L 590 301 L 590 321 L 644 361 L 696 378 L 756 386 L 816 372 L 845 352 L 862 306 L 843 259 L 796 208 L 733 159 L 682 123 L 629 88.8 L 592 68 L 575 58.6 L 546 39.7 L 535 28.3 L 507 9.45 L 507 28.3 L 522 49.1 L 544 56.7 L 584 54.8 L 626 39.7 L 652 22.7 L 714 -1.89 L 781 -3.78 L 815 11.3 L 843 34 L 850 51" />
<glyph unicode="&#xbe;" glyph-name="threequarters" horiz-adv-x="660" d="M 144 677 L 153 718 L 193 748 L 244 762 L 287 764 L 335 752 L 363 716 L 365 677 L 353 654 L 327 631 L 306 614 L 263 605 L 217 597 L 187 586 L 180 592 L 176 609 L 221 605 L 289 592 L 321 580 L 340 552 L 346 503 L 333 465 L 297 425 L 257 397 L 212 378 L 132 367 L 88.8 372 L 62.4 389 L 45.4 421 L 51 444 L 60.5 457 M 639 655 L 410 356 L 284 183 L 183 22 M 618 -3.78 L 633 56.7 L 665 149 L 724 278 L 775 382 L 696 316 L 616 253 L 535 204 L 495 170 L 471 134 L 503 151 L 525 161 L 582 161 L 629 159 L 673 149 L 718 149 L 767 168 L 790 183 L 805 202" />
<glyph unicode="&#xbf;" glyph-name="questiondown" horiz-adv-x="564" d="M 466 167 L 454 126 L 432 104 L 359 63 L 296 31.5 L 192 34.6 L 135 75.6 L 107 167 L 139 252 L 183 315 L 243 362 L 290 391 L 359 447 L 391 491 L 403 523 M 476 671 L 498 696" />
<glyph unicode="&#xc0;" glyph-name="Agrave" horiz-adv-x="1061.6" d="M -9.45 40.9 L 9.45 -15.8 L 66.1 -56.7 L 154 -66.1 L 274 -25.2 L 406 78.8 L 529 205 L 662 359 L 737 463 L 813 558 L 882 636 L 939 699 L 958 706 L 876 570 L 797 346 L 753 189 L 750 97.6 L 775 18.9 L 819 3.15 L 910 53.6 L 986 126 L 1030.1 180 M 129 161 L 132 246 L 167 302 L 249 331 L 324 334 L 441 312 L 513 296 L 652 280 L 813 261 L 901 261 L 929 274 L 958 293 M 723 919 L 852 840" />
<glyph unicode="&#xc1;" glyph-name="Aacute" horiz-adv-x="1061.6" d="M -9.45 40.9 L 9.45 -15.8 L 66.1 -56.7 L 154 -66.1 L 274 -25.2 L 406 78.8 L 529 205 L 662 359 L 737 463 L 813 558 L 882 636 L 939 699 L 958 706 L 876 570 L 797 346 L 753 189 L 750 97.6 L 775 18.9 L 819 3.15 L 910 53.6 L 986 126 L 1030.1 180 M 129 161 L 132 246 L 167 302 L 249 331 L 324 334 L 441 312 L 513 296 L 652 280 L 813 261 L 901 261 L 929 274 L 958 293 M 1060.5 961 L 931 882" />
<glyph unicode="&#xc2;" glyph-name="Acircumflex" horiz-adv-x="1061.6" d="M -9.45 40.9 L 9.45 -15.8 L 66.1 -56.7 L 154 -66.1 L 274 -25.2 L 406 78.8 L 529 205 L 662 359 L 737 463 L 813 558 L 882 636 L 939 699 L 958 706 L 876 570 L 797 346 L 753 189 L 750 97.6 L 775 18.9 L 819 3.15 L 910 53.6 L 986 126 L 1030.1 180 M 129 161 L 132 246 L 167 302 L 249 331 L 324 334 L 441 312 L 513 296 L 652 280 L 813 261 L 901 261 L 929 274 L 958 293 M 838 914 L 962 981 L 1030.7 912" />
<glyph unicode="&#xc3;" glyph-name="Atilde" horiz-adv-x="1061.6" d="M -9.45 40.9 L 9.45 -15.8 L 66.1 -56.7 L 154 -66.1 L 274 -25.2 L 406 78.8 L 529 205 L 662 359 L 737 463 L 813 558 L 882 636 L 939 699 L 958 706 L 876 570 L 797 346 L 753 189 L 750 97.6 L 775 18.9 L 819 3.15 L 910 53.6 L 986 126 L 1030.1 180 M 129 161 L 132 246 L 167 302 L 249 331 L 324 334 L 441 312 L 513 296 L 652 280 L 813 261 L 901 261 L 929 274 L 958 293 M 851 800 L 878 826 L 916 826 L 974 807 L 1021.7 788 L 1038.5 804 L 1050.5 814" />
<glyph unicode="&#xc4;" glyph-name="Adieresis" horiz-adv-x="1061.6" d="M -9.45 40.9 L 9.45 -15.8 L 66.1 -56.7 L 154 -66.1 L 274 -25.2 L 406 78.8 L 529 205 L 662 359 L 737 463 L 813 558 L 882 636 L 939 699 L 958 706 L 876 570 L 797 346 L 753 189 L 750 97.6 L 775 18.9 L 819 3.15 L 910 53.6 L 986 126 L 1030.1 180 M 129 161 L 132 246 L 167 302 L 249 331 L 324 334 L 441 312 L 513 296 L 652 280 L 813 261 L 901 261 L 929 274 L 958 293 M 715 899 L 700 874 M 997 931 L 981 906" />
<glyph unicode="&#xc5;" glyph-name="Aring" horiz-adv-x="1061.6" d="M -9.45 40.9 L 9.45 -15.8 L 66.1 -56.7 L 154 -66.1 L 274 -25.2 L 406 78.8 L 529 205 L 662 359 L 737 463 L 813 558 L 882 636 L 939 699 L 958 706 L 876 570 L 797 346 L 753 189 L 750 97.6 L 775 18.9 L 819 3.15 L 910 53.6 L 986 126 L 1030.1 180 M 129 161 L 132 246 L 167 302 L 249 331 L 324 334 L 441 312 L 513 296 L 652 280 L 813 261 L 901 261 L 929 274 L 958 293 M 897 949 L 897 951 L 912 998 L 941 1030.0 L 986 1054.6 L 1018.7 1065.0 L 1050.8 1064.1 L 1081.1 1059.3 L 1106.6 1038.6 L 1118.9 1008.3 L 1122.7 987 L 1117.9 948 L 1103.8 910 L 1076.4 874 L 1048.0 850 L 1019.7 837 L 972 834 L 939 850 L 920 889 L 924 939 L 940 971 L 966 1000.8 L 991 1014.0 L 1011.1 1023.4 L 1023.4 1023.4 L 1036.7 1021.5" />
<glyph unicode="&#xc8;" glyph-name="Egrave" horiz-adv-x="850" d="M 662 580 L 668 504 L 589 662 L 501 718 L 400 706 L 324 621 L 328 526 L 365 428 L 406 372 L 444 321 L 504 306 L 507 337 L 466 350 L 359 346 L 180 321 L 41 217 L -3.15 107 L 44.1 9.45 L 170 -50.4 L 318 -47.2 L 498 -22 L 643 37.8 L 756 113 L 803 180 L 810 205 L 806 252 M 437 918 L 567 839" />
<glyph unicode="&#xc9;" glyph-name="Eacute" horiz-adv-x="850" d="M 662 580 L 668 504 L 589 662 L 501 718 L 400 706 L 324 621 L 328 526 L 365 428 L 406 372 L 444 321 L 504 306 L 507 337 L 466 350 L 359 346 L 180 321 L 41 217 L -3.15 107 L 44.1 9.45 L 170 -50.4 L 318 -47.2 L 498 -22 L 643 37.8 L 756 113 L 803 180 L 810 205 L 806 252 M 761 986 L 632 908" />
<glyph unicode="&#xca;" glyph-name="Ecircumflex" horiz-adv-x="850" d="M 662 580 L 668 504 L 589 662 L 501 718 L 400 706 L 324 621 L 328 526 L 365 428 L 406 372 L 444 321 L 504 306 L 507 337 L 466 350 L 359 346 L 180 321 L 41 217 L -3.15 107 L 44.1 9.45 L 170 -50.4 L 318 -47.2 L 498 -22 L 643 37.8 L 756 113 L 803 180 L 810 205 L 806 252 M 434 871 L 552 935 L 617 869" />
<glyph unicode="&#xcb;" glyph-name="Edieresis" horiz-adv-x="850" d="M 662 580 L 668 504 L 589 662 L 501 718 L 400 706 L 324 621 L 328 526 L 365 428 L 406 372 L 444 321 L 504 306 L 507 337 L 466 350 L 359 346 L 180 321 L 41 217 L -3.15 107 L 44.1 9.45 L 170 -50.4 L 318 -47.2 L 498 -22 L 643 37.8 L 756 113 L 803 180 L 810 205 L 806 252 M 557 897 L 542 872 M 821 907 L 805 882" />
<glyph unicode="&#xcc;" glyph-name="Igrave" horiz-adv-x="548" d="M 501 693 L 410 413 L 334 224 L 280 126 L 220 50.4 L 167 28.4 L 97.6 18.9 L 9.45 25.2 L -6.3 50.4 L 22 72.4 L 66.1 40.9 L 117 31.5 L 447 37.8 M 233 450 L 176 523 L 202 602 L 277 665 L 394 684 L 523 677 L 598 674 L 665 649 M 296 920 L 425 841" />
<glyph unicode="&#xcd;" glyph-name="Iacute" horiz-adv-x="548" d="M 501 693 L 410 413 L 334 224 L 280 126 L 220 50.4 L 167 28.4 L 97.6 18.9 L 9.45 25.2 L -6.3 50.4 L 22 72.4 L 66.1 40.9 L 117 31.5 L 447 37.8 M 233 450 L 176 523 L 202 602 L 277 665 L 394 684 L 523 677 L 598 674 L 665 649 M 599 952 L 470 873" />
<glyph unicode="&#xce;" glyph-name="Icircumflex" horiz-adv-x="548" d="M 501 693 L 410 413 L 334 224 L 280 126 L 220 50.4 L 167 28.4 L 97.6 18.9 L 9.45 25.2 L -6.3 50.4 L 22 72.4 L 66.1 40.9 L 117 31.5 L 447 37.8 M 233 450 L 176 523 L 202 602 L 277 665 L 394 684 L 523 677 L 598 674 L 665 649 M 354 894 L 474 959 L 541 892" />
<glyph unicode="&#xcf;" glyph-name="Idieresis" horiz-adv-x="548" d="M 501 693 L 410 413 L 334 224 L 280 126 L 220 50.4 L 167 28.4 L 97.6 18.9 L 9.45 25.2 L -6.3 50.4 L 22 72.4 L 66.1 40.9 L 117 31.5 L 447 37.8 M 233 450 L 176 523 L 202 602 L 277 665 L 394 684 L 523 677 L 598 674 L 665 649 M 384 907 L 368 881 M 615 938 L 600 913" />
<glyph unicode="&#xd0;" glyph-name="Eth" horiz-adv-x="1033.2" d="M 306 284 L 578 291 M 652 554 L 545 507 L 472 403 L 454 334 L 387 186 L 350 107 L 302 9.45 L 265 -44.1 L 236 -37.8 L 205 31.5 L 202 113 L 214 208 L 233 145 L 375 34.6 L 510 -9.45 L 728 25.2 L 863 113 L 976 220 L 1033.2 372 L 1020.6 532 L 951 627 L 828 680 L 608 706 L 413 671 L 261 614 L 154 548 L 94.5 460 L 85 384 L 126 321 L 189 293" />
<glyph unicode="&#xd1;" glyph-name="Ntilde" horiz-adv-x="932" d="M -230 -37.8 L -211 -91.4 L -154 -126 L -66.1 -107 L 37.8 -34.6 L 129 107 L 214 271 L 274 432 L 321 561 L 350 658 L 359 328 L 381 189 L 447 34.6 L 507 -18.9 L 573 -34.6 L 643 0 L 731 129 L 788 274 L 825 472 L 832 589 L 819 646 L 797 709 L 844 643 L 873 605 L 898 586 L 926 570 M 158 513 L 170 517 L 258 558 L 293 595 L 328 658 M 158 513 L 170 517 L 258 558 L 293 595 L 328 658 M 503 864 L 532 893 L 573 893 L 636 872 L 687 852 L 706 870 L 719 880" />
<glyph unicode="&#xd2;" glyph-name="Ograve" horiz-adv-x="850" d="M 37.8 328 L 37.8 334 L 88.2 491 L 186 598 L 334 680 L 444 715 L 551 712 L 652 696 L 737 627 L 778 526 L 791 454 L 775 324 L 728 198 L 636 78.8 L 542 0 L 447 -44.1 L 290 -53.5 L 180 0 L 117 129 L 129 296 L 183 400 L 268 501 L 353 545 L 419 576 L 460 576 L 504 570 M 474 930 L 603 851" />
<glyph unicode="&#xd3;" glyph-name="Oacute" horiz-adv-x="850" d="M 37.8 328 L 37.8 334 L 88.2 491 L 186 598 L 334 680 L 444 715 L 551 712 L 652 696 L 737 627 L 778 526 L 791 454 L 775 324 L 728 198 L 636 78.8 L 542 0 L 447 -44.1 L 290 -53.5 L 180 0 L 117 129 L 129 296 L 183 400 L 268 501 L 353 545 L 419 576 L 460 576 L 504 570 M 765 959 L 636 880" />
<glyph unicode="&#xd4;" glyph-name="Ocircumflex" horiz-adv-x="850" d="M 37.8 328 L 37.8 334 L 88.2 491 L 186 598 L 334 680 L 444 715 L 551 712 L 652 696 L 737 627 L 778 526 L 791 454 L 775 324 L 728 198 L 636 78.8 L 542 0 L 447 -44.1 L 290 -53.5 L 180 0 L 117 129 L 129 296 L 183 400 L 268 501 L 353 545 L 419 576 L 460 576 L 504 570 M 441 881 L 561 946 L 627 879" />
<glyph unicode="&#xd5;" glyph-name="Otilde" horiz-adv-x="850" d="M 37.8 328 L 37.8 334 L 88.2 491 L 186 598 L 334 680 L 444 715 L 551 712 L 652 696 L 737 627 L 778 526 L 791 454 L 775 324 L 728 198 L 636 78.8 L 542 0 L 447 -44.1 L 290 -53.5 L 180 0 L 117 129 L 129 296 L 183 400 L 268 501 L 353 545 L 419 576 L 460 576 L 504 570 M 425 889 L 454 919 L 497 919 L 561 897 L 614 876 L 633 895 L 646 905" />
<glyph unicode="&#xd6;" glyph-name="Odieresis" horiz-adv-x="850" d="M 37.8 328 L 37.8 334 L 88.2 491 L 186 598 L 334 680 L 444 715 L 551 712 L 652 696 L 737 627 L 778 526 L 791 454 L 775 324 L 728 198 L 636 78.8 L 542 0 L 447 -44.1 L 290 -53.5 L 180 0 L 117 129 L 129 296 L 183 400 L 268 501 L 353 545 L 419 576 L 460 576 L 504 570 M 559 919 L 543 893 M 774 932 L 759 907" />
<glyph unicode="&#xd7;" glyph-name="multiply" horiz-adv-x="324" d="M 88.2 369 L 132 381 L 158 397 L 180 343 L 220 214 L 246 85.1 L 265 31.5 L 261 12.6 M 365 397 L 362 406 L 287 334 L 170 208 L 81.9 101 L 18.9 25.2 L -18.9 -25.2 L -37.8 -66.1" />
<glyph unicode="&#xd8;" glyph-name="Oslash" horiz-adv-x="850" d="M 37.8 328 L 37.8 334 L 88.2 491 L 186 598 L 334 680 L 444 715 L 551 712 L 652 696 L 737 627 L 778 526 L 791 454 L 775 324 L 728 198 L 636 78.8 L 542 0 L 447 -44.1 L 290 -53.5 L 180 0 L 117 129 L 129 296 L 183 400 L 268 501 L 353 545 L 419 576 L 460 576 L 504 570 M 778 757 L 468 353 L 298 119 L 162 -97.8" />
<glyph unicode="&#xd9;" glyph-name="Ugrave" horiz-adv-x="671" d="M 9.45 476 L 18.9 482 L 104 520 L 167 570 L 233 630 L 249 662 L 280 662 L 208 558 L 104 331 L 53.5 220 L 34.6 117 L 56.7 31.5 L 129 9.45 L 224 40.9 L 343 123 L 504 277 L 621 419 L 702 548 L 743 646 L 737 709 L 696 731 L 646 712 L 595 684 L 548 602 L 513 498 L 479 359 L 444 186 L 422 47.2 L 425 -56.7 L 441 -139 L 463 -180 L 498 -195 L 529 -198 L 558 -183 M 431 933 L 560 854" />
<glyph unicode="&#xda;" glyph-name="Uacute" horiz-adv-x="671" d="M 9.45 476 L 18.9 482 L 104 520 L 167 570 L 233 630 L 249 662 L 280 662 L 208 558 L 104 331 L 53.5 220 L 34.6 117 L 56.7 31.5 L 129 9.45 L 224 40.9 L 343 123 L 504 277 L 621 419 L 702 548 L 743 646 L 737 709 L 696 731 L 646 712 L 595 684 L 548 602 L 513 498 L 479 359 L 444 186 L 422 47.2 L 425 -56.7 L 441 -139 L 463 -180 L 498 -195 L 529 -198 L 558 -183 M 674 992 L 545 914" />
<glyph unicode="&#xdb;" glyph-name="Ucircumflex" horiz-adv-x="671" d="M 9.45 476 L 18.9 482 L 104 520 L 167 570 L 233 630 L 249 662 L 280 662 L 208 558 L 104 331 L 53.5 220 L 34.6 117 L 56.7 31.5 L 129 9.45 L 224 40.9 L 343 123 L 504 277 L 621 419 L 702 548 L 743 646 L 737 709 L 696 731 L 646 712 L 595 684 L 548 602 L 513 498 L 479 359 L 444 186 L 422 47.2 L 425 -56.7 L 441 -139 L 463 -180 L 498 -195 L 529 -198 L 558 -183 M 364 833 L 478 895 L 541 832" />
<glyph unicode="&#xdc;" glyph-name="Udieresis" horiz-adv-x="671" d="M 9.45 476 L 18.9 482 L 104 520 L 167 570 L 233 630 L 249 662 L 280 662 L 208 558 L 104 331 L 53.5 220 L 34.6 117 L 56.7 31.5 L 129 9.45 L 224 40.9 L 343 123 L 504 277 L 621 419 L 702 548 L 743 646 L 737 709 L 696 731 L 646 712 L 595 684 L 548 602 L 513 498 L 479 359 L 444 186 L 422 47.2 L 425 -56.7 L 441 -139 L 463 -180 L 498 -195 L 529 -198 L 558 -183 M 421 930 L 406 905 M 737 899 L 721 874" />
<glyph unicode="&#xdd;" glyph-name="Yacute" horiz-adv-x="627" d="M 28.4 482 L 34.6 485 L 120 523 L 195 583 L 252 646 L 277 665 L 287 668 L 230 554 L 142 394 L 69.3 230 L 56.7 154 L 50.4 75.6 L 85 15.8 L 158 15.8 L 233 53.6 L 334 145 L 403 220 L 463 306 L 542 416 L 595 510 L 621 586 L 662 649 L 715 674 L 759 680 L 684 633 L 633 576 L 583 400 L 526 205 L 457 -6.3 L 406 -113 L 346 -211 L 296 -284 L 233 -346 L 148 -400 L 69.3 -413 L 31.5 -400 L 3.15 -350 L 6.3 -296 L 37.8 -233 L 107 -151 L 205 -59.9 L 331 9.45 L 416 40.9 L 570 91.4 L 598 91.4 M 649 938 L 520 860" />
<glyph unicode="&#xe0;" glyph-name="agrave" horiz-adv-x="526" d="M 495 183 L 457 132 L 406 78.8 L 331 31.5 L 271 18.9 L 243 63 L 255 142 L 296 274 L 277 243 L 176 145 L 69.3 56.7 L -18.9 18.9 L -63 66.1 L -56.7 154 L 34.6 261 L 148 331 L 230 356 L 312 356 L 324 343 M 93.1 595 L 222 516" />
<glyph unicode="&#xe1;" glyph-name="aacute" horiz-adv-x="526" d="M 495 183 L 457 132 L 406 78.8 L 331 31.5 L 271 18.9 L 243 63 L 255 142 L 296 274 L 277 243 L 176 145 L 69.3 56.7 L -18.9 18.9 L -63 66.1 L -56.7 154 L 34.6 261 L 148 331 L 230 356 L 312 356 L 324 343 M 371 592 L 242 513" />
<glyph unicode="&#xe2;" glyph-name="acircumflex" horiz-adv-x="526" d="M 495 183 L 457 132 L 406 78.8 L 331 31.5 L 271 18.9 L 243 63 L 255 142 L 296 274 L 277 243 L 176 145 L 69.3 56.7 L -18.9 18.9 L -63 66.1 L -56.7 154 L 34.6 261 L 148 331 L 230 356 L 312 356 L 324 343 M 130 517 L 252 583 L 320 515" />
<glyph unicode="&#xe3;" glyph-name="atilde" horiz-adv-x="526" d="M 495 183 L 457 132 L 406 78.8 L 331 31.5 L 271 18.9 L 243 63 L 255 142 L 296 274 L 277 243 L 176 145 L 69.3 56.7 L -18.9 18.9 L -63 66.1 L -56.7 154 L 34.6 261 L 148 331 L 230 356 L 312 356 L 324 343 M 128 489 L 155 516 L 195 516 L 254 497 L 303 477 L 320 494 L 333 504" />
<glyph unicode="&#xe4;" glyph-name="adieresis" horiz-adv-x="526" d="M 495 183 L 457 132 L 406 78.8 L 331 31.5 L 271 18.9 L 243 63 L 255 142 L 296 274 L 277 243 L 176 145 L 69.3 56.7 L -18.9 18.9 L -63 66.1 L -56.7 154 L 34.6 261 L 148 331 L 230 356 L 312 356 L 324 343 M 279 519 L 263 494 M 478 480 L 463 454" />
<glyph unicode="&#xe5;" glyph-name="aring" horiz-adv-x="526" d="M 495 183 L 457 132 L 406 78.8 L 331 31.5 L 271 18.9 L 243 63 L 255 142 L 296 274 L 277 243 L 176 145 L 69.3 56.7 L -18.9 18.9 L -63 66.1 L -56.7 154 L 34.6 261 L 148 331 L 230 356 L 312 356 L 324 343 M 200 665 L 200 667 L 215 714 L 245 747 L 289 771 L 322 782 L 354 781 L 385 776 L 410 755 L 422 725 L 426 703 L 421 664 L 407 627 L 380 591 L 352 567 L 323 554 L 276 551 L 243 567 L 224 606 L 228 656 L 244 687 L 269 717 L 295 730 L 315 740 L 327 740 L 340 738" />
<glyph unicode="&#xe8;" glyph-name="egrave" horiz-adv-x="346" d="M 66.1 170 L 148 211 L 217 249 L 252 306 L 239 350 L 180 356 L 63 287 L 15.8 252 L -34.6 192 L -66.1 139 L -72.4 88.2 L -50.4 44.1 L 31.5 9.45 L 170 44.1 L 214 81.9 L 277 135 L 315 183 M -16.9 574 L 112 495" />
<glyph unicode="&#xe9;" glyph-name="eacute" horiz-adv-x="346" d="M 66.1 170 L 148 211 L 217 249 L 252 306 L 239 350 L 180 356 L 63 287 L 15.8 252 L -34.6 192 L -66.1 139 L -72.4 88.2 L -50.4 44.1 L 31.5 9.45 L 170 44.1 L 214 81.9 L 277 135 L 315 183 M 276 615 L 147 536" />
<glyph unicode="&#xea;" glyph-name="ecircumflex" horiz-adv-x="346" d="M 66.1 170 L 148 211 L 217 249 L 252 306 L 239 350 L 180 356 L 63 287 L 15.8 252 L -34.6 192 L -66.1 139 L -72.4 88.2 L -50.4 44.1 L 31.5 9.45 L 170 44.1 L 214 81.9 L 277 135 L 315 183 M 71.6 502 L 190 566 L 255 500" />
<glyph unicode="&#xeb;" glyph-name="edieresis" horiz-adv-x="346" d="M 66.1 170 L 148 211 L 217 249 L 252 306 L 239 350 L 180 356 L 63 287 L 15.8 252 L -34.6 192 L -66.1 139 L -72.4 88.2 L -50.4 44.1 L 31.5 9.45 L 170 44.1 L 214 81.9 L 277 135 L 315 183 M 182 473 L 167 448 M 437 504 L 421 479" />
<glyph unicode="&#xec;" glyph-name="igrave" horiz-adv-x="249" d="M -31.5 183 L 37.8 236 L 59.9 328 L -37.8 85.1 L -18.9 22 L 53.5 6.3 L 132 69.3 L 183 129 L 217 183  M -40.8 598 L 88.3 520" />
<glyph unicode="&#xed;" glyph-name="iacute" horiz-adv-x="249" d="M -31.5 183 L 37.8 236 L 59.9 328 L -37.8 85.1 L -18.9 22 L 53.5 6.3 L 132 69.3 L 183 129 L 217 183  M 236 591 L 107 513" />
<glyph unicode="&#xee;" glyph-name="icircumflex" horiz-adv-x="249" d="M -31.5 183 L 37.8 236 L 59.9 328 L -37.8 85.1 L -18.9 22 L 53.5 6.3 L 132 69.3 L 183 129 L 217 183  M 36.1 501 L 152 564 L 217 499" />
<glyph unicode="&#xef;" glyph-name="idieresis" horiz-adv-x="249" d="M -31.5 183 L 37.8 236 L 59.9 328 L -37.8 85.1 L -18.9 22 L 53.5 6.3 L 132 69.3 L 183 129 L 217 183  M 112 480 L 95.8 454 M 331 526 L 315 500" />
<glyph unicode="&#xf1;" glyph-name="ntilde" horiz-adv-x="580" d="M 148 328 L 41 25.2 L 183 186 L 271 280 L 334 318 L 381 337 L 394 312 L 331 195 L 290 101 L 293 47.2 L 328 15.8 L 387 25.2 L 450 69.3 L 513 132 L 548 183 M 165 486 L 192 514 L 232 514 L 292 494 L 342 474 L 360 491 L 372 501" />
<glyph unicode="&#xf2;" glyph-name="ograve" horiz-adv-x="391" d="M 195 337 L 142 365 L 66.1 315 L -6.3 233 L -40.9 161 L -56.7 75.6 L 12.6 9.45 L 101 40.9 L 183 110 L 230 208 L 239 246 L 239 284 L 220 284 M 167 158 L 183 101 L 214 72.4 L 255 75.6 L 296 110 L 359 183 M 13.9 584 L 143 505" />
<glyph unicode="&#xf3;" glyph-name="oacute" horiz-adv-x="391" d="M 195 337 L 142 365 L 66.1 315 L -6.3 233 L -40.9 161 L -56.7 75.6 L 12.6 9.45 L 101 40.9 L 183 110 L 230 208 L 239 246 L 239 284 L 220 284 M 167 158 L 183 101 L 214 72.4 L 255 75.6 L 296 110 L 359 183 M 316 608 L 187 529" />
<glyph unicode="&#xf4;" glyph-name="ocircumflex" horiz-adv-x="391" d="M 195 337 L 142 365 L 66.1 315 L -6.3 233 L -40.9 161 L -56.7 75.6 L 12.6 9.45 L 101 40.9 L 183 110 L 230 208 L 239 246 L 239 284 L 220 284 M 167 158 L 183 101 L 214 72.4 L 255 75.6 L 296 110 L 359 183 M 85 509 L 205 574 L 272 507" />
<glyph unicode="&#xf5;" glyph-name="otilde" horiz-adv-x="391" d="M 195 337 L 142 365 L 66.1 315 L -6.3 233 L -40.9 161 L -56.7 75.6 L 12.6 9.45 L 101 40.9 L 183 110 L 230 208 L 239 246 L 239 284 L 220 284 M 167 158 L 183 101 L 214 72.4 L 255 75.6 L 296 110 L 359 183 M 50.2 509 L 78.5 537 L 120 537 L 181 517 L 233 496 L 251 514 L 263 524" />
<glyph unicode="&#xf6;" glyph-name="odieresis" horiz-adv-x="391" d="M 195 337 L 142 365 L 66.1 315 L -6.3 233 L -40.9 161 L -56.7 75.6 L 12.6 9.45 L 101 40.9 L 183 110 L 230 208 L 239 246 L 239 284 L 220 284 M 167 158 L 183 101 L 214 72.4 L 255 75.6 L 296 110 L 359 183 M 212 510 L 196 485 M 435 522 L 419 496" />
<glyph unicode="&#xf7;" glyph-name="divide" horiz-adv-x="666" d="M 431 472 L 415 447 M 439 220 L 423 195 M 241 331 L 581 337" />
<glyph unicode="&#xf8;" glyph-name="oslash" horiz-adv-x="391" d="M 195 337 L 142 365 L 66.1 315 L -6.3 233 L -40.9 161 L -56.7 75.6 L 12.6 9.45 L 101 40.9 L 183 110 L 230 208 L 239 246 L 239 284 L 220 284 M 167 158 L 183 101 L 214 72.4 L 255 75.6 L 296 110 L 359 183 M 293 437 L 132 227 L 44.1 106 L -26.5 -6.62" />
<glyph unicode="&#xf9;" glyph-name="ugrave" horiz-adv-x="495" d="M 47.2 309 L -18.9 217 L -53.6 123 L -56.7 56.7 L -9.45 28.4 L 78.8 53.6 L 145 139 L 227 239 L 293 353 L 324 343 L 214 164 L 205 97.6 L 202 53.6 L 255 22 L 321 40.9 L 413 120 L 463 183 M 52.7 571 L 182 492" />
<glyph unicode="&#xfa;" glyph-name="uacute" horiz-adv-x="495" d="M 47.2 309 L -18.9 217 L -53.6 123 L -56.7 56.7 L -9.45 28.4 L 78.8 53.6 L 145 139 L 227 239 L 293 353 L 324 343 L 214 164 L 205 97.6 L 202 53.6 L 255 22 L 321 40.9 L 413 120 L 463 183 M 341 556 L 212 477" />
<glyph unicode="&#xfb;" glyph-name="ucircumflex" horiz-adv-x="495" d="M 47.2 309 L -18.9 217 L -53.6 123 L -56.7 56.7 L -9.45 28.4 L 78.8 53.6 L 145 139 L 227 239 L 293 353 L 324 343 L 214 164 L 205 97.6 L 202 53.6 L 255 22 L 321 40.9 L 413 120 L 463 183 M 103 503 L 222 568 L 288 502" />
<glyph unicode="&#xfc;" glyph-name="udieresis" horiz-adv-x="495" d="M 47.2 309 L -18.9 217 L -53.6 123 L -56.7 56.7 L -9.45 28.4 L 78.8 53.6 L 145 139 L 227 239 L 293 353 L 324 343 L 214 164 L 205 97.6 L 202 53.6 L 255 22 L 321 40.9 L 413 120 L 463 183 M 225 498 L 209 473 M 484 532 L 468 507" />
<glyph unicode="&#xfd;" glyph-name="yacute" horiz-adv-x="488" d="M 88.2 312 L 3.15 233 L -31.5 186 L -47.2 132 L -53.6 85.1 L -37.8 47.2 L 12.6 31.5 L 69.3 47.2 L 176 151 L 280 277 L 334 334 L 369 331 L 274 139 L 183 -97.6 L 107 -230 L 28.4 -346 L -28.4 -397 L -135 -394 L -167 -346 L -123 -252 L -15.8 -167 L 123 -66.1 L 265 9.45 L 406 123 L 457 183 M 360 590 L 231 511" />
<glyph unicode="&#xff;" glyph-name="ydieresis" horiz-adv-x="488" d="M 88.2 312 L 3.15 233 L -31.5 186 L -47.2 132 L -53.6 85.1 L -37.8 47.2 L 12.6 31.5 L 69.3 47.2 L 176 151 L 280 277 L 334 334 L 369 331 L 274 139 L 183 -97.6 L 107 -230 L 28.4 -346 L -28.4 -397 L -135 -394 L -167 -346 L -123 -252 L -15.8 -167 L 123 -66.1 L 265 9.45 L 406 123 L 457 183 M 220 480 L 204 455 M 515 487 L 499 462" />
<glyph unicode="&#x2013;" glyph-name="endash" horiz-adv-x="666" d="M 241 236 L 581 243" />
<glyph unicode="&#x2014;" glyph-name="emdash" horiz-adv-x="888" d="M 321 236 L 775 243" />
<glyph unicode="&#x201c;" glyph-name="quotedblleft" horiz-adv-x="366" d="M 103 669 L 162 598 M 245 669 L 303 598" />
<glyph unicode="&#x201d;" glyph-name="quotedblright" horiz-adv-x="366" d="M 147 612 L 89.3 541 M 289 612 L 231 541" />
<glyph unicode="&#x2039;" glyph-name="guilsinglleft" horiz-adv-x="180" d="M 156 449 L 40.3 222 L 66.8 149 L 83.2 106 L 101 47.9" />
<glyph unicode="&#x203a;" glyph-name="guilsinglright" horiz-adv-x="189" d="M 101 444 L 131 350 L 156 300 L 117 224 L 69.3 131 L 34 63" />
<glyph unicode="&#x20ac;" glyph-name="Euro" horiz-adv-x="706" d="M 595 554 L 602 558 L 617 586 L 608 652 L 545 702 L 460 715 L 328 702 L 217 639 L 135 554 L 75.6 416 L 63 293 L 91.4 154 L 161 85.1 L 255 34.6 L 362 22 L 479 40.9 L 580 88.2 L 627 120 L 662 164 L 662 180 M 80.3 354 L 52 321 L 340 331 M 80.3 543 L 52 510 L 340 520" />
<glyph unicode="&#x0178;" glyph-name="Ydieresis" horiz-adv-x="627" d="M 28.4 482 L 34.6 485 L 120 523 L 195 583 L 252 646 L 277 665 L 287 668 L 230 554 L 142 394 L 69.3 230 L 56.7 154 L 50.4 75.6 L 85 15.8 L 158 15.8 L 233 53.6 L 334 145 L 403 220 L 463 306 L 542 416 L 595 510 L 621 586 L 662 649 L 715 674 L 759 680 L 684 633 L 633 576 L 583 400 L 526 205 L 457 -6.3 L 406 -113 L 346 -211 L 296 -284 L 233 -346 L 148 -400 L 69.3 -413 L 31.5 -400 L 3.15 -350 L 6.3 -296 L 37.8 -233 L 107 -151 L 205 -59.9 L 331 9.45 L 416 40.9 L 570 91.4 L 598 91.4 M 362 922 L 347 897 M 647 916 L 631 891" />
<glyph unicode="&#x102;" glyph-name="Abreve" horiz-adv-x="1061.6" d="M -9.45 40.9 L 9.45 -15.8 L 66.1 -56.7 L 154 -66.1 L 274 -25.2 L 406 78.8 L 529 205 L 662 359 L 737 463 L 813 558 L 882 636 L 939 699 L 958 706 L 876 570 L 797 346 L 753 189 L 750 97.6 L 775 18.9 L 819 3.15 L 910 53.6 L 986 126 L 1030.1 180 M 129 161 L 132 246 L 167 302 L 249 331 L 324 334 L 441 312 L 513 296 L 652 280 L 813 261 L 901 261 L 929 274 L 958 293 M1022 1056.6C1022 1056.6 975.873 959.085 855.921 958.422C735.97 957.76 723 1060.6 723 1060.6" />
<glyph unicode="&#x114;" glyph-name="Ebreve" horiz-adv-x="850" d="M 662 580 L 668 504 L 589 662 L 501 718 L 400 706 L 324 621 L 328 526 L 365 428 L 406 372 L 444 321 L 504 306 L 507 337 L 466 350 L 359 346 L 180 321 L 41 217 L -3.15 107 L 44.1 9.45 L 170 -50.4 L 318 -47.2 L 498 -22 L 643 37.8 L 756 113 L 803 180 L 810 205 L 806 252 M755 1052.61C755 1052.61 708.873 955.093 588.921 954.43C468.97 953.768 456 1056.61 456 1056.61" />
<glyph unicode="&#x11E;" glyph-name="Gbreve" horiz-adv-x="951" d="M 825 639 L 781 696 L 731 718 L 621 718 L 454 677 L 328 608 L 208 517 L 135 419 L 88.2 337 L 66.1 246 L 78.8 161 L 126 94.5 L 214 44.1 L 324 31.5 L 472 72.4 L 580 142 L 699 233 L 753 284 L 775 312 L 835 353 L 854 372 L 822 362 L 769 271 L 677 -41 L 573 -208 L 466 -353 L 365 -406 L 271 -413 L 227 -375 L 227 -302 L 265 -220 L 365 -117 L 495 -31.5 L 608 28.4 L 731 69.3 L 762 75.6 L 847 91.4 M787 1017.01C787 1017.01 740.873 919.498 620.921 918.836C500.97 918.173 488 1021.01 488 1021.01" />
<glyph unicode="&#x12C;" glyph-name="Ibreve" horiz-adv-x="548" d="M 501 693 L 410 413 L 334 224 L 280 126 L 220 50.4 L 167 28.4 L 97.6 18.9 L 9.45 25.2 L -6.3 50.4 L 22 72.4 L 66.1 40.9 L 117 31.5 L 447 37.8 M 233 450 L 176 523 L 202 602 L 277 665 L 394 684 L 523 677 L 598 674 L 665 649 M659 1044.19C659 1044.19 612.873 946.68 492.921 946.017C372.97 945.355 360 1048.19 360 1048.19" />
<glyph unicode="&#x14E;" glyph-name="Obreve" horiz-adv-x="850" d="M 37.8 328 L 37.8 334 L 88.2 491 L 186 598 L 334 680 L 444 715 L 551 712 L 652 696 L 737 627 L 778 526 L 791 454 L 775 324 L 728 198 L 636 78.8 L 542 0 L 447 -44.1 L 290 -53.5 L 180 0 L 117 129 L 129 296 L 183 400 L 268 501 L 353 545 L 419 576 L 460 576 L 504 570 M755 1033.92C755 1033.92 708.873 936.401 588.921 935.738C468.97 935.076 456 1037.92 456 1037.92" />
<glyph unicode="&#x16C;" glyph-name="Ubreve" horiz-adv-x="671" d="M 9.45 476 L 18.9 482 L 104 520 L 167 570 L 233 630 L 249 662 L 280 662 L 208 558 L 104 331 L 53.5 220 L 34.6 117 L 56.7 31.5 L 129 9.45 L 224 40.9 L 343 123 L 504 277 L 621 419 L 702 548 L 743 646 L 737 709 L 696 731 L 646 712 L 595 684 L 548 602 L 513 498 L 479 359 L 444 186 L 422 47.2 L 425 -56.7 L 441 -139 L 463 -180 L 498 -195 L 529 -198 L 558 -183 M698 1015.26C698 1015.26 651.873 917.743 531.921 917.08C411.97 916.418 399 1019.26 399 1019.26" />
<glyph unicode="&#x103;" glyph-name="abreve" horiz-adv-x="526" d="M 495 183 L 457 132 L 406 78.8 L 331 31.5 L 271 18.9 L 243 63 L 255 142 L 296 274 L 277 243 L 176 145 L 69.3 56.7 L -18.9 18.9 L -63 66.1 L -56.7 154 L 34.6 261 L 148 331 L 230 356 L 312 356 L 324 343 M452 658.396C452 658.396 405.873 560.881 285.921 560.219C165.97 559.557 153 662.396 153 662.396" />
<glyph unicode="&#x115;" glyph-name="ebreve" horiz-adv-x="346" d="M 66.1 170 L 148 211 L 217 249 L 252 306 L 239 350 L 180 356 L 63 287 L 15.8 252 L -34.6 192 L -66.1 139 L -72.4 88.2 L -50.4 44.1 L 31.5 9.45 L 170 44.1 L 214 81.9 L 277 135 L 315 183 M395 664.15C395 664.15 348.873 566.635 228.921 565.973C108.97 565.31 96 668.15 96 668.15" />
<glyph unicode="&#x11F;" glyph-name="gbreve" horiz-adv-x="469" d="M 306 350 L 195 353 L 69.3 287 L -15.8 205 L -56.7 164 L -78.8 110 L -59.9 56.7 L -18.9 18.9 L 91.4 69.3 L 176 158 L 265 252 L 287 274 L 318 274 L 164 -85 L 34.6 -331 L -22 -381 L -72.4 -410 L -117 -416 L -167 -381 L -148 -280 L -78.8 -220 L 22 -132 L 85 -88.2 L 258 22 L 369 110 L 438 183 M434 670.146C434 670.146 387.873 572.631 267.921 571.968C147.97 571.306 135 674.146 135 674.146" />
<glyph unicode="&#x12D;" glyph-name="ibreve" horiz-adv-x="249" d="M -31.5 183 L 37.8 236 L 59.9 328 L -37.8 85.1 L -18.9 22 L 53.5 6.3 L 132 69.3 L 183 129 L 217 183  M364 660.332C364 660.332 317.873 562.817 197.921 562.154C77.97 561.492 65 664.332 65 664.332" />
<glyph unicode="&#x14F;" glyph-name="obreve" horiz-adv-x="391" d="M 195 337 L 142 365 L 66.1 315 L -6.3 233 L -40.9 161 L -56.7 75.6 L 12.6 9.45 L 101 40.9 L 183 110 L 230 208 L 239 246 L 239 284 L 220 284 M 167 158 L 183 101 L 214 72.4 L 255 75.6 L 296 110 L 359 183 M409 674.618C409 674.618 362.873 577.103 242.921 576.44C122.97 575.778 110 678.618 110 678.618" />
<glyph unicode="&#x16D;" glyph-name="ubreve" horiz-adv-x="495" d="M 47.2 309 L -18.9 217 L -53.6 123 L -56.7 56.7 L -9.45 28.4 L 78.8 53.6 L 145 139 L 227 239 L 293 353 L 324 343 L 214 164 L 205 97.6 L 202 53.6 L 255 22 L 321 40.9 L 413 120 L 463 183 M442 668.434C442 668.434 395.873 570.919 275.921 570.256C155.97 569.594 143 672.434 143 672.434" />
<glyph unicode="&#xdf;" glyph-name="germandbls" horiz-adv-x="440" d="M76.22 199.809C76.22 199.809 -35.4103 -59.1633 -5.44559 -12.9284C45.2074 65.2281 44.0011 199.441 111.573 379.319C157.207 500.798 230.103 614.31 257.893 677.762C308.6 793.541 402.687 681.342 381.453 566.731C360.219 452.12 58.0293 304.394 197.334 357.666C336.638 410.937 519.472 318.804 305.709 84.1833C91.9448 -150.438 -26.9057 175.16 -26.9057 175.16" />
<glyph unicode="&#x15F;" glyph-name="scedilla" horiz-adv-x="302" d="M54.3511 -16.9044C54.9885 -30.4041 58.7482 -45.6094 58.1342 -57.7531C57.4551 -69.1516 46.3699 -102.461 38.8904 -112.034C29.7507 -123.731 -0.496327 -140.507 -19.5287 -137.752M-31.5 183C1.03371 203 16.3374 229.049 34.6 261C54.2606 315.559 65.9302 351.884 117 394C168.07 436.116 249 447 249 447C249 447 277.079 454.315 293 454C308.921 453.685 333.126 453.633 343 444C352.874 434.367 350 413 350 413C345.048 384.741 346.025 384.226 328 365M53.5 274C69.0508 221.383 121.453 212.68 161 183C200.547 153.32 209.363 129.772 195 88.2C180.125 13.8006 -74.1476 -87.5789 -34.6 15.8C-30.6911 25.237 -15.8 34.6 -15.8 34.6" />
<glyph unicode="&#xc7;" glyph-name="Ccedilla" horiz-adv-x="690" d="M233.668 -25.3894L233.668 -55.4866C233.668 -66.7466 234.603 -78.2505 232.62 -89.4425C229.506 -107.024 205.604 -156.871 191.751 -170.474C174.823 -187.095 122.668 -208.051 92.1976 -200.571M296 362L403 372L526 441L617 526L658 608L639 680L564 712L375 662L249 576L110 419L41 280L12.6 132L59.9 25.2L189 -31.5L346 -15.8L476 34.6L595 113L668 189" />
<glyph unicode="&#xE6;" glyph-name="ae" horiz-adv-x="660" d="M366.1 170C443.971 211.242 579.323 290.755 539.959 341.37C500.594 391.986 208.65 220.011 232.941 81.4689C257.232 -57.0736 523.026 44.7685 615 183M242.178 145.736C257.101 186.268 282.953 231.996 296 274C214.62 163.858 46.7444 6.62304 -34.8515 30.1598C-116.447 53.6967 -32.6897 203.491 34.6 261C101.89 318.509 260.309 398.396 324 343" />
<glyph unicode="&#x15E;" glyph-name="Scedilla" horiz-adv-x="706" d="M229.531 7.70727L226.75 -22.2612C225.71 -33.473 225.577 -45.014 222.569 -55.9751C217.844 -73.1938 189.439 -120.619 174.388 -132.883C155.997 -147.87 102.129 -163.917 72.4798 -153.654M693 580L721 621L721 668L665 709L520 690L350 636L268 558L265 485L362 438L517 391L617 337L658 277L652 224L617 170L523 97.6L372 34.6L167 -6.3L63 9.45L28.4 47.2L18.9 129L53.5 202L117 255L189 293L293 324" />
<glyph unicode="&#x130;" glyph-name="Idotaccent" horiz-adv-x="548" d="M543 816L514.5 778M501 693L410 413L334 224L280 126L220 50.4L167 28.4L97.6 18.9L9.45 25.2L-6.3 50.4L22 72.4L66.1 40.9L117 31.5L447 37.8M233 450L176 523L202 602L277 665L394 684L523 677L598 674L665 649" />
<glyph unicode="&#x2D8;" glyph-name="breve" horiz-adv-x="791" d="M485 761C485 761 438.873 663.485 318.921 662.823C198.97 662.16 186 765 186 765" />
<glyph unicode="&#xC6;" glyph-name="AE" horiz-adv-x="1330.0" d="M89.2783 316.097C400.408 348.062 712.222 329.315 1024.04 321.159M1096.6 543.884C1082.96 623.613 1099.42 642.388 1172.53 710.927C1001.15 691.624 719.415 750.709 646.089 638.373M-44.0188 -100.667C-44.0188 -100.667 102.6 292.235 198.953 419.023C295.306 545.811 398.471 665.784 479.046 709.239C586.956 762.684 641.433 740.563 646.089 692.366C638.726 495.905 445.602 252.633 504.355 74.8129C532.714 -1.50505 568.017 -23.3497 654.525 -55.1095C741.033 -86.8694 902.328 -79.7905 1008.86 -51.7349C1115.39 -23.6793 1277.14 96.7478 1277.14 96.7478" />
<glyph unicode="&#x131;" glyph-name="dotlessi" horiz-adv-x="249" d="M-31.5 183L37.8 236L59.9 328L-37.8 85.1L-18.9 22L53.5 6.3L132 69.3L183 129L217 183" />
<glyph unicode="&#xe7;" glyph-name="ccedilla" horiz-adv-x="346" d="M98.535 27.7113L98.535 5.26892C98.535 -3.12719 99.163 -11.7052 97.8307 -20.0507C95.738 -33.1606 79.6745 -70.3298 70.3646 -80.4725C58.9882 -92.8666 23.9377 -108.492 3.45987 -102.915M243 306L239 350L198 365L101 328L-15.8 208L-47.2 170L-72.4 110L-66.1 66.1L-47.2 25.2L56.7 15.8L186 56.7L268 123L315 183" />
<glyph unicode="&#xb8;" glyph-name="cedilla" horiz-adv-x="690" d="M233.668 -25.3894L233.668 -55.4866C233.668 -66.7466 234.603 -78.2505 232.62 -89.4425C229.506 -107.024 205.604 -156.871 191.751 -170.474C174.823 -187.095 122.668 -208.051 92.1976 -200.571" />
</font>
</defs>
</svg>
