<?xml version="1.0" encoding="UTF-8" ?>
<!DOCTYPE svg PUBLIC "-//W3C//DTD SVG 1.1//EN" "http://www.w3.org/Graphics/SVG/1.1/DTD/svg11.dtd" >

<svg xmlns="http://www.w3.org/2000/svg" xmlns:xlink="http://www.w3.org/1999/xlink" version="1.1">

<metadata>
Font name:               EMS Elfin
License:                 SIL Open Font License http://scripts.sil.org/OFL
Created by:              Sheldon B. Michaels
SVG font conversion by:  Windell H. Oskay
A derivative of:         Mountains of Christmas
Designer:                Crystal Kluge, Tart Workshop
Link:                    http://www.tartworkshop.com
Google font page:        https://fonts.google.com/specimen/Mountains+of+Christmas
Note:                    SIL OFL per metadata; Google cites Apache License, version 2.0
</metadata>
<defs>
<font id="EMSElfin" horiz-adv-x="378" >
<font-face
font-family="EMS Elfin"
units-per-em="1000"
ascent="800"
descent="-200"
cap-height="500"
x-height="300"
/>
<missing-glyph horiz-adv-x="378" />
<glyph unicode=" " glyph-name="space" horiz-adv-x="378" />
<glyph unicode="!" glyph-name="exclam" horiz-adv-x="236" d="M 192 649 L 208 583 L 198 236 M 183 50.4 L 176 3.15 L 217 3.15 L 227 50.4 L 183 50.4" />
<glyph unicode="&#x22;" glyph-name="quotedbl" horiz-adv-x="302" d="M 126 665 L 135 639 L 135 501 M 265 665 L 265 545 L 249 501" />
<glyph unicode="#" glyph-name="numbersign" horiz-adv-x="627" d="M 189 101 L 249 315 L 315 554 L 328 643 M 539 652 L 513 583 L 378 78.8 M 592 261 L 432 252 L 255 252 L 97.6 230 M 117 447 L 321 463 L 498 457 L 589 466 L 614 466" />
<glyph unicode="$" glyph-name="dollar" horiz-adv-x="410" d="M 261 -15.8 L 258 491 L 249 551 L 233 621 L 233 684 M 356 501 L 353 532 L 261 605 L 214 608 L 170 586 L 135 548 L 126 498 L 148 441 L 227 359 L 321 280 L 369 214 L 369 154 L 321 101 L 280 78.8 L 233 72.4 L 183 75.6 L 132 126 L 107 170 L 110 202" />
<glyph unicode="%" glyph-name="percent" horiz-adv-x="564" d="M 205 59.9 L 387 504 L 441 608 L 321 580 L 233 558 L 176 558 L 151 567 L 110 532 L 94.5 450 L 101 387 L 135 346 L 173 353 L 214 400 L 217 476 L 211 520 L 192 551 M 482 331 L 438 306 L 410 243 L 397 189 L 403 126 L 422 91.4 L 466 81.9 L 501 97.7 L 536 161 L 548 230 L 539 287 L 526 312 L 482 331" />
<glyph unicode="&amp;" glyph-name="ampersand" horiz-adv-x="728" d="M 387 592 L 375 542 L 365 507 L 378 491 L 346 536 L 306 548 L 271 539 L 239 520 L 233 479 L 239 450 L 265 422 L 315 413 L 287 425 L 208 394 L 142 340 L 123 287 L 113 183 L 151 94.5 L 220 44.1 L 293 25.2 L 375 28.4 L 447 59.9 L 498 123 L 507 173 L 488 224 L 438 290 M 274 211 L 287 249 L 324 274 L 384 290 L 469 302 L 539 318 L 630 343 L 693 384 L 724 435 L 712 482 L 690 504 L 655 517 L 611 504" />
<glyph unicode="&apos;" glyph-name="quotesingle" horiz-adv-x="164" d="M 117 709 L 117 495" />
<glyph unicode="(" glyph-name="parenleft" horiz-adv-x="296" d="M 284 -94.5 L 205 12.6 L 148 139 L 123 268 L 117 400 L 132 526 L 180 636 L 239 699 L 299 737" />
<glyph unicode=")" glyph-name="parenright" horiz-adv-x="284" d="M 110 -69.3 L 173 15.8 L 220 120 L 246 217 L 249 318 L 249 438 L 220 545 L 176 630 L 110 721 L 75.6 765" />
<glyph unicode="*" glyph-name="asterisk" horiz-adv-x="428" d="M 265 296 L 271 702 M 107 350 L 400 621 M 104 621 L 343 406 L 387 350" />
<glyph unicode="+" glyph-name="plus" horiz-adv-x="542" d="M 324 81.9 L 331 81.9 L 306 517 M 101 280 L 217 280 L 372 290 L 457 302 L 529 312" />
<glyph unicode="," glyph-name="comma" horiz-adv-x="211" d="M 158 25.2 L 120 25.2 L 126 72.4 L 170 69.3 L 173 -18.9 L 126 -94.5" />
<glyph unicode="-" glyph-name="hyphen" horiz-adv-x="413" d="M 132 227 L 139 227 L 230 246 L 293 239 L 356 255" />
<glyph unicode="." glyph-name="period" horiz-adv-x="202" d="M 126 66.1 L 120 18.9 L 164 18.9 L 170 63 L 126 66.1" />
<glyph unicode="/" glyph-name="slash" horiz-adv-x="309" d="M 117 53.6 L 227 428 L 271 630" />
<glyph unicode="0" glyph-name="zero" horiz-adv-x="394" d="M 236 224 L 284 224 L 343 261 L 381 343 L 381 397 L 328 472 L 261 510 L 192 510 L 148 469 L 129 416 L 126 346 L 148 284 L 173 246 L 239 220" />
<glyph unicode="1" glyph-name="one" horiz-adv-x="359" d="M 280 34.6 L 290 586 L 299 542 L 239 501 L 186 466 L 132 447 L 72.5 444" />
<glyph unicode="2" glyph-name="two" horiz-adv-x="422" d="M 192 498 L 208 463 L 189 419 L 148 403 L 113 419 L 97.6 476 L 101 554 L 158 639 L 230 665 L 296 643 L 337 576 L 343 504 L 331 406 L 290 274 L 236 164 L 189 85.1 L 158 28.4 L 425 56.7" />
<glyph unicode="3" glyph-name="three" horiz-adv-x="406" d="M 224 158 L 208 198 L 145 195 L 107 173 L 91.4 113 L 104 59.9 L 151 15.8 L 217 9.45 L 296 59.9 L 334 139 L 340 224 L 318 318 L 284 369 L 236 397 L 192 394 L 173 384 L 151 359 L 214 419 L 318 542 L 387 617 L 271 614 L 173 621" />
<glyph unicode="4" glyph-name="four" horiz-adv-x="413" d="M 406 132 L 85 69.3 L 224 416 L 287 627 M 312 463 L 312 161 L 315 6.3 L 312 -97.6" />
<glyph unicode="5" glyph-name="five" horiz-adv-x="387" d="M 198 94.5 L 189 120 L 158 120 L 123 94.5 L 123 34.6 L 158 -15.8 L 233 -18.9 L 315 34.6 L 346 107 L 356 176 L 324 239 L 274 306 L 236 315 L 189 296 L 158 271 L 135 239 L 126 205 L 135 406 L 139 454 L 129 576 L 220 564 L 328 576" />
<glyph unicode="6" glyph-name="six" horiz-adv-x="457" d="M 208 18.9 L 217 104 L 261 170 L 315 186 L 375 135 L 391 69.3 L 365 15.8 L 324 -12.6 L 252 -12.6 L 189 44.1 L 135 148 L 126 280 L 161 406 L 233 495 L 299 548 L 356 554 L 410 539 L 463 504" />
<glyph unicode="7" glyph-name="seven" horiz-adv-x="413" d="M 148 -34.6 L 315 419 L 362 517 L 394 554 L 419 573 L 284 561 L 158 551 L 85 567 M 176 359 L 391 321" />
<glyph unicode="8" glyph-name="eight" horiz-adv-x="441" d="M 249 15.8 L 346 47.2 L 378 78.8 L 387 107 L 416 126 L 416 167 L 435 214 L 406 315 L 359 384 L 324 422 L 284 425 L 230 425 L 202 466 L 202 532 L 249 586 L 302 586 L 356 561 L 384 517 L 387 460 L 362 432 L 321 416 L 227 416 L 176 378 L 132 306 L 123 236 L 126 158 L 145 97.7 L 180 44.1 L 249 15.8" />
<glyph unicode="9" glyph-name="nine" horiz-adv-x="438" d="M 113 101 L 120 101 L 139 50.4 L 198 25.2 L 284 56.7 L 356 129 L 391 246 L 381 397 L 315 517 L 284 554 L 243 570 L 183 551 L 148 504 L 129 450 L 142 384 L 176 346 L 227 337 L 280 359 L 315 394 L 343 469" />
<glyph unicode=":" glyph-name="colon" horiz-adv-x="246" d="M 139 403 L 132 356 L 176 356 L 183 400 L 139 403 M 145 66.1 L 139 18.9 L 183 18.9 L 189 66.1 L 145 66.1" />
<glyph unicode=";" glyph-name="semicolon" horiz-adv-x="255" d="M 158 387 L 151 343 L 192 343 L 202 387 L 158 387 M 4006.8 -3.15 L 4003.6 -50.4 L 4044.6 -50.4 L 4050.9 -3.15 L 4006.8 -3.15 M 173 22.1 L 135 22.1 L 142 66.1 L 186 66.1 L 189 -25.2 L 142 -97.6" />
<glyph unicode="&#x3c;" glyph-name="less" horiz-adv-x="542" d="M 482 50.4 L 107 183 L 501 422" />
<glyph unicode="=" glyph-name="equal" horiz-adv-x="589" d="M 132 139 L 403 132 L 523 139 M 513 321 L 400 309 L 255 315 L 145 321" />
<glyph unicode="&#x3e;" glyph-name="greater" horiz-adv-x="567" d="M 129 375 L 315 299 L 463 252 L 548 217 L 400 148 L 233 78.8 L 145 47.2" />
<glyph unicode="?" glyph-name="question" horiz-adv-x="387" d="M 176 239 L 192 482 L 198 435 L 233 428 L 315 485 L 353 605 L 337 706 L 293 772 L 230 800 L 158 765 L 129 737 L 117 709 L 113 649 L 101 611 L 123 580 L 161 602 L 167 643" />
<glyph unicode="@" glyph-name="at" horiz-adv-x="690" d="M 548 37.8 L 397 12.6 L 271 40.9 L 161 170 L 139 353 L 217 517 L 321 608 L 432 633 L 536 605 L 614 539 L 674 454 L 684 378 L 636 284 L 586 227 L 523 198 L 495 220 L 469 268 L 469 340 L 476 397 L 454 435 L 419 447 L 378 419 L 350 356 L 334 312 L 334 258 L 340 220 L 359 202 L 384 214 L 410 255 L 472 350" />
<glyph unicode="A" glyph-name="A" horiz-adv-x="595" d="M 41 -88.2 L 120 -85 L 183 -101 L 117 -85 L 265 517 L 321 658 L 328 684 L 428 387 L 523 123 L 539 56.7 L 151 56.7 L 536 59.9 L 586 -104 L 510 -120 L 649 -97.6" />
<glyph unicode="B" glyph-name="B" horiz-adv-x="491" d="M 142 -31.5 L 284 22.1 L 384 91.4 L 410 145 L 403 198 L 369 249 L 337 280 L 290 293 L 189 274 L 293 296 L 400 365 L 454 447 L 469 532 L 460 617 L 428 684 L 356 743 L 274 772 L 173 765 L 37.8 756 L 151 756 L 198 -18.9" />
<glyph unicode="C" glyph-name="C" horiz-adv-x="699" d="M 696 142 L 633 69.3 L 545 18.9 L 457 9.45 L 353 22.1 L 246 81.9 L 180 161 L 126 280 L 123 410 L 176 564 L 265 671 L 365 712 L 466 731 L 564 718 L 668 652 L 680 715 L 662 652 L 671 586" />
<glyph unicode="D" glyph-name="D" horiz-adv-x="617" d="M 53.5 775 L 170 781 L 324 765 L 444 715 L 526 617 L 567 510 L 583 400 L 551 293 L 472 192 L 378 126 L 287 78.8 L 154 56.7 L 246 66.1 L 205 630 L 192 778" />
<glyph unicode="E" glyph-name="E" horiz-adv-x="507" d="M 498 40.9 L 495 -50.4 L 498 -12.6 L 161 -18.9 L 107 -31.5 L 173 -18.9 L 167 211 L 271 217 L 381 211 L 400 268 L 387 170 L 381 208 L 243 220 L 167 217 L 173 479 L 164 709 L 107 715 L 180 702 L 340 702 L 501 702 L 498 639 L 507 775" />
<glyph unicode="F" glyph-name="F" horiz-adv-x="495" d="M 170 -47.2 L 246 -25.2 L 271 -25.2 L 233 -22.1 L 217 192 L 425 211 L 432 158 L 425 239 L 425 211 L 217 192 L 176 680 L 176 662 L 63 665 L 296 668 L 479 671 L 479 724 L 482 598 L 488 576" />
<glyph unicode="G" glyph-name="G" horiz-adv-x="532" d="M 479 740 L 472 646 L 476 674 L 491 668 L 457 684 L 413 715 L 328 724 L 255 693 L 183 614 L 139 482 L 135 350 L 142 217 L 202 126 L 280 91.4 L 384 120 L 444 186 L 476 280 L 482 457 L 526 450 L 365 457" />
<glyph unicode="H" glyph-name="H" horiz-adv-x="605" d="M 129 -22.1 L 214 9.45 L 176 -6.3 L 164 258 L 123 693 L 75.6 684 L 123 690 L 161 702 M 536 -47.2 L 510 -53.5 L 425 -63 L 472 -56.7 L 517 441 L 532 595 L 561 728 L 605 728 L 513 734 M 495 202 L 170 208" />
<glyph unicode="I" glyph-name="I" horiz-adv-x="290" d="M 139 -9.45 L 230 18.9 L 299 22.1 L 227 25.2 L 180 340 L 164 655 L 217 665 L 243 658 L 211 665 L 72.5 636" />
<glyph unicode="J" glyph-name="J" horiz-adv-x="425" d="M 139 25.2 L 97.6 37.8 L 44.1 3.15 L 25.2 -56.7 L 69.3 -135 L 158 -154 L 258 -129 L 334 -56.7 L 372 37.8 L 372 142 L 340 328 L 271 687 L 192 662 L 365 709" />
<glyph unicode="K" glyph-name="K" horiz-adv-x="665" d="M 139 -78.8 L 243 -50.4 L 198 -63 L 183 296 L 167 416 L 158 690 L 217 699 L 75.6 680 M 649 662 L 529 674 L 586 665 L 466 532 L 346 384 L 239 284 L 195 271 L 274 296 L 350 299 L 403 271 L 444 208 L 485 139 L 564 25.2 L 624 -18.9 L 684 -6.3 L 721 34.6 L 728 59.9 L 709 107 L 680 132 L 652 113" />
<glyph unicode="L" glyph-name="L" horiz-adv-x="410" d="M 416 40.9 L 394 -81.9 L 403 -31.5 L 274 -18.9 L 148 -18.9 L 81.9 -31.5 L 151 -18.9 L 151 419 L 148 573 L 154 743 L 110 743 L 202 747" />
<glyph unicode="M" glyph-name="M" horiz-adv-x="920" d="M 41 12.6 L 192 28.4 L 145 25.2 L 205 551 L 224 803 L 413 198 L 583 432 L 671 567 L 728 677 L 778 781 L 784 822 L 769 677 L 794 466 L 816 258 L 841 25.2 L 954 47.2 L 759 9.45" />
<glyph unicode="N" glyph-name="N" horiz-adv-x="564" d="M 88.2 -37.8 L 246 -12.6 L 176 -18.9 L 167 315 L 154 428 L 154 677 L 302 387 L 482 107 L 491 447 L 504 617 L 532 750 L 598 743 L 469 756" />
<glyph unicode="O" glyph-name="O" horiz-adv-x="649" d="M 441 674 L 391 696 L 252 652 L 164 551 L 123 406 L 132 265 L 195 158 L 312 101 L 432 107 L 551 195 L 595 265 L 627 350 L 624 450 L 589 564 L 548 633 L 498 671 L 444 674" />
<glyph unicode="P" glyph-name="P" horiz-adv-x="469" d="M 132 -9.45 L 249 6.3 L 189 -3.15 L 202 539 L 189 608 L 176 687 L 139 737 L 53.5 737 L 280 731 L 362 702 L 425 633 L 457 551 L 454 466 L 432 394 L 353 328 L 265 309 L 202 309" />
<glyph unicode="Q" glyph-name="Q" horiz-adv-x="665" d="M 510 53.6 L 595 158 L 602 192 L 624 230 L 633 309 L 605 438 L 580 507 L 510 567 L 472 570 L 413 595 L 255 551 L 167 444 L 135 343 L 126 214 L 161 107 L 214 50.4 L 293 3.15 L 391 -3.15 L 450 15.8 L 504 59.9 L 425 154 L 668 -104 L 737 -117 L 772 -85 L 778 -53.5 L 769 -18.9 L 743 6.3 L 712 9.45 L 709 -9.45" />
<glyph unicode="R" glyph-name="R" horiz-adv-x="630" d="M 145 -113 L 271 -85 L 211 -101 L 202 274 L 189 450 L 211 690 L 66.1 662 L 284 696 L 419 693 L 482 655 L 529 586 L 536 510 L 523 438 L 466 378 L 391 340 L 324 318 L 205 312 L 372 318 L 419 287 L 463 205 L 507 81.9 L 545 -47.2 L 598 -142 L 658 -170 L 724 -151 L 759 -120 L 759 -72.5 L 747 -34.6 L 709 0 L 680 -12.6 L 671 -34.6" />
<glyph unicode="S" glyph-name="S" horiz-adv-x="425" d="M 217 123 L 208 170 L 151 195 L 94.5 173 L 72.5 107 L 88.2 50.4 L 132 -9.45 L 205 -37.8 L 296 3.15 L 362 81.9 L 381 151 L 375 214 L 312 337 L 208 498 L 173 580 L 173 665 L 217 731 L 246 753 L 293 759 L 337 737 L 400 677 L 425 718 L 365 602" />
<glyph unicode="T" glyph-name="T" horiz-adv-x="561" d="M 284 -50.4 L 432 -34.6 L 365 -41 L 331 643 L 551 649 L 554 614 L 551 649 L 567 715 L 551 649 L 88.2 627 L 94.5 702 L 91.4 621 L 81.9 558" />
<glyph unicode="U" glyph-name="U" horiz-adv-x="580" d="M 69.3 756 L 202 775 L 132 762 L 158 447 L 189 198 L 233 107 L 309 81.9 L 381 101 L 444 145 L 501 258 L 520 362 L 517 740 L 463 743 L 576 750" />
<glyph unicode="V" glyph-name="V" horiz-adv-x="558" d="M 88.2 668 L 161 684 L 120 677 L 217 406 L 277 154 L 306 34.6 L 343 142 L 369 198 L 425 413 L 457 517 L 495 624 L 551 737 L 491 747 L 548 734 L 624 737" />
<glyph unicode="W" glyph-name="W" horiz-adv-x="791" d="M 75.6 655 L 158 665 L 217 684 L 139 662 L 189 438 L 205 328 L 249 148 L 255 69.3 L 293 202 L 331 287 L 378 495 L 387 551 L 410 589 L 419 630 L 438 523 L 488 328 L 580 -3.15 L 614 186 L 652 350 L 652 406 L 677 463 L 709 532 L 715 630 L 747 747 L 687 743 L 832 740" />
<glyph unicode="X" glyph-name="X" horiz-adv-x="608" d="M 59.9 -28.4 L 180 -18.9 L 123 -22.1 L 435 472 L 469 548 L 592 728 L 643 724 L 520 737 M 69.3 712 L 230 740 L 161 728 L 192 586 L 268 413 L 359 224 L 428 78.8 L 447 25.2 L 517 -44.1 L 558 -63 L 617 -56.7 L 649 -28.4 L 655 25.2 L 630 56.7 L 602 53.6" />
<glyph unicode="Y" glyph-name="Y" horiz-adv-x="592" d="M 85 747 L 180 769 L 129 756 L 217 548 L 255 463 L 331 356 L 315 -59.9 L 265 -63 L 220 -69.3 L 315 -59.9 L 387 -63 M 328 359 L 466 561 L 510 643 L 595 788 L 529 803 L 652 772 L 662 765" />
<glyph unicode="Z" glyph-name="Z" horiz-adv-x="517" d="M 72.5 554 L 85 674 L 85 652 L 290 665 L 517 674 L 491 674 L 432 598 L 312 365 L 233 384 L 315 365 L 394 362 L 312 362 L 186 72.4 L 126 -31.5 L 479 12.6 L 482 69.3 L 479 -34.6" />
<glyph unicode="[" glyph-name="bracketleft" horiz-adv-x="315" d="M 318 -56.7 L 198 -66.1 L 198 120 L 161 328 L 148 495 L 148 718 L 290 721" />
<glyph unicode="\" glyph-name="backslash" horiz-adv-x="350" d="M 331 69.3 L 214 315 L 180 438 L 113 592" />
<glyph unicode="]" glyph-name="bracketright" horiz-adv-x="252" d="M 94.5 -110 L 161 -107 L 173 -94.5 L 176 387 L 186 690 L 101 687" />
<glyph unicode="^" glyph-name="asciicircum" horiz-adv-x="384" d="M 97.6 249 L 227 665 L 290 482 L 343 274" />
<glyph unicode="_" glyph-name="underscore" horiz-adv-x="491" d="M 94.5 -15.8 L 479 -18.9" />
<glyph unicode="`" glyph-name="grave" horiz-adv-x="211" d="M 81.9 794 L 214 693" />
<glyph unicode="a" glyph-name="a" horiz-adv-x="387" d="M 126 350 L 110 413 L 139 460 L 202 501 L 284 482 L 328 413 L 340 328 L 343 198 L 328 148 L 265 104 L 198 69.3 L 139 59.9 L 91.4 88.2 L 88.2 158 L 113 202 L 183 220 L 271 220 L 296 214 L 334 173 L 346 132 L 350 69.3 L 350 0 L 353 -25.2 L 387 -31.5 L 406 -31.5 L 428 -31.5 L 454 -18.9" />
<glyph unicode="b" glyph-name="b" horiz-adv-x="472" d="M 44.1 810 L 195 822 L 123 813 L 158 -9.45 L 249 -37.8 L 343 -18.9 L 422 56.7 L 450 132 L 441 214 L 410 274 L 353 312 L 261 293 L 208 249 L 173 195 L 151 139 L 164 -37.8 L 117 -50.4 L 94.5 -63" />
<glyph unicode="c" glyph-name="c" horiz-adv-x="394" d="M 340 312 L 365 457 L 356 403 L 299 444 L 243 454 L 170 416 L 126 318 L 113 224 L 139 148 L 205 78.8 L 287 69.3 L 337 94.5 L 356 117" />
<glyph unicode="d" glyph-name="d" horiz-adv-x="454" d="M 466 -3.15 L 391 -9.45 L 350 -22.1 L 391 -6.3 L 391 239 L 378 346 L 350 381 L 290 387 L 214 365 L 161 309 L 123 224 L 117 139 L 135 75.6 L 183 31.5 L 230 31.5 L 296 81.9 L 334 135 L 365 214 L 384 318 L 406 825 L 290 816" />
<glyph unicode="e" glyph-name="e" horiz-adv-x="346" d="M 331 44.1 L 293 -9.45 L 224 -31.5 L 151 15.8 L 120 139 L 129 280 L 176 403 L 211 425 L 258 419 L 293 384 L 337 274 L 236 268 L 132 265" />
<glyph unicode="f" glyph-name="f" horiz-adv-x="290" d="M 110 -211 L 299 -176 L 208 -189 L 180 173 L 173 400 L 274 403 L 302 416 L 249 403 L 110 400 L 97.6 403 L 180 400 L 186 605 L 202 715 L 236 775 L 302 806 L 372 810 L 432 769 L 457 734 L 460 709" />
<glyph unicode="g" glyph-name="g" horiz-adv-x="422" d="M 274 217 L 328 265 L 359 346 L 372 359 L 447 387 L 362 359 L 315 422 L 255 466 L 217 469 L 135 416 L 104 321 L 126 249 L 170 214 L 214 208 L 249 214 L 287 224 L 299 113 L 299 15.8 L 365 -44.1 L 406 -97.6 L 425 -189 L 422 -249 L 346 -324 L 233 -372 L 120 -362 L 37.8 -306 L -3.15 -220 L 12.6 -104 L 53.5 -31.5 L 97.6 15.8 L 186 44.1 L 239 40.9 L 299 15.8" />
<glyph unicode="h" glyph-name="h" horiz-adv-x="447" d="M 88.2 -53.5 L 230 -12.6 L 161 -34.6 L 135 491 L 123 828 L 145 835 L 123 822 L 63 822 M 145 315 L 202 387 L 280 425 L 334 413 L 369 365 L 387 271 L 394 189 L 397 -18.9 L 337 -34.6 L 466 -6.3" />
<glyph unicode="i" glyph-name="i" horiz-adv-x="258" d="M 78.8 50.4 L 81.9 50.4 L 243 69.3 L 167 63 L 180 435 L 110 435 M 132 696 L 132 658 L 173 652 L 173 696 L 132 696" />
<glyph unicode="j" glyph-name="j" horiz-adv-x="265" d="M 53.5 -220 L 12.6 -217 L -15.8 -258 L -3.15 -318 L 56.7 -356 L 139 -337 L 217 -249 L 230 -154 L 208 211 L 214 435 L 148 413 L 72.5 397 M 167 696 L 139 677 L 180 652 L 227 677 L 167 696" />
<glyph unicode="k" glyph-name="k" horiz-adv-x="460" d="M 85 -28.4 L 227 0 L 158 -12.6 L 139 536 L 142 891 L 208 907 L 72.5 885 M 469 482 L 372 488 L 406 463 L 334 394 L 161 274 L 261 334 L 359 145 L 419 15.8 L 488 -91.4 L 539 -107 L 592 -85 L 621 -41 L 611 12.6 L 580 31.5 L 558 28.4 L 548 9.45" />
<glyph unicode="l" glyph-name="l" horiz-adv-x="224" d="M 91.4 -129 L 101 -129 L 227 -78.8 L 161 -107 L 139 457 L 151 759 L 205 775 L 142 750 L 85 750" />
<glyph unicode="m" glyph-name="m" horiz-adv-x="740" d="M 123 -41 L 183 -18.9 L 261 -6.3 L 180 -18.9 L 176 268 L 154 447 L 198 460 L 78.8 435 L 158 447 L 186 230 L 243 343 L 340 416 L 387 422 L 413 387 L 425 258 L 425 154 L 457 293 L 523 403 L 592 460 L 646 466 L 671 400 L 680 265 L 674 34.6 L 605 9.45 L 759 44.1" />
<glyph unicode="n" glyph-name="n" horiz-adv-x="510" d="M 91.4 -50.4 L 224 -31.5 L 167 -37.8 L 164 161 L 180 318 L 186 495 L 158 513 L 78.8 507 M 180 299 L 277 410 L 356 450 L 410 413 L 447 353 L 457 280 L 460 110 L 419 101 L 517 120" />
<glyph unicode="o" glyph-name="o" horiz-adv-x="435" d="M 302 472 L 243 485 L 161 457 L 126 391 L 129 299 L 164 239 L 246 198 L 353 233 L 397 312 L 400 406 L 362 457 L 312 457" />
<glyph unicode="p" glyph-name="p" horiz-adv-x="498" d="M 132 -350 L 239 -334 L 277 -321 L 220 -334 L 205 -113 L 158 202 L 154 369 L 214 476 L 331 536 L 428 501 L 466 400 L 450 293 L 403 217 L 312 186 L 243 205 L 180 261 L 154 356 L 142 504 L 142 605 L 183 621 L 75.6 586" />
<glyph unicode="q" glyph-name="q" horiz-adv-x="482" d="M 450 576 L 416 362 L 372 293 L 312 246 L 230 233 L 158 274 L 123 343 L 129 444 L 208 507 L 287 517 L 365 466 L 403 419 L 406 302 L 403 129 L 365 -268 L 387 -192 L 466 -117 L 501 -50.4" />
<glyph unicode="r" glyph-name="r" horiz-adv-x="413" d="M 123 -25.2 L 195 -3.15 L 252 12.6 L 176 -9.45 L 158 176 L 158 340 L 145 491 L 78.8 479 L 145 488 L 170 321 L 224 422 L 309 491 L 369 507 L 400 479 L 419 444 L 410 400 L 391 381 L 362 381" />
<glyph unicode="s" glyph-name="s" horiz-adv-x="340" d="M 129 -25.2 L 104 9.45 L 69.3 9.45 L 41 -31.5 L 56.7 -104 L 97.6 -148 L 173 -158 L 243 -120 L 284 -63 L 290 37.8 L 239 176 L 167 331 L 148 450 L 192 536 L 258 554 L 306 539 L 331 507 L 362 542 L 296 438" />
<glyph unicode="t" glyph-name="t" horiz-adv-x="350" d="M 296 81.9 L 331 113 L 369 94.5 L 375 50.4 L 356 -3.15 L 290 -34.6 L 233 -25.2 L 183 37.8 L 176 164 L 164 463 L 88.2 450 L 258 472 L 164 463 L 158 655" />
<glyph unicode="u" glyph-name="u" horiz-adv-x="507" d="M 81.9 513 L 186 513 L 151 504 L 139 296 L 139 173 L 167 117 L 195 81.9 L 217 78.8 L 258 132 L 296 176 L 306 230 L 378 340 L 416 416 L 428 491 L 432 214 L 444 40.9 L 400 25.2 L 447 40.9 L 520 50.4" />
<glyph unicode="v" glyph-name="v" horiz-adv-x="485" d="M 63 501 L 142 526 L 117 513 L 271 50.4 L 369 239 L 406 359 L 466 510 L 410 507 L 536 507" />
<glyph unicode="w" glyph-name="w" horiz-adv-x="677" d="M 44.1 507 L 120 520 L 167 539 L 107 517 L 205 167 L 217 50.4 L 246 161 L 265 255 L 331 413 L 343 447 L 359 362 L 428 148 L 457 50.4 L 472 15.8 L 498 25.2 L 536 158 L 589 318 L 608 369 L 627 472 L 583 498 L 630 472 L 693 479 L 715 491" />
<glyph unicode="x" glyph-name="x" horiz-adv-x="498" d="M 59.9 450 L 63 457 L 158 472 L 120 463 L 299 132 L 406 -22.1 L 460 -78.8 L 507 -88.2 L 539 -69.3 L 548 -44.1 L 554 -15.8 L 536 22.1 L 507 12.6 M 44.1 -94.5 L 53.5 -94.5 L 167 -88.2 L 110 -88.2 L 271 189 L 460 507 L 406 526 L 513 495" />
<glyph unicode="y" glyph-name="y" horiz-adv-x="457" d="M 56.7 -198 L 28.4 -164 L -28.4 -164 L -63 -214 L -72.4 -280 L -25.2 -337 L 53.5 -337 L 158 -287 L 249 -129 L 337 85.1 L 391 265 L 450 400 M 318 47.2 L 117 381 L 151 387 L 53.5 372" />
<glyph unicode="z" glyph-name="z" horiz-adv-x="425" d="M 101 359 L 101 466 L 104 428 L 394 472 L 318 340 L 243 180 L 170 189 L 243 180 L 337 189 L 243 176 L 123 -53.5 L 406 -72.5 L 422 -9.45 L 403 -75.6 L 410 -142" />
<glyph unicode="{" glyph-name="braceleft" horiz-adv-x="340" d="M 331 -88.2 L 268 -104 L 205 -78.8 L 180 6.3 L 186 202 L 148 284 L 117 315 L 78.8 328 L 66.1 315 L 117 315 L 189 340 L 227 425 L 224 570 L 249 724 L 271 769 L 318 784 L 359 778" />
<glyph unicode="|" glyph-name="bar" horiz-adv-x="227" d="M 158 34.6 L 158 356 L 148 595 L 142 617" />
<glyph unicode="}" glyph-name="braceright" horiz-adv-x="324" d="M 113 -107 L 129 -110 L 173 -94.5 L 227 -37.8 L 227 75.6 L 239 224 L 258 284 L 302 306 L 337 315 L 261 299 L 220 340 L 205 397 L 217 586 L 195 696 L 167 747 L 145 765 L 101 775 L 69.3 756" />
<glyph unicode="~" glyph-name="asciitilde" horiz-adv-x="617" d="M 113 227 L 167 287 L 224 315 L 299 293 L 381 255 L 466 230 L 526 255 L 580 296" />
<glyph unicode="&#xa0;" glyph-name="nbspace" horiz-adv-x="378" />
<glyph unicode="&#xa1;" glyph-name="exclamdown" horiz-adv-x="236" d="M 164 3.15 L 148 69.3 L 157 416 M 173 602 L 180 649 L 139 649 L 129 602 L 173 602" />
<glyph unicode="&#xa2;" glyph-name="cent" horiz-adv-x="309" d="M 340 312 L 365 457 L 356 403 L 299 444 L 243 454 L 170 416 L 126 318 L 113 224 L 139 148 L 205 78.8 L 287 69.3 L 337 94.5 L 356 117 M 117 -9.45 L 227 365 L 271 567" />
<glyph unicode="&#xa5;" glyph-name="yen" horiz-adv-x="592" d="M 85 747 L 180 769 L 129 756 L 217 548 L 255 463 L 331 356 L 315 -59.9 L 265 -63 L 220 -69.3 L 315 -59.9 L 387 -63 M 328 359 L 466 561 L 510 643 L 595 788 L 529 803 L 652 772 L 662 765 M 195 164 L 202 164 L 293 183 L 356 176 L 419 192 M 195 290 L 202 290 L 293 309 L 356 302 L 419 318" />
<glyph unicode="&#xa6;" glyph-name="brokenbar" horiz-adv-x="68" d="M 217 10.4 L 217 107 L 215 179 L 213 185 M 217 483 L 217 579 L 215 651 L 213 658" />
<glyph unicode="&#xa8;" glyph-name="dieresis" horiz-adv-x="567" d=" M 210 688 L 203 641 L 248 641 L 254 685 L 210 688 M 481 706 L 475 659 L 519 659 L 526 703 L 481 706" />
<glyph unicode="&#xa9;" glyph-name="copyright" horiz-adv-x="687" d="M 104 450 L 85 343 L 97.6 243 L 142 139 L 230 50.4 L 346 9.45 L 472 22.1 L 558 72.4 L 630 173 L 655 287 L 655 400 L 627 507 L 586 589 L 532 636 L 450 665 L 356 674 L 258 649 L 176 580 L 104 450 M 472 202 L 449 180 L 421 165 L 375 159 L 320 175 L 276 209 L 249 255 L 239 304 L 243 356 L 252 402 L 285 454 L 329 484 L 370 491 L 402 493 L 430 485 L 450 472 L 465 461" />
<glyph unicode="&#xaa;" glyph-name="ordfeminine" horiz-adv-x="194" d="M 189 805 L 181 836 L 195 860 L 227 880 L 268 871 L 290 836 L 296 794 L 298 729 L 290 704 L 258 682 L 225 665 L 195 660 L 172 674 L 170 709 L 183 731 L 217 740 L 261 740 L 274 737 L 293 717 L 299 696 L 301 665 L 301 630 L 302 617 L 320 614 L 329 614 L 340 614 L 353 621" />
<glyph unicode="&#xab;" glyph-name="guillemotleft" horiz-adv-x="325" d="M 193 40.3 L 42.8 146 L 200 338 M 319 40.3 L 169 146 L 326 338" />
<glyph unicode="&#xae;" glyph-name="registered" horiz-adv-x="687" d="M 104 450 L 85 343 L 97.6 243 L 142 139 L 230 50.4 L 346 9.45 L 472 22.1 L 558 72.4 L 630 173 L 655 287 L 655 400 L 627 507 L 586 589 L 532 636 L 450 665 L 356 674 L 258 649 L 176 580 L 104 450 M 263 162 L 266 484 L 238 471 L 280 488 L 320 495 L 370 495 L 413 469 L 436 433 L 443 392 L 422 350 L 395 324 L 373 315 L 324 324 L 269 315 L 313 307 L 369 313 L 384 266 L 414 213 L 441 173 L 452 165 L 469 167" />
<glyph unicode="&#xb0;" glyph-name="degree" horiz-adv-x="234" d="M 255 769 L 240 776 L 198 763 L 172 732 L 160 689 L 163 646 L 181 614 L 216 597 L 252 599 L 288 626 L 301 646 L 311 672 L 310 702 L 300 736 L 287 757 L 272 768 L 256 769" />
<glyph unicode="&#xb1;" glyph-name="plusminus" horiz-adv-x="433" d="M 559 -7.56 L 564 -7.56 L 638 7.56 L 688 2.52 L 738 15.1 M 713 255 L 718 255 L 698 602 M 534 413 L 627 413 L 751 421 L 819 431 L 877 438" />
<glyph unicode="&#xb2;" glyph-name="twosuperior" horiz-adv-x="211" d="M 222 879 L 230 862 L 220 839 L 200 832 L 183 839 L 175 868 L 176 907 L 205 950 L 241 962 L 274 951 L 295 918 L 298 882 L 291 833 L 271 767 L 244 712 L 220 673 L 205 644 L 339 658" />
<glyph unicode="&#xb3;" glyph-name="threesuperior" horiz-adv-x="203" d="M 238 709 L 230 729 L 198 728 L 180 717 L 172 687 L 178 660 L 202 638 L 235 635 L 274 660 L 293 699 L 296 742 L 285 789 L 268 814 L 244 828 L 222 827 L 213 822 L 202 810 L 233 839 L 285 901 L 320 939 L 261 937 L 213 940" />
<glyph unicode="&#xb4;" glyph-name="acute" horiz-adv-x="378" d=" M 332 775 L 325 737 L 306 690 L 284 655 L 262 627" />
<glyph unicode="&#xb7;" glyph-name="middot" horiz-adv-x="242" d="M 227 382 L 219 325 L 272 325 L 280 378 L 227 382" />
<glyph unicode="&#xb9;" glyph-name="onesuperior" horiz-adv-x="180" d="M 266 647 L 271 923 L 276 901 L 246 880 L 219 863 L 192 854 L 162 852" />
<glyph unicode="&#xba;" glyph-name="ordmasculine" horiz-adv-x="234" d="M 255 769 L 240 776 L 198 763 L 172 732 L 160 689 L 163 646 L 181 614 L 216 597 L 252 599 L 288 626 L 301 646 L 311 672 L 310 702 L 300 736 L 287 757 L 272 768 L 256 769" />
<glyph unicode="&#xbb;" glyph-name="guillemotright" horiz-adv-x="340" d="M 51.7 300 L 126 239 L 185 202 L 219 174 L 160 118 L 93.2 63 L 58 37.8 M 178 300 L 252 239 L 311 202 L 345 174 L 286 118 L 219 63 L 184 37.8" />
<glyph unicode="&#xbc;" glyph-name="onequarter" horiz-adv-x="417" d="M 168 399 L 174 730 L 180 703 L 144 679 L 112 658 L 79.4 646 L 43.5 644 M 274 53.6 L 384 428 L 428 630 M 716 79.4 L 524 41.6 L 607 249 L 644 376 M 660 278 L 660 96.4 L 662 3.78 L 660 -58.6" />
<glyph unicode="&#xbd;" glyph-name="onehalf" horiz-adv-x="422" d="M 168 399 L 174 730 L 180 703 L 144 679 L 112 658 L 79.4 646 L 43.5 644 M 274 53.6 L 384 428 L 428 630 M 588 299 L 597 278 L 586 251 L 561 242 L 541 251 L 531 285 L 533 333 L 567 384 L 610 399 L 650 386 L 675 346 L 679 302 L 671 244 L 646 164 L 614 98.3 L 586 51 L 567 17 L 728 34" />
<glyph unicode="&#xbe;" glyph-name="threequarters" horiz-adv-x="442" d="M 134 472 L 125 497 L 86.9 495 L 64.3 482 L 54.8 446 L 62.4 414 L 90.7 387 L 130 384 L 178 414 L 200 461 L 204 512 L 191 569 L 170 599 L 142 616 L 115 614 L 104 609 L 90.7 593 L 129 629 L 191 703 L 232 748 L 163 747 L 104 750 M 274 53.6 L 384 428 L 428 630 M 716 79.4 L 524 41.6 L 607 249 L 644 376 M 660 278 L 660 96.4 L 662 3.78 L 660 -58.6" />
<glyph unicode="&#xbf;" glyph-name="questiondown" horiz-adv-x="387" d="M 277 781 L 261 539 L 255 586 L 220 592 L 139 535 L 101 416 L 117 315 L 161 249 L 224 220 L 296 255 L 324 283 L 337 312 L 340 372 L 353 409 L 331 441 L 293 419 L 287 378" />
<glyph unicode="&#xc0;" glyph-name="Agrave" horiz-adv-x="595" d="M 41 -88.2 L 120 -85 L 183 -101 L 117 -85 L 265 517 L 321 658 L 328 684 L 428 387 L 523 123 L 539 56.7 L 151 56.7 L 536 59.9 L 586 -104 L 510 -120 L 649 -97.6 M 204 1021.5 L 336 921" />
<glyph unicode="&#xc1;" glyph-name="Aacute" horiz-adv-x="595" d="M 41 -88.2 L 120 -85 L 183 -101 L 117 -85 L 265 517 L 321 658 L 328 684 L 428 387 L 523 123 L 539 56.7 L 151 56.7 L 536 59.9 L 586 -104 L 510 -120 L 649 -97.6 M 442 1051.5 L 435 1013.7 L 417 966 L 395 932 L 372 903" />
<glyph unicode="&#xc2;" glyph-name="Acircumflex" horiz-adv-x="595" d="M 41 -88.2 L 120 -85 L 183 -101 L 117 -85 L 265 517 L 321 658 L 328 684 L 428 387 L 523 123 L 539 56.7 L 151 56.7 L 536 59.9 L 586 -104 L 510 -120 L 649 -97.6 M 217 838 L 306 1124.5 L 349 999 L 386 856" />
<glyph unicode="&#xc3;" glyph-name="Atilde" horiz-adv-x="595" d="M 41 -88.2 L 120 -85 L 183 -101 L 117 -85 L 265 517 L 321 658 L 328 684 L 428 387 L 523 123 L 539 56.7 L 151 56.7 L 536 59.9 L 586 -104 L 510 -120 L 649 -97.6 M 165 794 L 201 834 L 238 853 L 288 838 L 343 813 L 399 796 L 439 813 L 474 840" />
<glyph unicode="&#xc4;" glyph-name="Adieresis" horiz-adv-x="595" d="M 41 -88.2 L 120 -85 L 183 -101 L 117 -85 L 265 517 L 321 658 L 328 684 L 428 387 L 523 123 L 539 56.7 L 151 56.7 L 536 59.9 L 586 -104 L 510 -120 L 649 -97.6 M 256 942 L 249 895 L 293 895 L 300 939 L 256 942 M 485 946 L 479 898 L 523 898 L 530 942 L 485 946" />
<glyph unicode="&#xc5;" glyph-name="Aring" horiz-adv-x="595" d="M 41 -88.2 L 120 -85 L 183 -101 L 117 -85 L 265 517 L 321 658 L 328 684 L 428 387 L 523 123 L 539 56.7 L 151 56.7 L 536 59.9 L 586 -104 L 510 -120 L 649 -97.6 M 358 1052.7 L 343 1059.3 L 301 1046.1 L 275 1015.9 L 263 972 L 266 930 L 284 898 L 319 881 L 355 883 L 391 909 L 404 930 L 414 955 L 413 986 L 403 1019.7 L 390 1040.4 L 375 1051.8 L 359 1052.7" />
<glyph unicode="&#xc8;" glyph-name="Egrave" horiz-adv-x="507" d="M 498 40.9 L 495 -50.4 L 498 -12.6 L 161 -18.9 L 107 -31.5 L 173 -18.9 L 167 211 L 271 217 L 381 211 L 400 268 L 387 170 L 381 208 L 243 220 L 167 217 L 173 479 L 164 709 L 107 715 L 180 702 L 340 702 L 501 702 L 498 639 L 507 775 M 135 1017.9 L 268 917" />
<glyph unicode="&#xc9;" glyph-name="Eacute" horiz-adv-x="507" d="M 498 40.9 L 495 -50.4 L 498 -12.6 L 161 -18.9 L 107 -31.5 L 173 -18.9 L 167 211 L 271 217 L 381 211 L 400 268 L 387 170 L 381 208 L 243 220 L 167 217 L 173 479 L 164 709 L 107 715 L 180 702 L 340 702 L 501 702 L 498 639 L 507 775 M 393 1044.3 L 387 1006.5 L 368 959 L 346 925 L 324 896" />
<glyph unicode="&#xca;" glyph-name="Ecircumflex" horiz-adv-x="507" d="M 498 40.9 L 495 -50.4 L 498 -12.6 L 161 -18.9 L 107 -31.5 L 173 -18.9 L 167 211 L 271 217 L 381 211 L 400 268 L 387 170 L 381 208 L 243 220 L 167 217 L 173 479 L 164 709 L 107 715 L 180 702 L 340 702 L 501 702 L 498 639 L 507 775 M 167 853 L 256 1139.8 L 299 1013.6 L 336 870" />
<glyph unicode="&#xcb;" glyph-name="Edieresis" horiz-adv-x="507" d="M 498 40.9 L 495 -50.4 L 498 -12.6 L 161 -18.9 L 107 -31.5 L 173 -18.9 L 167 211 L 271 217 L 381 211 L 400 268 L 387 170 L 381 208 L 243 220 L 167 217 L 173 479 L 164 709 L 107 715 L 180 702 L 340 702 L 501 702 L 498 639 L 507 775 M 227 923 L 221 876 L 265 876 L 272 920 L 227 923 M 451 960 L 445 913 L 489 913 L 495 957 L 451 960" />
<glyph unicode="&#xcc;" glyph-name="Igrave" horiz-adv-x="290" d="M 139 -9.45 L 230 18.9 L 299 22.1 L 227 25.2 L 180 340 L 164 655 L 217 665 L 243 658 L 211 665 L 72.5 636 M 28 1024.0 L 160 923" />
<glyph unicode="&#xcd;" glyph-name="Iacute" horiz-adv-x="290" d="M 139 -9.45 L 230 18.9 L 299 22.1 L 227 25.2 L 180 340 L 164 655 L 217 665 L 243 658 L 211 665 L 72.5 636 M 291 1075.7 L 284 1037.9 L 265 991 L 243 956 L 221 928" />
<glyph unicode="&#xce;" glyph-name="Icircumflex" horiz-adv-x="290" d="M 139 -9.45 L 230 18.9 L 299 22.1 L 227 25.2 L 180 340 L 164 655 L 217 665 L 243 658 L 211 665 L 72.5 636 M 107 861 L 198 1156.7 L 243 1027.0 L 281 879" />
<glyph unicode="&#xcf;" glyph-name="Idieresis" horiz-adv-x="290" d="M 139 -9.45 L 230 18.9 L 299 22.1 L 227 25.2 L 180 340 L 164 655 L 217 665 L 243 658 L 211 665 L 72.5 636 M 71.8 973 L 65.5 926 L 110 926 L 116 970 L 71.8 973 M 327 932 L 321 885 L 365 885 L 372 929 L 327 932" />
<glyph unicode="&#xd0;" glyph-name="Eth" horiz-adv-x="617" d="M 132 321 L 139 321 L 230 340 L 293 334 L 356 350 M 53.5 775 L 170 781 L 324 765 L 444 715 L 526 617 L 567 510 L 583 400 L 551 293 L 472 192 L 378 126 L 287 78.8 L 154 56.7 L 246 66.1 L 205 630 L 192 778" />
<glyph unicode="&#xd1;" glyph-name="Ntilde" horiz-adv-x="564" d="M 88.2 -37.8 L 246 -12.6 L 176 -18.9 L 167 315 L 154 428 L 154 677 L 302 387 L 482 107 L 491 447 L 504 617 L 532 750 L 598 743 L 469 756 M 174 885 L 213 928 L 255 949 L 309 933 L 369 905 L 431 887 L 474 905 L 513 935" />
<glyph unicode="&#xd2;" glyph-name="Ograve" horiz-adv-x="649" d="M 441 674 L 391 696 L 252 652 L 164 551 L 123 406 L 132 265 L 195 158 L 312 101 L 432 107 L 551 195 L 595 265 L 627 350 L 624 450 L 589 564 L 548 633 L 498 671 L 444 674 M 210 1015.6 L 342 915" />
<glyph unicode="&#xd3;" glyph-name="Oacute" horiz-adv-x="649" d="M 441 674 L 391 696 L 252 652 L 164 551 L 123 406 L 132 265 L 195 158 L 312 101 L 432 107 L 551 195 L 595 265 L 627 350 L 624 450 L 589 564 L 548 633 L 498 671 L 444 674 M 486 1053.2 L 479 1015.4 L 460 968 L 438 933 L 416 905" />
<glyph unicode="&#xd4;" glyph-name="Ocircumflex" horiz-adv-x="649" d="M 441 674 L 391 696 L 252 652 L 164 551 L 123 406 L 132 265 L 195 158 L 312 101 L 432 107 L 551 195 L 595 265 L 627 350 L 624 450 L 589 564 L 548 633 L 498 671 L 444 674 M 220 823 L 307 1101.2 L 349 979 L 385 839" />
<glyph unicode="&#xd5;" glyph-name="Otilde" horiz-adv-x="649" d="M 441 674 L 391 696 L 252 652 L 164 551 L 123 406 L 132 265 L 195 158 L 312 101 L 432 107 L 551 195 L 595 265 L 627 350 L 624 450 L 589 564 L 548 633 L 498 671 L 444 674 M 170 783 L 206 823 L 243 841 L 293 827 L 347 802 L 403 785 L 442 802 L 478 829" />
<glyph unicode="&#xd6;" glyph-name="Odieresis" horiz-adv-x="649" d="M 441 674 L 391 696 L 252 652 L 164 551 L 123 406 L 132 265 L 195 158 L 312 101 L 432 107 L 551 195 L 595 265 L 627 350 L 624 450 L 589 564 L 548 633 L 498 671 L 444 674 M 218 948 L 212 901 L 256 901 L 262 945 L 218 948 M 544 956 L 538 909 L 582 909 L 588 953 L 544 956" />
<glyph unicode="&#xd7;" glyph-name="multiply" horiz-adv-x="428" d="M 59.9 432 L 101 422 L 375 28.4 L 406 9.45 M 72.5 6.3 L 378 438" />
<glyph unicode="&#xd8;" glyph-name="Oslash" horiz-adv-x="649" d="M 441 674 L 391 696 L 252 652 L 164 551 L 123 406 L 132 265 L 195 158 L 312 101 L 432 107 L 551 195 L 595 265 L 627 350 L 624 450 L 589 564 L 548 633 L 498 671 L 444 674 M 266 67.5 L 405 540 L 460 794" />
<glyph unicode="&#xd9;" glyph-name="Ugrave" horiz-adv-x="580" d="M 69.3 756 L 202 775 L 132 762 L 158 447 L 189 198 L 233 107 L 309 81.9 L 381 101 L 444 145 L 501 258 L 520 362 L 517 740 L 463 743 L 576 750 M 170 1006.2 L 302 905" />
<glyph unicode="&#xda;" glyph-name="Uacute" horiz-adv-x="580" d="M 69.3 756 L 202 775 L 132 762 L 158 447 L 189 198 L 233 107 L 309 81.9 L 381 101 L 444 145 L 501 258 L 520 362 L 517 740 L 463 743 L 576 750 M 428 1033.6 L 422 996 L 403 949 L 381 914 L 359 886" />
<glyph unicode="&#xdb;" glyph-name="Ucircumflex" horiz-adv-x="580" d="M 69.3 756 L 202 775 L 132 762 L 158 447 L 189 198 L 233 107 L 309 81.9 L 381 101 L 444 145 L 501 258 L 520 362 L 517 740 L 463 743 L 576 750 M 182 804 L 266 1076.4 L 308 957 L 343 820" />
<glyph unicode="&#xdc;" glyph-name="Udieresis" horiz-adv-x="580" d="M 69.3 756 L 202 775 L 132 762 L 158 447 L 189 198 L 233 107 L 309 81.9 L 381 101 L 444 145 L 501 258 L 520 362 L 517 740 L 463 743 L 576 750 M 198 935 L 192 888 L 236 888 L 242 932 L 198 935 M 487 969 L 481 922 L 525 922 L 531 966 L 487 969" />
<glyph unicode="&#xdd;" glyph-name="Yacute" horiz-adv-x="592" d="M 85 747 L 180 769 L 129 756 L 217 548 L 255 463 L 331 356 L 315 -59.9 L 265 -63 L 220 -69.3 L 315 -59.9 L 387 -63 M 328 359 L 466 561 L 510 643 L 595 788 L 529 803 L 652 772 L 662 765 M 432 1078.2 L 426 1040.4 L 407 993 L 385 958 L 363 930" />
<glyph unicode="&#xe0;" glyph-name="agrave" horiz-adv-x="387" d="M 126 350 L 110 413 L 139 460 L 202 501 L 284 482 L 328 413 L 340 328 L 343 198 L 328 148 L 265 104 L 198 69.3 L 139 59.9 L 91.4 88.2 L 88.2 158 L 113 202 L 183 220 L 271 220 L 296 214 L 334 173 L 346 132 L 350 69.3 L 350 0 L 353 -25.2 L 387 -31.5 L 406 -31.5 L 428 -31.5 L 454 -18.9 M 65.9 749 L 198 648" />
<glyph unicode="&#xe1;" glyph-name="aacute" horiz-adv-x="387" d="M 126 350 L 110 413 L 139 460 L 202 501 L 284 482 L 328 413 L 340 328 L 343 198 L 328 148 L 265 104 L 198 69.3 L 139 59.9 L 91.4 88.2 L 88.2 158 L 113 202 L 183 220 L 271 220 L 296 214 L 334 173 L 346 132 L 350 69.3 L 350 0 L 353 -25.2 L 387 -31.5 L 406 -31.5 L 428 -31.5 L 454 -18.9 M 334 747 L 327 709 L 309 662 L 287 627 L 264 599" />
<glyph unicode="&#xe2;" glyph-name="acircumflex" horiz-adv-x="387" d="M 126 350 L 110 413 L 139 460 L 202 501 L 284 482 L 328 413 L 340 328 L 343 198 L 328 148 L 265 104 L 198 69.3 L 139 59.9 L 91.4 88.2 L 88.2 158 L 113 202 L 183 220 L 271 220 L 296 214 L 334 173 L 346 132 L 350 69.3 L 350 0 L 353 -25.2 L 387 -31.5 L 406 -31.5 L 428 -31.5 L 454 -18.9 M 109 591 L 194 866 L 236 745 L 271 608" />
<glyph unicode="&#xe3;" glyph-name="atilde" horiz-adv-x="387" d="M 126 350 L 110 413 L 139 460 L 202 501 L 284 482 L 328 413 L 340 328 L 343 198 L 328 148 L 265 104 L 198 69.3 L 139 59.9 L 91.4 88.2 L 88.2 158 L 113 202 L 183 220 L 271 220 L 296 214 L 334 173 L 346 132 L 350 69.3 L 350 0 L 353 -25.2 L 387 -31.5 L 406 -31.5 L 428 -31.5 L 454 -18.9 M 95.1 585 L 130 625 L 168 644 L 218 629 L 272 604 L 328 587 L 368 604 L 403 631" />
<glyph unicode="&#xe4;" glyph-name="adieresis" horiz-adv-x="387" d="M 126 350 L 110 413 L 139 460 L 202 501 L 284 482 L 328 413 L 340 328 L 343 198 L 328 148 L 265 104 L 198 69.3 L 139 59.9 L 91.4 88.2 L 88.2 158 L 113 202 L 183 220 L 271 220 L 296 214 L 334 173 L 346 132 L 350 69.3 L 350 0 L 353 -25.2 L 387 -31.5 L 406 -31.5 L 428 -31.5 L 454 -18.9 M 120 715 L 114 667 L 158 667 L 164 712 L 120 715 M 413 720 L 406 673 L 450 673 L 457 717 L 413 720" />
<glyph unicode="&#xe5;" glyph-name="aring" horiz-adv-x="387" d="M 126 350 L 110 413 L 139 460 L 202 501 L 284 482 L 328 413 L 340 328 L 343 198 L 328 148 L 265 104 L 198 69.3 L 139 59.9 L 91.4 88.2 L 88.2 158 L 113 202 L 183 220 L 271 220 L 296 214 L 334 173 L 346 132 L 350 69.3 L 350 0 L 353 -25.2 L 387 -31.5 L 406 -31.5 L 428 -31.5 L 454 -18.9 M 274 864 L 259 870 L 217 857 L 191 827 L 179 783 L 181 741 L 200 709 L 235 692 L 271 694 L 307 720 L 320 741 L 330 766 L 329 797 L 318 831 L 306 851 L 291 863 L 275 864" />
<glyph unicode="&#xe8;" glyph-name="egrave" horiz-adv-x="346" d="M 331 44.1 L 293 -9.45 L 224 -31.5 L 151 15.8 L 120 139 L 129 280 L 176 403 L 211 425 L 258 419 L 293 384 L 337 274 L 236 268 L 132 265 M 44.7 765 L 177 664" />
<glyph unicode="&#xe9;" glyph-name="eacute" horiz-adv-x="346" d="M 331 44.1 L 293 -9.45 L 224 -31.5 L 151 15.8 L 120 139 L 129 280 L 176 403 L 211 425 L 258 419 L 293 384 L 337 274 L 236 268 L 132 265 M 340 791 L 334 753 L 315 706 L 293 671 L 271 643" />
<glyph unicode="&#xea;" glyph-name="ecircumflex" horiz-adv-x="346" d="M 331 44.1 L 293 -9.45 L 224 -31.5 L 151 15.8 L 120 139 L 129 280 L 176 403 L 211 425 L 258 419 L 293 384 L 337 274 L 236 268 L 132 265 M 107 654 L 198 949 L 243 820 L 281 672" />
<glyph unicode="&#xeb;" glyph-name="edieresis" horiz-adv-x="346" d="M 331 44.1 L 293 -9.45 L 224 -31.5 L 151 15.8 L 120 139 L 129 280 L 176 403 L 211 425 L 258 419 L 293 384 L 337 274 L 236 268 L 132 265 M 78.3 702 L 72 655 L 116 655 L 122 699 L 78.3 702 M 368 717 L 362 670 L 406 670 L 412 714 L 368 717" />
<glyph unicode="&#xec;" glyph-name="igrave" horiz-adv-x="258" d="M 78.8 50.4 L 81.9 50.4 L 243 69.3 L 167 63 L 180 435 L 110 435  M -22.1 767 L 110 666" />
<glyph unicode="&#xed;" glyph-name="iacute" horiz-adv-x="258" d="M 78.8 50.4 L 81.9 50.4 L 243 69.3 L 167 63 L 180 435 L 110 435  M 280 735 L 274 697 L 255 650 L 233 616 L 211 587" />
<glyph unicode="&#xee;" glyph-name="icircumflex" horiz-adv-x="258" d="M 78.8 50.4 L 81.9 50.4 L 243 69.3 L 167 63 L 180 435 L 110 435  M 72.6 651 L 165 948 L 210 818 L 248 669" />
<glyph unicode="&#xef;" glyph-name="idieresis" horiz-adv-x="258" d="M 78.8 50.4 L 81.9 50.4 L 243 69.3 L 167 63 L 180 435 L 110 435  M 37.3 667 L 31 619 L 75.1 619 L 81.4 663 L 37.3 667 M 302 689 L 296 642 L 340 642 L 346 686 L 302 689" />
<glyph unicode="&#xf1;" glyph-name="ntilde" horiz-adv-x="510" d="M 91.4 -50.4 L 224 -31.5 L 167 -37.8 L 164 161 L 180 318 L 186 495 L 158 513 L 78.8 507 M 180 299 L 277 410 L 356 450 L 410 413 L 447 353 L 457 280 L 460 110 L 419 101 L 517 120 M 129 610 L 166 651 L 205 671 L 257 655 L 313 630 L 372 612 L 413 630 L 449 658" />
<glyph unicode="&#xf2;" glyph-name="ograve" horiz-adv-x="435" d="M 302 472 L 243 485 L 161 457 L 126 391 L 129 299 L 164 239 L 246 198 L 353 233 L 397 312 L 400 406 L 362 457 L 312 457 M 77.6 778 L 210 677" />
<glyph unicode="&#xf3;" glyph-name="oacute" horiz-adv-x="435" d="M 302 472 L 243 485 L 161 457 L 126 391 L 129 299 L 164 239 L 246 198 L 353 233 L 397 312 L 400 406 L 362 457 L 312 457 M 370 757 L 364 719 L 345 672 L 323 637 L 301 609" />
<glyph unicode="&#xf4;" glyph-name="ocircumflex" horiz-adv-x="435" d="M 302 472 L 243 485 L 161 457 L 126 391 L 129 299 L 164 239 L 246 198 L 353 233 L 397 312 L 400 406 L 362 457 L 312 457 M 133 614 L 219 892 L 261 770 L 297 631" />
<glyph unicode="&#xf5;" glyph-name="otilde" horiz-adv-x="435" d="M 302 472 L 243 485 L 161 457 L 126 391 L 129 299 L 164 239 L 246 198 L 353 233 L 397 312 L 400 406 L 362 457 L 312 457 M 113 600 L 149 641 L 188 660 L 240 645 L 296 619 L 355 602 L 396 619 L 433 647" />
<glyph unicode="&#xf6;" glyph-name="odieresis" horiz-adv-x="435" d="M 302 472 L 243 485 L 161 457 L 126 391 L 129 299 L 164 239 L 246 198 L 353 233 L 397 312 L 400 406 L 362 457 L 312 457 M 141 669 L 134 622 L 179 622 L 185 666 L 141 669 M 416 699 L 410 651 L 454 651 L 460 695 L 416 699" />
<glyph unicode="&#xf7;" glyph-name="divide" horiz-adv-x="805" d="M 439 428 L 433 381 L 477 381 L 484 425 L 439 428 M 440 145 L 434 97.6 L 478 97.6 L 484 142 L 440 145 M 258 258 L 270 258 L 448 277 L 571 271 L 694 287" />
<glyph unicode="&#xf8;" glyph-name="oslash" horiz-adv-x="435" d="M 302 472 L 243 485 L 161 457 L 126 391 L 129 299 L 164 239 L 246 198 L 353 233 L 397 312 L 400 406 L 362 457 L 312 457 M 214 148 L 291 410 L 322 551" />
<glyph unicode="&#xf9;" glyph-name="ugrave" horiz-adv-x="507" d="M 81.9 513 L 186 513 L 151 504 L 139 296 L 139 173 L 167 117 L 195 81.9 L 217 78.8 L 258 132 L 296 176 L 306 230 L 378 340 L 416 416 L 428 491 L 432 214 L 444 40.9 L 400 25.2 L 447 40.9 L 520 50.4 M 114 766 L 247 665" />
<glyph unicode="&#xfa;" glyph-name="uacute" horiz-adv-x="507" d="M 81.9 513 L 186 513 L 151 504 L 139 296 L 139 173 L 167 117 L 195 81.9 L 217 78.8 L 258 132 L 296 176 L 306 230 L 378 340 L 416 416 L 428 491 L 432 214 L 444 40.9 L 400 25.2 L 447 40.9 L 520 50.4 M 396 777 L 390 740 L 371 692 L 349 658 L 327 629" />
<glyph unicode="&#xfb;" glyph-name="ucircumflex" horiz-adv-x="507" d="M 81.9 513 L 186 513 L 151 504 L 139 296 L 139 173 L 167 117 L 195 81.9 L 217 78.8 L 258 132 L 296 176 L 306 230 L 378 340 L 416 416 L 428 491 L 432 214 L 444 40.9 L 400 25.2 L 447 40.9 L 520 50.4 M 157 587 L 241 859 L 282 739 L 317 604" />
<glyph unicode="&#xfc;" glyph-name="udieresis" horiz-adv-x="507" d="M 81.9 513 L 186 513 L 151 504 L 139 296 L 139 173 L 167 117 L 195 81.9 L 217 78.8 L 258 132 L 296 176 L 306 230 L 378 340 L 416 416 L 428 491 L 432 214 L 444 40.9 L 400 25.2 L 447 40.9 L 520 50.4 M 208 686 L 202 639 L 246 639 L 252 683 L 208 686 M 459 670 L 453 623 L 497 623 L 504 667 L 459 670" />
<glyph unicode="&#xfd;" glyph-name="yacute" horiz-adv-x="457" d="M 56.7 -198 L 28.4 -164 L -28.4 -164 L -63 -214 L -72.4 -280 L -25.2 -337 L 53.5 -337 L 158 -287 L 249 -129 L 337 85.1 L 391 265 L 450 400 M 318 47.2 L 117 381 L 151 387 L 53.5 372 M 386 773 L 379 735 L 361 688 L 339 653 L 316 625" />
<glyph unicode="&#xff;" glyph-name="ydieresis" horiz-adv-x="457" d="M 56.7 -198 L 28.4 -164 L -28.4 -164 L -63 -214 L -72.4 -280 L -25.2 -337 L 53.5 -337 L 158 -287 L 249 -129 L 337 85.1 L 391 265 L 450 400 M 318 47.2 L 117 381 L 151 387 L 53.5 372 M 158 674 L 151 627 L 195 627 L 202 671 L 158 674 M 391 718 L 385 671 L 429 671 L 436 715 L 391 718" />
<glyph unicode="&#x2013;" glyph-name="endash" horiz-adv-x="619" d="M 198 227 L 208 227 L 345 246 L 439 239 L 534 255" />
<glyph unicode="&#x2014;" glyph-name="emdash" horiz-adv-x="825" d="M 265 227 L 277 227 L 460 246 L 586 239 L 712 255" />
<glyph unicode="&#x201c;" glyph-name="quotedblleft" horiz-adv-x="373" d="M 65.2 799 L 125 709 M 207 799 L 266 709" />
<glyph unicode="&#x201d;" glyph-name="quotedblright" horiz-adv-x="373" d="M 125 799 L 65.2 709 M 266 799 L 207 709" />
<glyph unicode="&#x2039;" glyph-name="guilsinglleft" horiz-adv-x="217" d="M 193 40.3 L 42.8 146 L 200 338" />
<glyph unicode="&#x203a;" glyph-name="guilsinglright" horiz-adv-x="227" d="M 51.7 300 L 126 239 L 185 202 L 219 174 L 160 118 L 93.2 63 L 58 37.8" />
<glyph unicode="&#x20ac;" glyph-name="Euro" horiz-adv-x="699" d="M 696 142 L 633 69.3 L 545 18.9 L 457 9.45 L 353 22.1 L 246 81.9 L 180 161 L 126 280 L 123 410 L 176 564 L 265 671 L 365 712 L 466 731 L 564 718 L 668 652 L 680 715 L 662 652 L 671 586 M 101 227 L 107 227 L 198 246 L 261 239 L 324 255 M 101 353 L 107 353 L 198 372 L 261 365 L 324 381" />
<glyph unicode="&#x0178;" glyph-name="Ydieresis" horiz-adv-x="592" d="M 85 747 L 180 769 L 129 756 L 217 548 L 255 463 L 331 356 L 315 -59.9 L 265 -63 L 220 -69.3 L 315 -59.9 L 387 -63 M 328 359 L 466 561 L 510 643 L 595 788 L 529 803 L 652 772 L 662 765 M 224 960 L 218 913 L 262 913 L 268 957 L 224 960 M 522 949 L 516 902 L 560 902 L 566 946 L 522 949" />
<glyph unicode="&#x102;" glyph-name="Abreve" horiz-adv-x="595" d="M 41 -88.2 L 120 -85 L 183 -101 L 117 -85 L 265 517 L 321 658 L 328 684 L 428 387 L 523 123 L 539 56.7 L 151 56.7 L 536 59.9 L 586 -104 L 510 -120 L 649 -97.6 M193.793 1045.97C193.793 1045.97 245.704 853.133 321.26 851.522C396.817 849.912 442.656 980.308 460.642 1050.89" />
<glyph unicode="&#x114;" glyph-name="Ebreve" horiz-adv-x="507" d="M 498 40.9 L 495 -50.4 L 498 -12.6 L 161 -18.9 L 107 -31.5 L 173 -18.9 L 167 211 L 271 217 L 381 211 L 400 268 L 387 170 L 381 208 L 243 220 L 167 217 L 173 479 L 164 709 L 107 715 L 180 702 L 340 702 L 501 702 L 498 639 L 507 775 M165.793 1085.81C165.793 1085.81 217.704 892.976 293.26 891.365C368.817 889.755 414.656 1020.15 432.642 1090.74" />
<glyph unicode="&#x11E;" glyph-name="Gbreve" horiz-adv-x="532" d="M 479 740 L 472 646 L 476 674 L 491 668 L 457 684 L 413 715 L 328 724 L 255 693 L 183 614 L 139 482 L 135 350 L 142 217 L 202 126 L 280 91.4 L 384 120 L 444 186 L 476 280 L 482 457 L 526 450 L 365 457 M173.793 1092.8C173.793 1092.8 225.704 899.97 301.26 898.359C376.817 896.749 422.656 1027.15 440.642 1097.73" />
<glyph unicode="&#x12C;" glyph-name="Ibreve" horiz-adv-x="290" d="M 139 -9.45 L 230 18.9 L 299 22.1 L 227 25.2 L 180 340 L 164 655 L 217 665 L 243 658 L 211 665 L 72.5 636 M56.7929 1080.43C56.7929 1080.43 108.704 887.596 184.26 885.986C259.817 884.375 305.656 1014.77 323.642 1085.36" />
<glyph unicode="&#x14E;" glyph-name="Obreve" horiz-adv-x="649" d="M 441 674 L 391 696 L 252 652 L 164 551 L 123 406 L 132 265 L 195 158 L 312 101 L 432 107 L 551 195 L 595 265 L 627 350 L 624 450 L 589 564 L 548 633 L 498 671 L 444 674 M210.793 1056.3C210.793 1056.3 262.704 863.463 338.26 861.853C413.817 860.242 459.656 990.639 477.642 1061.23" />
<glyph unicode="&#x16C;" glyph-name="Ubreve" horiz-adv-x="580" d="M 69.3 756 L 202 775 L 132 762 L 158 447 L 189 198 L 233 107 L 309 81.9 L 381 101 L 444 145 L 501 258 L 520 362 L 517 740 L 463 743 L 576 750 M188.793 1066.06C188.793 1066.06 240.704 873.221 316.26 871.611C391.817 870 437.656 1000.4 455.642 1070.98" />
<glyph unicode="&#x103;" glyph-name="abreve" horiz-adv-x="387" d="M 126 350 L 110 413 L 139 460 L 202 501 L 284 482 L 328 413 L 340 328 L 343 198 L 328 148 L 265 104 L 198 69.3 L 139 59.9 L 91.4 88.2 L 88.2 158 L 113 202 L 183 220 L 271 220 L 296 214 L 334 173 L 346 132 L 350 69.3 L 350 0 L 353 -25.2 L 387 -31.5 L 406 -31.5 L 428 -31.5 L 454 -18.9 M87.7929 889.688C87.7929 889.688 139.704 696.852 215.26 695.242C290.817 693.631 336.656 824.028 354.642 894.615" />
<glyph unicode="&#x115;" glyph-name="ebreve" horiz-adv-x="346" d="M 331 44.1 L 293 -9.45 L 224 -31.5 L 151 15.8 L 120 139 L 129 280 L 176 403 L 211 425 L 258 419 L 293 384 L 337 274 L 236 268 L 132 265 M74.7929 852.181C74.7929 852.181 126.704 659.346 202.26 657.735C277.817 656.125 323.656 786.522 341.642 857.108" />
<glyph unicode="&#x11F;" glyph-name="gbreve" horiz-adv-x="422" d="M 274 217 L 328 265 L 359 346 L 372 359 L 447 387 L 362 359 L 315 422 L 255 466 L 217 469 L 135 416 L 104 321 L 126 249 L 170 214 L 214 208 L 249 214 L 287 224 L 299 113 L 299 15.8 L 365 -44.1 L 406 -97.6 L 425 -189 L 422 -249 L 346 -324 L 233 -372 L 120 -362 L 37.8 -306 L -3.15 -220 L 12.6 -104 L 53.5 -31.5 L 97.6 15.8 L 186 44.1 L 239 40.9 L 299 15.8 M98.7929 868.311C98.7929 868.311 150.704 675.475 226.26 673.865C301.817 672.254 347.656 802.651 365.642 873.237" />
<glyph unicode="&#x12D;" glyph-name="ibreve" horiz-adv-x="258" d="M 78.8 50.4 L 81.9 50.4 L 243 69.3 L 167 63 L 180 435 L 110 435  M46.7929 865.585C46.7929 865.585 98.7041 672.749 174.26 671.139C249.817 669.528 295.656 799.925 313.642 870.511" />
<glyph unicode="&#x14F;" glyph-name="obreve" horiz-adv-x="435" d="M 302 472 L 243 485 L 161 457 L 126 391 L 129 299 L 164 239 L 246 198 L 353 233 L 397 312 L 400 406 L 362 457 L 312 457 M102.793 862.919C102.793 862.919 154.704 670.084 230.26 668.473C305.817 666.863 351.656 797.26 369.642 867.846" />
<glyph unicode="&#x16D;" glyph-name="ubreve" horiz-adv-x="507" d="M 81.9 513 L 186 513 L 151 504 L 139 296 L 139 173 L 167 117 L 195 81.9 L 217 78.8 L 258 132 L 296 176 L 306 230 L 378 340 L 416 416 L 428 491 L 432 214 L 444 40.9 L 400 25.2 L 447 40.9 L 520 50.4 M125.793 885.861C125.793 885.861 177.704 693.026 253.26 691.415C328.817 689.805 374.656 820.201 392.642 890.788" />
<glyph unicode="&#x15F;" glyph-name="scedilla" horiz-adv-x="340" d="M155.578 -159.201C156.096 -175.507 130.666 -217.909 143.748 -233.362C178.053 -273.883 170.828 -352.396 85.6299 -306.605M129 -25.2C120.411 -1.63296 96.3394 25.6456 69.3 9.45C38.3631 -7.24101 34.6544 -47.7819 46.1229 -77.687C56.2 -113.149 80.5072 -148.355 118.88 -155.884C163.387 -168.978 205.324 -151.425 243 -120C280.676 -88.5751 297.668 -37.4808 292.22 19.1873C286.772 75.8553 253.545 137.363 230.64 194.814C202.651 252.587 168.845 308.499 155.162 371.984C141.656 415.869 143.403 465.198 167.068 505.364C182.815 538.041 218.49 556.923 254.234 554.048C284.981 555.51 315.535 538.986 328.846 510.788C334.512 504.165 342.884 523.493 349.725 528.141C356.134 535.355 366.8 548.225 356.115 532.727C336.077 501.151 316.038 469.576 296 438" />
<glyph unicode="&#x2D8;" glyph-name="breve" horiz-adv-x="384" d="M104.793 443.433C104.793 443.433 156.704 250.597 232.26 248.987C307.817 247.376 353.656 377.773 371.642 448.36" />
<glyph unicode="&#xb8;" glyph-name="cedilla" horiz-adv-x="699" d="M483.876 14.8253C486.112 -55.626 524.784 -192.16 413.928 -132.578" />
<glyph unicode="&#x131;" glyph-name="dotlessi" horiz-adv-x="258" d="M78.8 50.4L81.9 50.4L243 69.3L167 63L180 435L110 435" />
<glyph unicode="&#xC6;" glyph-name="AE" horiz-adv-x="800" d="M887.793 46.9255L887.602 -44.4235L889.438 -6.54916C727.972 -3.74814 698.377 -24.2106 564.786 -22.8404L550.366 250.746C622.751 261.686 691.586 267.547 764.265 283.326L755.503 340.884L771.523 242.53L764.357 280.328C690.638 270.755 623.281 261.883 550.181 256.743C523.3 392.61 546.137 565.834 504.256 689.428C634.154 667.995 739.428 703.774 870.462 707.805L869.401 644.743L874.214 780.955M34.8936 -83.1001C85.5398 -75.4002 128.61 -85.1998 176.661 -98.2567L113.936 -81.2126C236.603 182.252 299.227 502.643 490.693 689.478C551.756 455.831 512.268 465.6 535.231 253.509L234.808 214.962L532.285 256.759L562.052 -29.1789" />
<glyph unicode="&#xdf;" glyph-name="germandbls" horiz-adv-x="472" d="M261.843 -22.8853C309.059 -26.5771 427.101 -13.7168 449.498 168.152C461.85 268.456 366.974 399.285 247.086 276.287C127.199 153.29 356.218 442.986 323.782 600.247C291.346 757.507 117.8 916.986 124.297 742.306C133.13 504.821 148.045 177.394 161.037 -38.2105L96.3975 -62.1669" />
<glyph unicode="&#xe7;" glyph-name="ccedilla" horiz-adv-x="394" d="M259.785 72.6007C261.262 25.9627 286.809 -64.4213 213.576 -24.9789M340 312L365 457L356 403L299 444L243 454L170 416L126 318L113 224L139 148L205 78.8L287 69.3L337 94.5L356 117" />
<glyph unicode="&#x15E;" glyph-name="Scedilla" horiz-adv-x="425" d="M220.094 -30.1242C195.123 -118.319 255.087 -189.794 150.145 -177.528M217 123C219.67 147.631 212.755 176.883 186.677 185.987C148.601 206.771 91.5318 191.137 79.516 146.532C66.9345 113.515 72.1082 76.5687 90.062 46.6129C111.398 -1.44244 157.972 -43.4859 221.057 -30.7384C284.142 -17.9909 345.693 37.6679 371.996 104.821C385.64 147.622 386.87 195.597 366.586 236.653C327.695 320.131 274.134 395.406 223.399 471.875C196.509 516.647 168.497 564.001 168.022 617.916C163.006 661.691 187.027 701.338 217 731C244.343 766.274 301.019 769.06 333.619 739.367C358.187 721.391 378.698 698.588 400 677C408.333 690.667 416.667 704.333 425 718C405 679.333 385 640.667 365 602" />
<glyph unicode="&#x130;" glyph-name="Idotaccent" horiz-adv-x="290" d="M127.805 793.186L127.805 755.186L168.805 749.186L168.805 793.186L127.805 793.186M139 -9.45L230 18.9L299 22.1L227 25.2L180 340L164 655L217 665L243 658L211 665L72.5 636" />
<glyph unicode="&#xc7;" glyph-name="Ccedilla" horiz-adv-x="699" d="M483.876 14.8253C486.112 -55.626 524.784 -192.16 413.928 -132.578M696 142L633 69.3L545 18.9L457 9.45L353 22.1L246 81.9L180 161L126 280L123 410L176 564L265 671L365 712L466 731L564 718L668 652L680 715L662 652L671 586" />
<glyph unicode="&#xE6;" glyph-name="ae" horiz-adv-x="610" d="M551 44.1C499.489 -43.5528 412.622 -57.0296 369.207 32.8363C325.792 122.702 333.451 396.468 431 425C503.371 440.935 529.074 343.816 557 274C488.76 268.7 420.389 266.973 352 265M126 350C94.5729 431.082 132.717 486.333 216.749 496.084C300.78 505.834 326.557 423.219 340 328C347.308 219.579 359.238 165.333 265 104C170.762 42.6672 89.6502 37.8003 86.2335 145.218C82.8168 252.635 319.611 242.328 339.117 157.564" />
<glyph unicode="&#xa3;" glyph-name="sterling" horiz-adv-x="410" d="M89.6271 239.814C176.909 287.984 271.735 268.625 356 290M416 40.9L394 -81.9L403 -31.5C317.141 -18.3453 234.353 -18.9 148 -18.9L81.9 -31.5L151 -18.9L151 419L148 573C129.862 798.521 422.017 730.444 237.119 414.61" />
</font>
</defs>
</svg>
