<?xml version="1.0" encoding="UTF-8"?><!DOCTYPE svg  PUBLIC '-//W3C//DTD SVG 1.1//EN'  'http://www.w3.org/Graphics/SVG/1.1/DTD/svg11.dtd'><svg version="1.1" xmlns="http://www.w3.org/2000/svg" xmlns:xlink="http://www.w3.org/1999/xlink"><defs><font horiz-adv-x="500.0" id="Hershey-Japanese"><font-face ascent="800.0" cap-height="500.0" descent="-200.0" font-family="Hershey-Japanese" units-per-em="1000" x-height="300.0"/><missing-glyph horiz-adv-x="500.0"/><glyph glyph-name="space" horiz-adv-x="500.0" unicode=" "/><glyph d="M300.0 866.666666667C300.0 866.666666667 366.666666667 833.333333333 366.666666667 833.333333333C366.666666667 833.333333333 366.666666667 766.666666667 366.666666667 766.666666667C366.666666667 766.666666667 300.0 600.0 300.0 600.0C300.0 600.0 266.666666667 466.666666667 266.666666667 466.666666667C266.666666667 466.666666667 266.666666667 400.0 266.666666667 400.0C266.666666667 400.0 300.0 366.666666667 300.0 366.666666667M333.333333333 833.333333333C333.333333333 833.333333333 333.333333333 700.0 333.333333333 700.0M300.0 600.0C300.0 600.0 300.0 366.666666667 300.0 366.666666667M133.333333333 733.333333333C133.333333333 733.333333333 233.333333333 700.0 233.333333333 700.0C233.333333333 700.0 366.666666667 700.0 366.666666667 700.0C366.666666667 700.0 500.0 733.333333333 500.0 733.333333333C500.0 733.333333333 566.666666667 766.666666667 566.666666667 766.666666667M500.0 733.333333333C500.0 733.333333333 533.333333333 800.0 533.333333333 800.0C533.333333333 800.0 566.666666667 766.666666667 566.666666667 766.666666667M300.0 366.666666667C300.0 366.666666667 366.666666667 433.333333333 366.666666667 433.333333333C366.666666667 433.333333333 466.666666667 500.0 466.666666667 500.0C466.666666667 500.0 566.666666667 533.333333333 566.666666667 533.333333333C566.666666667 533.333333333 666.666666667 533.333333333 666.666666667 533.333333333C666.666666667 533.333333333 733.333333333 500.0 733.333333333 500.0C733.333333333 500.0 766.666666667 433.333333333 766.666666667 433.333333333C766.666666667 433.333333333 766.666666667 333.333333333 766.666666667 333.333333333C766.666666667 333.333333333 733.333333333 266.666666667 733.333333333 266.666666667C733.333333333 266.666666667 633.333333333 200.0 633.333333333 200.0C633.333333333 200.0 500.0 166.666666667 500.0 166.666666667C500.0 166.666666667 366.666666667 166.666666667 366.666666667 166.666666667M666.666666667 533.333333333C666.666666667 533.333333333 700.0 500.0 700.0 500.0C700.0 500.0 733.333333333 433.333333333 733.333333333 433.333333333C733.333333333 433.333333333 733.333333333 333.333333333 733.333333333 333.333333333C733.333333333 333.333333333 700.0 266.666666667 700.0 266.666666667C700.0 266.666666667 633.333333333 200.0 633.333333333 200.0M666.666666667 766.666666667C666.666666667 766.666666667 733.333333333 700.0 733.333333333 700.0M733.333333333 833.333333333C733.333333333 833.333333333 800.0 766.666666667 800.0 766.666666667" glyph-name="" horiz-adv-x="900.0" unicode=""/><glyph d="M166.666666667 833.333333333C166.666666667 833.333333333 233.333333333 800.0 233.333333333 800.0C233.333333333 800.0 233.333333333 733.333333333 233.333333333 733.333333333C233.333333333 733.333333333 200.0 633.333333333 200.0 633.333333333C200.0 633.333333333 166.666666667 500.0 166.666666667 500.0M200.0 800.0C200.0 800.0 200.0 700.0 200.0 700.0C200.0 700.0 166.666666667 500.0 166.666666667 500.0C166.666666667 500.0 166.666666667 366.666666667 166.666666667 366.666666667C166.666666667 366.666666667 200.0 233.333333333 200.0 233.333333333C200.0 233.333333333 233.333333333 200.0 233.333333333 200.0C233.333333333 200.0 233.333333333 266.666666667 233.333333333 266.666666667C233.333333333 266.666666667 266.666666667 400.0 266.666666667 400.0C266.666666667 400.0 300.0 500.0 300.0 500.0M166.666666667 366.666666667C166.666666667 366.666666667 200.0 300.0 200.0 300.0C200.0 300.0 233.333333333 266.666666667 233.333333333 266.666666667M566.666666667 833.333333333C566.666666667 833.333333333 633.333333333 800.0 633.333333333 800.0C633.333333333 800.0 633.333333333 300.0 633.333333333 300.0C633.333333333 300.0 600.0 233.333333333 600.0 233.333333333C600.0 233.333333333 533.333333333 200.0 533.333333333 200.0C533.333333333 200.0 466.666666667 200.0 466.666666667 200.0C466.666666667 200.0 400.0 233.333333333 400.0 233.333333333C400.0 233.333333333 366.666666667 300.0 366.666666667 300.0C366.666666667 300.0 400.0 366.666666667 400.0 366.666666667C400.0 366.666666667 466.666666667 400.0 466.666666667 400.0C466.666666667 400.0 533.333333333 400.0 533.333333333 400.0C533.333333333 400.0 600.0 366.666666667 600.0 366.666666667C600.0 366.666666667 766.666666667 233.333333333 766.666666667 233.333333333M600.0 800.0C600.0 800.0 633.333333333 666.666666667 633.333333333 666.666666667M600.0 366.666666667C600.0 366.666666667 766.666666667 266.666666667 766.666666667 266.666666667C766.666666667 266.666666667 766.666666667 233.333333333 766.666666667 233.333333333M400.0 633.333333333C400.0 633.333333333 466.666666667 600.0 466.666666667 600.0C466.666666667 600.0 566.666666667 600.0 566.666666667 600.0C566.666666667 600.0 700.0 633.333333333 700.0 633.333333333C700.0 633.333333333 766.666666667 666.666666667 766.666666667 666.666666667M700.0 633.333333333C700.0 633.333333333 733.333333333 700.0 733.333333333 700.0C733.333333333 700.0 766.666666667 666.666666667 766.666666667 666.666666667M733.333333333 833.333333333C733.333333333 833.333333333 800.0 766.666666667 800.0 766.666666667M800.0 900.0C800.0 900.0 866.666666667 833.333333333 866.666666667 833.333333333" glyph-name="" horiz-adv-x="900.0" unicode=""/><glyph d="M166.666666667 833.333333333C166.666666667 833.333333333 233.333333333 800.0 233.333333333 800.0C233.333333333 800.0 233.333333333 733.333333333 233.333333333 733.333333333C233.333333333 733.333333333 200.0 633.333333333 200.0 633.333333333C200.0 633.333333333 166.666666667 500.0 166.666666667 500.0M200.0 800.0C200.0 800.0 200.0 700.0 200.0 700.0C200.0 700.0 166.666666667 500.0 166.666666667 500.0C166.666666667 500.0 166.666666667 366.666666667 166.666666667 366.666666667C166.666666667 366.666666667 200.0 233.333333333 200.0 233.333333333C200.0 233.333333333 233.333333333 200.0 233.333333333 200.0C233.333333333 200.0 233.333333333 266.666666667 233.333333333 266.666666667C233.333333333 266.666666667 266.666666667 400.0 266.666666667 400.0C266.666666667 400.0 300.0 500.0 300.0 500.0M166.666666667 366.666666667C166.666666667 366.666666667 200.0 300.0 200.0 300.0C200.0 300.0 233.333333333 266.666666667 233.333333333 266.666666667M433.333333333 833.333333333C433.333333333 833.333333333 500.0 800.0 500.0 800.0C500.0 800.0 566.666666667 800.0 566.666666667 800.0C566.666666667 800.0 700.0 833.333333333 700.0 833.333333333M566.666666667 800.0C566.666666667 800.0 633.333333333 833.333333333 633.333333333 833.333333333C633.333333333 833.333333333 666.666666667 866.666666667 666.666666667 866.666666667C666.666666667 866.666666667 700.0 833.333333333 700.0 833.333333333M400.0 566.666666667C400.0 566.666666667 500.0 533.333333333 500.0 533.333333333C500.0 533.333333333 600.0 533.333333333 600.0 533.333333333C600.0 533.333333333 700.0 566.666666667 700.0 566.666666667C700.0 566.666666667 766.666666667 600.0 766.666666667 600.0M700.0 566.666666667C700.0 566.666666667 733.333333333 633.333333333 733.333333333 633.333333333C733.333333333 633.333333333 766.666666667 600.0 766.666666667 600.0M566.666666667 800.0C566.666666667 800.0 633.333333333 766.666666667 633.333333333 766.666666667C633.333333333 766.666666667 633.333333333 300.0 633.333333333 300.0C633.333333333 300.0 600.0 233.333333333 600.0 233.333333333C600.0 233.333333333 533.333333333 200.0 533.333333333 200.0C533.333333333 200.0 466.666666667 200.0 466.666666667 200.0C466.666666667 200.0 400.0 233.333333333 400.0 233.333333333C400.0 233.333333333 366.666666667 300.0 366.666666667 300.0C366.666666667 300.0 400.0 366.666666667 400.0 366.666666667C400.0 366.666666667 466.666666667 400.0 466.666666667 400.0C466.666666667 400.0 533.333333333 400.0 533.333333333 400.0C533.333333333 400.0 600.0 366.666666667 600.0 366.666666667C600.0 366.666666667 766.666666667 233.333333333 766.666666667 233.333333333M600.0 766.666666667C600.0 766.666666667 633.333333333 633.333333333 633.333333333 633.333333333M600.0 366.666666667C600.0 366.666666667 766.666666667 266.666666667 766.666666667 266.666666667C766.666666667 266.666666667 766.666666667 233.333333333 766.666666667 233.333333333M766.666666667 766.666666667C766.666666667 766.666666667 833.333333333 700.0 833.333333333 700.0M833.333333333 833.333333333C833.333333333 833.333333333 900.0 766.666666667 900.0 766.666666667" glyph-name="" horiz-adv-x="900.0" unicode=""/><glyph d="M133.333333333 533.333333333C133.333333333 533.333333333 200.0 466.666666667 200.0 466.666666667C200.0 466.666666667 300.0 633.333333333 300.0 633.333333333M166.666666667 500.0C166.666666667 500.0 333.333333333 666.666666667 333.333333333 666.666666667C333.333333333 666.666666667 400.0 666.666666667 400.0 666.666666667C400.0 666.666666667 566.666666667 500.0 566.666666667 500.0C566.666666667 500.0 700.0 400.0 700.0 400.0C700.0 400.0 766.666666667 366.666666667 766.666666667 366.666666667C766.666666667 366.666666667 800.0 333.333333333 800.0 333.333333333C800.0 333.333333333 733.333333333 333.333333333 733.333333333 333.333333333C733.333333333 333.333333333 666.666666667 300.0 666.666666667 300.0M566.666666667 500.0C566.666666667 500.0 733.333333333 333.333333333 733.333333333 333.333333333M600.0 800.0C600.0 800.0 566.666666667 766.666666667 566.666666667 766.666666667C566.666666667 766.666666667 566.666666667 700.0 566.666666667 700.0C566.666666667 700.0 600.0 666.666666667 600.0 666.666666667C600.0 666.666666667 666.666666667 666.666666667 666.666666667 666.666666667C666.666666667 666.666666667 700.0 700.0 700.0 700.0C700.0 700.0 700.0 766.666666667 700.0 766.666666667C700.0 766.666666667 666.666666667 800.0 666.666666667 800.0C666.666666667 800.0 600.0 800.0 600.0 800.0" glyph-name="" horiz-adv-x="900.0" unicode=""/><glyph d="M400.0 866.666666667C400.0 866.666666667 500.0 833.333333333 500.0 833.333333333C500.0 833.333333333 500.0 766.666666667 500.0 766.666666667C500.0 766.666666667 466.666666667 700.0 466.666666667 700.0M400.0 866.666666667C400.0 866.666666667 466.666666667 833.333333333 466.666666667 833.333333333C466.666666667 833.333333333 466.666666667 700.0 466.666666667 700.0M200.0 766.666666667C200.0 766.666666667 233.333333333 700.0 233.333333333 700.0C233.333333333 700.0 233.333333333 533.333333333 233.333333333 533.333333333C233.333333333 533.333333333 266.666666667 500.0 266.666666667 500.0M266.666666667 700.0C266.666666667 700.0 266.666666667 500.0 266.666666667 500.0M266.666666667 700.0C266.666666667 700.0 700.0 700.0 700.0 700.0M200.0 766.666666667C200.0 766.666666667 233.333333333 733.333333333 233.333333333 733.333333333C233.333333333 733.333333333 366.666666667 700.0 366.666666667 700.0M566.666666667 700.0C566.666666667 700.0 666.666666667 733.333333333 666.666666667 733.333333333C666.666666667 733.333333333 733.333333333 666.666666667 733.333333333 666.666666667M733.333333333 666.666666667C733.333333333 666.666666667 633.333333333 466.666666667 633.333333333 466.666666667C633.333333333 466.666666667 566.666666667 366.666666667 566.666666667 366.666666667C566.666666667 366.666666667 466.666666667 266.666666667 466.666666667 266.666666667C466.666666667 266.666666667 366.666666667 200.0 366.666666667 200.0C366.666666667 200.0 300.0 166.666666667 300.0 166.666666667M700.0 700.0C700.0 700.0 666.666666667 600.0 666.666666667 600.0C666.666666667 600.0 600.0 466.666666667 600.0 466.666666667C600.0 466.666666667 500.0 333.333333333 500.0 333.333333333C500.0 333.333333333 400.0 233.333333333 400.0 233.333333333C400.0 233.333333333 300.0 166.666666667 300.0 166.666666667" glyph-name="" horiz-adv-x="900.0" unicode=""/><glyph d="M366.666666667 866.666666667C366.666666667 866.666666667 466.666666667 833.333333333 466.666666667 833.333333333C466.666666667 833.333333333 533.333333333 166.666666667 533.333333333 166.666666667M433.333333333 833.333333333C433.333333333 833.333333333 500.0 133.333333333 500.0 133.333333333C500.0 133.333333333 533.333333333 166.666666667 533.333333333 166.666666667M200.0 666.666666667C200.0 666.666666667 266.666666667 600.0 266.666666667 600.0C266.666666667 600.0 400.0 633.333333333 400.0 633.333333333C400.0 633.333333333 533.333333333 666.666666667 533.333333333 666.666666667C533.333333333 666.666666667 666.666666667 700.0 666.666666667 700.0C666.666666667 700.0 733.333333333 666.666666667 733.333333333 666.666666667M233.333333333 633.333333333C233.333333333 633.333333333 400.0 633.333333333 400.0 633.333333333M533.333333333 666.666666667C533.333333333 666.666666667 733.333333333 666.666666667 733.333333333 666.666666667M133.333333333 466.666666667C133.333333333 466.666666667 200.0 400.0 200.0 400.0C200.0 400.0 366.666666667 433.333333333 366.666666667 433.333333333C366.666666667 433.333333333 566.666666667 466.666666667 566.666666667 466.666666667C566.666666667 466.666666667 733.333333333 500.0 733.333333333 500.0C733.333333333 500.0 800.0 466.666666667 800.0 466.666666667M166.666666667 433.333333333C166.666666667 433.333333333 366.666666667 433.333333333 366.666666667 433.333333333M566.666666667 466.666666667C566.666666667 466.666666667 800.0 466.666666667 800.0 466.666666667" glyph-name="" horiz-adv-x="900.0" unicode=""/><glyph d="M266.666666667 766.666666667C266.666666667 766.666666667 333.333333333 733.333333333 333.333333333 733.333333333C333.333333333 733.333333333 333.333333333 566.666666667 333.333333333 566.666666667C333.333333333 566.666666667 300.0 433.333333333 300.0 433.333333333M300.0 733.333333333C300.0 733.333333333 300.0 433.333333333 300.0 433.333333333M533.333333333 866.666666667C533.333333333 866.666666667 633.333333333 833.333333333 633.333333333 833.333333333C633.333333333 833.333333333 633.333333333 666.666666667 633.333333333 666.666666667C633.333333333 666.666666667 600.0 500.0 600.0 500.0C600.0 500.0 566.666666667 400.0 566.666666667 400.0C566.666666667 400.0 533.333333333 333.333333333 533.333333333 333.333333333C533.333333333 333.333333333 466.666666667 233.333333333 466.666666667 233.333333333C466.666666667 233.333333333 400.0 166.666666667 400.0 166.666666667M600.0 833.333333333C600.0 833.333333333 600.0 666.666666667 600.0 666.666666667C600.0 666.666666667 566.666666667 500.0 566.666666667 500.0C566.666666667 500.0 533.333333333 366.666666667 533.333333333 366.666666667C533.333333333 366.666666667 466.666666667 233.333333333 466.666666667 233.333333333M133.333333333 633.333333333C133.333333333 633.333333333 200.0 566.666666667 200.0 566.666666667C200.0 566.666666667 366.666666667 600.0 366.666666667 600.0C366.666666667 600.0 566.666666667 633.333333333 566.666666667 633.333333333C566.666666667 633.333333333 733.333333333 666.666666667 733.333333333 666.666666667C733.333333333 666.666666667 800.0 633.333333333 800.0 633.333333333M166.666666667 600.0C166.666666667 600.0 366.666666667 600.0 366.666666667 600.0M566.666666667 633.333333333C566.666666667 633.333333333 800.0 633.333333333 800.0 633.333333333" glyph-name="" horiz-adv-x="900.0" unicode=""/><glyph d="M166.666666667 766.666666667C166.666666667 766.666666667 233.333333333 733.333333333 233.333333333 733.333333333C233.333333333 733.333333333 266.666666667 700.0 266.666666667 700.0C266.666666667 700.0 266.666666667 666.666666667 266.666666667 666.666666667C266.666666667 666.666666667 233.333333333 666.666666667 233.333333333 666.666666667C233.333333333 666.666666667 200.0 733.333333333 200.0 733.333333333C200.0 733.333333333 166.666666667 766.666666667 166.666666667 766.666666667M666.666666667 800.0C666.666666667 800.0 733.333333333 733.333333333 733.333333333 733.333333333C733.333333333 733.333333333 633.333333333 533.333333333 633.333333333 533.333333333C633.333333333 533.333333333 533.333333333 400.0 533.333333333 400.0C533.333333333 400.0 433.333333333 300.0 433.333333333 300.0C433.333333333 300.0 333.333333333 233.333333333 333.333333333 233.333333333C333.333333333 233.333333333 266.666666667 200.0 266.666666667 200.0M700.0 766.666666667C700.0 766.666666667 666.666666667 666.666666667 666.666666667 666.666666667C666.666666667 666.666666667 600.0 533.333333333 600.0 533.333333333C600.0 533.333333333 500.0 400.0 500.0 400.0C500.0 400.0 400.0 300.0 400.0 300.0C400.0 300.0 266.666666667 200.0 266.666666667 200.0" glyph-name="" horiz-adv-x="900.0" unicode=""/><glyph d="M133.333333333 233.333333333C133.333333333 233.333333333 100.0 200.0 100.0 200.0C100.0 200.0 133.333333333 166.666666667 133.333333333 166.666666667C133.333333333 166.666666667 166.666666667 200.0 166.666666667 200.0C166.666666667 200.0 133.333333333 233.333333333 133.333333333 233.333333333" glyph-name=" " horiz-adv-x="900.0" unicode=" "/><glyph d="M266.666666667 866.666666667C266.666666667 866.666666667 333.333333333 800.0 333.333333333 800.0C333.333333333 800.0 633.333333333 866.666666667 633.333333333 866.666666667C633.333333333 866.666666667 666.666666667 833.333333333 666.666666667 833.333333333M300.0 833.333333333C300.0 833.333333333 666.666666667 833.333333333 666.666666667 833.333333333M133.333333333 600.0C133.333333333 600.0 200.0 533.333333333 200.0 533.333333333C200.0 533.333333333 366.666666667 566.666666667 366.666666667 566.666666667C366.666666667 566.666666667 566.666666667 600.0 566.666666667 600.0C566.666666667 600.0 733.333333333 633.333333333 733.333333333 633.333333333C733.333333333 633.333333333 800.0 600.0 800.0 600.0M166.666666667 566.666666667C166.666666667 566.666666667 366.666666667 566.666666667 366.666666667 566.666666667M566.666666667 600.0C566.666666667 600.0 800.0 600.0 800.0 600.0M500.0 566.666666667C500.0 566.666666667 500.0 500.0 500.0 500.0C500.0 500.0 466.666666667 366.666666667 466.666666667 366.666666667C466.666666667 366.666666667 400.0 266.666666667 400.0 266.666666667C400.0 266.666666667 300.0 166.666666667 300.0 166.666666667M466.666666667 566.666666667C466.666666667 566.666666667 466.666666667 500.0 466.666666667 500.0C466.666666667 500.0 433.333333333 366.666666667 433.333333333 366.666666667C433.333333333 366.666666667 366.666666667 233.333333333 366.666666667 233.333333333" glyph-name="£" horiz-adv-x="900.0" unicode="£"/><glyph d="M233.333333333 833.333333333C233.333333333 833.333333333 166.666666667 866.666666667 166.666666667 866.666666667C166.666666667 866.666666667 166.666666667 166.666666667 166.666666667 166.666666667M200.0 833.333333333C200.0 833.333333333 200.0 166.666666667 200.0 166.666666667M200.0 833.333333333C200.0 833.333333333 700.0 833.333333333 700.0 833.333333333M666.666666667 833.333333333C666.666666667 833.333333333 700.0 866.666666667 700.0 866.666666667C700.0 866.666666667 766.666666667 833.333333333 766.666666667 833.333333333C766.666666667 833.333333333 733.333333333 766.666666667 733.333333333 766.666666667M700.0 833.333333333C700.0 833.333333333 700.0 300.0 700.0 300.0C700.0 300.0 666.666666667 233.333333333 666.666666667 233.333333333C666.666666667 233.333333333 633.333333333 200.0 633.333333333 200.0M700.0 266.666666667C700.0 266.666666667 700.0 233.333333333 700.0 233.333333333C700.0 233.333333333 666.666666667 200.0 666.666666667 200.0M733.333333333 833.333333333C733.333333333 833.333333333 733.333333333 233.333333333 733.333333333 233.333333333C733.333333333 233.333333333 700.0 166.666666667 700.0 166.666666667C700.0 166.666666667 666.666666667 166.666666667 666.666666667 166.666666667C666.666666667 166.666666667 633.333333333 200.0 633.333333333 200.0C633.333333333 200.0 566.666666667 233.333333333 566.666666667 233.333333333M433.333333333 833.333333333C433.333333333 833.333333333 433.333333333 533.333333333 433.333333333 533.333333333M466.666666667 833.333333333C466.666666667 833.333333333 466.666666667 533.333333333 466.666666667 533.333333333M200.0 533.333333333C200.0 533.333333333 700.0 533.333333333 700.0 533.333333333" glyph-name="$" horiz-adv-x="900.0" unicode="$"/><glyph d="M200.0 766.666666667C200.0 766.666666667 266.666666667 700.0 266.666666667 700.0C266.666666667 700.0 633.333333333 766.666666667 633.333333333 766.666666667C633.333333333 766.666666667 700.0 700.0 700.0 700.0M233.333333333 733.333333333C233.333333333 733.333333333 666.666666667 733.333333333 666.666666667 733.333333333M700.0 700.0C700.0 700.0 633.333333333 600.0 633.333333333 600.0C633.333333333 600.0 533.333333333 500.0 533.333333333 500.0C533.333333333 500.0 433.333333333 433.333333333 433.333333333 433.333333333C433.333333333 433.333333333 366.666666667 400.0 366.666666667 400.0C366.666666667 400.0 200.0 333.333333333 200.0 333.333333333M666.666666667 733.333333333C666.666666667 733.333333333 633.333333333 666.666666667 633.333333333 666.666666667C633.333333333 666.666666667 566.666666667 566.666666667 566.666666667 566.666666667C566.666666667 566.666666667 500.0 500.0 500.0 500.0C500.0 500.0 400.0 433.333333333 400.0 433.333333333C400.0 433.333333333 200.0 333.333333333 200.0 333.333333333M300.0 566.666666667C300.0 566.666666667 400.0 533.333333333 400.0 533.333333333C400.0 533.333333333 533.333333333 466.666666667 533.333333333 466.666666667C533.333333333 466.666666667 633.333333333 400.0 633.333333333 400.0C633.333333333 400.0 700.0 333.333333333 700.0 333.333333333C700.0 333.333333333 700.0 300.0 700.0 300.0C700.0 300.0 666.666666667 300.0 666.666666667 300.0C666.666666667 300.0 600.0 400.0 600.0 400.0C600.0 400.0 533.333333333 466.666666667 533.333333333 466.666666667" glyph-name="§" horiz-adv-x="900.0" unicode="§"/><glyph d="M433.333333333 866.666666667C433.333333333 866.666666667 433.333333333 666.666666667 433.333333333 666.666666667C433.333333333 666.666666667 400.0 500.0 400.0 500.0C400.0 500.0 333.333333333 366.666666667 333.333333333 366.666666667C333.333333333 366.666666667 266.666666667 266.666666667 266.666666667 266.666666667C266.666666667 266.666666667 200.0 200.0 200.0 200.0C200.0 200.0 100.0 133.333333333 100.0 133.333333333M466.666666667 833.333333333C466.666666667 833.333333333 466.666666667 700.0 466.666666667 700.0M433.333333333 866.666666667C433.333333333 866.666666667 500.0 833.333333333 500.0 833.333333333C500.0 833.333333333 466.666666667 600.0 466.666666667 600.0C466.666666667 600.0 433.333333333 466.666666667 433.333333333 466.666666667C433.333333333 466.666666667 366.666666667 333.333333333 366.666666667 333.333333333C366.666666667 333.333333333 266.666666667 233.333333333 266.666666667 233.333333333C266.666666667 233.333333333 166.666666667 166.666666667 166.666666667 166.666666667C166.666666667 166.666666667 100.0 133.333333333 100.0 133.333333333M500.0 833.333333333C500.0 833.333333333 500.0 700.0 500.0 700.0C500.0 700.0 533.333333333 500.0 533.333333333 500.0C533.333333333 500.0 566.666666667 400.0 566.666666667 400.0C566.666666667 400.0 600.0 333.333333333 600.0 333.333333333C600.0 333.333333333 666.666666667 233.333333333 666.666666667 233.333333333C666.666666667 233.333333333 766.666666667 133.333333333 766.666666667 133.333333333C766.666666667 133.333333333 833.333333333 166.666666667 833.333333333 166.666666667M700.0 233.333333333C700.0 233.333333333 766.666666667 166.666666667 766.666666667 166.666666667M500.0 700.0C500.0 700.0 533.333333333 533.333333333 533.333333333 533.333333333C533.333333333 533.333333333 600.0 400.0 600.0 400.0C600.0 400.0 666.666666667 300.0 666.666666667 300.0C666.666666667 300.0 733.333333333 233.333333333 733.333333333 233.333333333C733.333333333 233.333333333 833.333333333 166.666666667 833.333333333 166.666666667" glyph-name="(" horiz-adv-x="900.0" unicode="("/><glyph d="M166.666666667 833.333333333C166.666666667 833.333333333 266.666666667 800.0 266.666666667 800.0C266.666666667 800.0 266.666666667 733.333333333 266.666666667 733.333333333C266.666666667 733.333333333 233.333333333 433.333333333 233.333333333 433.333333333M233.333333333 800.0C233.333333333 800.0 233.333333333 333.333333333 233.333333333 333.333333333C233.333333333 333.333333333 266.666666667 266.666666667 266.666666667 266.666666667C266.666666667 266.666666667 333.333333333 233.333333333 333.333333333 233.333333333C333.333333333 233.333333333 700.0 233.333333333 700.0 233.333333333M433.333333333 233.333333333C433.333333333 233.333333333 566.666666667 266.666666667 566.666666667 266.666666667C566.666666667 266.666666667 633.333333333 266.666666667 633.333333333 266.666666667C633.333333333 266.666666667 700.0 233.333333333 700.0 233.333333333M233.333333333 466.666666667C233.333333333 466.666666667 366.666666667 500.0 366.666666667 500.0C366.666666667 500.0 466.666666667 533.333333333 466.666666667 533.333333333C466.666666667 533.333333333 666.666666667 600.0 666.666666667 600.0M466.666666667 533.333333333C466.666666667 533.333333333 600.0 600.0 600.0 600.0C600.0 600.0 666.666666667 600.0 666.666666667 600.0" glyph-name="«" horiz-adv-x="900.0" unicode="«"/><glyph d="M466.666666667 833.333333333C466.666666667 833.333333333 466.666666667 866.666666667 466.666666667 866.666666667C466.666666667 866.666666667 500.0 900.0 500.0 900.0C500.0 900.0 433.333333333 900.0 433.333333333 900.0C433.333333333 900.0 433.333333333 833.333333333 433.333333333 833.333333333M100.0 833.333333333C100.0 833.333333333 833.333333333 833.333333333 833.333333333 833.333333333C833.333333333 833.333333333 766.666666667 900.0 766.666666667 900.0C766.666666667 900.0 700.0 833.333333333 700.0 833.333333333M700.0 833.333333333C700.0 833.333333333 800.0 866.666666667 800.0 866.666666667M266.666666667 700.0C266.666666667 700.0 200.0 733.333333333 200.0 733.333333333C200.0 733.333333333 200.0 466.666666667 200.0 466.666666667M233.333333333 700.0C233.333333333 700.0 233.333333333 466.666666667 233.333333333 466.666666667M233.333333333 700.0C233.333333333 700.0 666.666666667 700.0 666.666666667 700.0M633.333333333 700.0C633.333333333 700.0 666.666666667 733.333333333 666.666666667 733.333333333C666.666666667 733.333333333 733.333333333 700.0 733.333333333 700.0C733.333333333 700.0 700.0 633.333333333 700.0 633.333333333M666.666666667 700.0C666.666666667 700.0 666.666666667 466.666666667 666.666666667 466.666666667M700.0 700.0C700.0 700.0 700.0 466.666666667 700.0 466.666666667M233.333333333 500.0C233.333333333 500.0 666.666666667 500.0 666.666666667 500.0M433.333333333 500.0C433.333333333 500.0 433.333333333 266.666666667 433.333333333 266.666666667C433.333333333 266.666666667 400.0 200.0 400.0 200.0C400.0 200.0 366.666666667 166.666666667 366.666666667 166.666666667M433.333333333 233.333333333C433.333333333 233.333333333 433.333333333 200.0 433.333333333 200.0C433.333333333 200.0 400.0 166.666666667 400.0 166.666666667M466.666666667 500.0C466.666666667 500.0 466.666666667 200.0 466.666666667 200.0C466.666666667 200.0 433.333333333 133.333333333 433.333333333 133.333333333C433.333333333 133.333333333 400.0 133.333333333 400.0 133.333333333C400.0 133.333333333 366.666666667 166.666666667 366.666666667 166.666666667C366.666666667 166.666666667 300.0 200.0 300.0 200.0M266.666666667 400.0C266.666666667 400.0 100.0 233.333333333 100.0 233.333333333M266.666666667 400.0C266.666666667 400.0 300.0 366.666666667 300.0 366.666666667C300.0 366.666666667 100.0 233.333333333 100.0 233.333333333M600.0 400.0C600.0 400.0 666.666666667 333.333333333 666.666666667 333.333333333C666.666666667 333.333333333 733.333333333 233.333333333 733.333333333 233.333333333C733.333333333 233.333333333 766.666666667 233.333333333 766.666666667 233.333333333C766.666666667 233.333333333 766.666666667 266.666666667 766.666666667 266.666666667C766.666666667 266.666666667 733.333333333 300.0 733.333333333 300.0C733.333333333 300.0 600.0 400.0 600.0 400.0" glyph-name="," horiz-adv-x="900.0" unicode=","/><glyph d="M133.333333333 666.666666667C133.333333333 666.666666667 200.0 600.0 200.0 600.0C200.0 600.0 366.666666667 633.333333333 366.666666667 633.333333333C366.666666667 633.333333333 566.666666667 666.666666667 566.666666667 666.666666667C566.666666667 666.666666667 733.333333333 700.0 733.333333333 700.0C733.333333333 700.0 800.0 633.333333333 800.0 633.333333333M166.666666667 633.333333333C166.666666667 633.333333333 366.666666667 633.333333333 366.666666667 633.333333333M566.666666667 666.666666667C566.666666667 666.666666667 766.666666667 666.666666667 766.666666667 666.666666667M800.0 633.333333333C800.0 633.333333333 733.333333333 566.666666667 733.333333333 566.666666667C733.333333333 566.666666667 600.0 466.666666667 600.0 466.666666667C600.0 466.666666667 533.333333333 433.333333333 533.333333333 433.333333333M766.666666667 666.666666667C766.666666667 666.666666667 700.0 566.666666667 700.0 566.666666667C700.0 566.666666667 633.333333333 500.0 633.333333333 500.0C633.333333333 500.0 533.333333333 433.333333333 533.333333333 433.333333333M433.333333333 466.666666667C433.333333333 466.666666667 533.333333333 400.0 533.333333333 400.0C533.333333333 400.0 600.0 333.333333333 600.0 333.333333333C600.0 333.333333333 600.0 300.0 600.0 300.0C600.0 300.0 566.666666667 300.0 566.666666667 300.0C566.666666667 300.0 533.333333333 366.666666667 533.333333333 366.666666667C533.333333333 366.666666667 433.333333333 466.666666667 433.333333333 466.666666667" glyph-name="¯" horiz-adv-x="900.0" unicode="¯"/><glyph d="M433.333333333 833.333333333C433.333333333 833.333333333 466.666666667 866.666666667 466.666666667 866.666666667C466.666666667 866.666666667 400.0 866.666666667 400.0 866.666666667C400.0 866.666666667 400.0 633.333333333 400.0 633.333333333M433.333333333 833.333333333C433.333333333 833.333333333 433.333333333 633.333333333 433.333333333 633.333333333M166.666666667 766.666666667C166.666666667 766.666666667 566.666666667 766.666666667 566.666666667 766.666666667C566.666666667 766.666666667 533.333333333 800.0 533.333333333 800.0C533.333333333 800.0 500.0 766.666666667 500.0 766.666666667M100.0 633.333333333C100.0 633.333333333 833.333333333 633.333333333 833.333333333 633.333333333C833.333333333 633.333333333 766.666666667 666.666666667 766.666666667 666.666666667C766.666666667 666.666666667 733.333333333 633.333333333 733.333333333 633.333333333M666.666666667 833.333333333C666.666666667 833.333333333 566.666666667 700.0 566.666666667 700.0C566.666666667 700.0 466.666666667 600.0 466.666666667 600.0C466.666666667 600.0 333.333333333 500.0 333.333333333 500.0C333.333333333 500.0 166.666666667 400.0 166.666666667 400.0M666.666666667 833.333333333C666.666666667 833.333333333 700.0 800.0 700.0 800.0C700.0 800.0 533.333333333 633.333333333 533.333333333 633.333333333C533.333333333 633.333333333 400.0 533.333333333 400.0 533.333333333C400.0 533.333333333 300.0 466.666666667 300.0 466.666666667C300.0 466.666666667 166.666666667 400.0 166.666666667 400.0C166.666666667 400.0 100.0 366.666666667 100.0 366.666666667M366.666666667 500.0C366.666666667 500.0 300.0 533.333333333 300.0 533.333333333C300.0 533.333333333 300.0 133.333333333 300.0 133.333333333M333.333333333 500.0C333.333333333 500.0 333.333333333 133.333333333 333.333333333 133.333333333M333.333333333 500.0C333.333333333 500.0 666.666666667 500.0 666.666666667 500.0M633.333333333 500.0C633.333333333 500.0 666.666666667 533.333333333 666.666666667 533.333333333C666.666666667 533.333333333 733.333333333 500.0 733.333333333 500.0C733.333333333 500.0 700.0 433.333333333 700.0 433.333333333M666.666666667 500.0C666.666666667 500.0 666.666666667 133.333333333 666.666666667 133.333333333M700.0 500.0C700.0 500.0 700.0 133.333333333 700.0 133.333333333M333.333333333 333.333333333C333.333333333 333.333333333 666.666666667 333.333333333 666.666666667 333.333333333M333.333333333 166.666666667C333.333333333 166.666666667 666.666666667 166.666666667 666.666666667 166.666666667" glyph-name="0" horiz-adv-x="900.0" unicode="0"/><glyph d="M266.666666667 766.666666667C266.666666667 766.666666667 333.333333333 700.0 333.333333333 700.0C333.333333333 700.0 633.333333333 766.666666667 633.333333333 766.666666667C633.333333333 766.666666667 666.666666667 733.333333333 666.666666667 733.333333333M300.0 733.333333333C300.0 733.333333333 666.666666667 733.333333333 666.666666667 733.333333333M433.333333333 700.0C433.333333333 700.0 433.333333333 333.333333333 433.333333333 333.333333333C433.333333333 333.333333333 466.666666667 266.666666667 466.666666667 266.666666667C466.666666667 266.666666667 533.333333333 233.333333333 533.333333333 233.333333333C533.333333333 233.333333333 766.666666667 233.333333333 766.666666667 233.333333333M466.666666667 700.0C466.666666667 700.0 466.666666667 633.333333333 466.666666667 633.333333333C466.666666667 633.333333333 433.333333333 433.333333333 433.333333333 433.333333333M600.0 233.333333333C600.0 233.333333333 733.333333333 266.666666667 733.333333333 266.666666667C733.333333333 266.666666667 766.666666667 233.333333333 766.666666667 233.333333333M133.333333333 500.0C133.333333333 500.0 200.0 433.333333333 200.0 433.333333333C200.0 433.333333333 366.666666667 466.666666667 366.666666667 466.666666667C366.666666667 466.666666667 566.666666667 500.0 566.666666667 500.0C566.666666667 500.0 733.333333333 533.333333333 733.333333333 533.333333333C733.333333333 533.333333333 800.0 500.0 800.0 500.0M166.666666667 466.666666667C166.666666667 466.666666667 366.666666667 466.666666667 366.666666667 466.666666667M566.666666667 500.0C566.666666667 500.0 800.0 500.0 800.0 500.0" glyph-name="³" horiz-adv-x="900.0" unicode="³"/><glyph d="M166.666666667 766.666666667C166.666666667 766.666666667 766.666666667 766.666666667 766.666666667 766.666666667C766.666666667 766.666666667 700.0 833.333333333 700.0 833.333333333C700.0 833.333333333 633.333333333 766.666666667 633.333333333 766.666666667M633.333333333 766.666666667C633.333333333 766.666666667 733.333333333 800.0 733.333333333 800.0M233.333333333 500.0C233.333333333 500.0 700.0 500.0 700.0 500.0C700.0 500.0 633.333333333 566.666666667 633.333333333 566.666666667C633.333333333 566.666666667 566.666666667 500.0 566.666666667 500.0M566.666666667 500.0C566.666666667 500.0 666.666666667 533.333333333 666.666666667 533.333333333M100.0 200.0C100.0 200.0 833.333333333 200.0 833.333333333 200.0C833.333333333 200.0 766.666666667 266.666666667 766.666666667 266.666666667C766.666666667 266.666666667 700.0 200.0 700.0 200.0M700.0 200.0C700.0 200.0 800.0 233.333333333 800.0 233.333333333" glyph-name="4" horiz-adv-x="900.0" unicode="4"/><glyph d="M433.333333333 700.0C433.333333333 700.0 500.0 666.666666667 500.0 666.666666667C500.0 666.666666667 500.0 300.0 500.0 300.0M466.666666667 666.666666667C466.666666667 666.666666667 466.666666667 300.0 466.666666667 300.0M200.0 733.333333333C200.0 733.333333333 266.666666667 666.666666667 266.666666667 666.666666667C266.666666667 666.666666667 666.666666667 733.333333333 666.666666667 733.333333333C666.666666667 733.333333333 733.333333333 700.0 733.333333333 700.0M233.333333333 700.0C233.333333333 700.0 733.333333333 700.0 733.333333333 700.0M133.333333333 333.333333333C133.333333333 333.333333333 200.0 266.666666667 200.0 266.666666667C200.0 266.666666667 733.333333333 333.333333333 733.333333333 333.333333333C733.333333333 333.333333333 800.0 300.0 800.0 300.0M166.666666667 300.0C166.666666667 300.0 800.0 300.0 800.0 300.0" glyph-name="·" horiz-adv-x="900.0" unicode="·"/><glyph d="M300.0 766.666666667C300.0 766.666666667 333.333333333 800.0 333.333333333 800.0C333.333333333 800.0 266.666666667 833.333333333 266.666666667 833.333333333C266.666666667 833.333333333 266.666666667 200.0 266.666666667 200.0C266.666666667 200.0 300.0 166.666666667 300.0 166.666666667C300.0 166.666666667 700.0 166.666666667 700.0 166.666666667C700.0 166.666666667 733.333333333 200.0 733.333333333 200.0C733.333333333 200.0 700.0 266.666666667 700.0 266.666666667M666.666666667 200.0C666.666666667 200.0 700.0 200.0 700.0 200.0C700.0 200.0 700.0 233.333333333 700.0 233.333333333M300.0 800.0C300.0 800.0 300.0 233.333333333 300.0 233.333333333C300.0 233.333333333 333.333333333 200.0 333.333333333 200.0C333.333333333 200.0 633.333333333 200.0 633.333333333 200.0C633.333333333 200.0 700.0 266.666666667 700.0 266.666666667C700.0 266.666666667 733.333333333 366.666666667 733.333333333 366.666666667M133.333333333 500.0C133.333333333 500.0 333.333333333 533.333333333 333.333333333 533.333333333C333.333333333 533.333333333 500.0 566.666666667 500.0 566.666666667C500.0 566.666666667 766.666666667 633.333333333 766.666666667 633.333333333C766.666666667 633.333333333 666.666666667 666.666666667 666.666666667 666.666666667C666.666666667 666.666666667 633.333333333 600.0 633.333333333 600.0M633.333333333 600.0C633.333333333 600.0 700.0 633.333333333 700.0 633.333333333" glyph-name="8" horiz-adv-x="900.0" unicode="8"/><glyph d="M266.666666667 733.333333333C266.666666667 733.333333333 333.333333333 700.0 333.333333333 700.0C333.333333333 700.0 333.333333333 600.0 333.333333333 600.0C333.333333333 600.0 300.0 466.666666667 300.0 466.666666667C300.0 466.666666667 233.333333333 366.666666667 233.333333333 366.666666667C233.333333333 366.666666667 133.333333333 266.666666667 133.333333333 266.666666667M300.0 700.0C300.0 700.0 300.0 600.0 300.0 600.0C300.0 600.0 266.666666667 466.666666667 266.666666667 466.666666667C266.666666667 466.666666667 233.333333333 400.0 233.333333333 400.0C233.333333333 400.0 133.333333333 266.666666667 133.333333333 266.666666667M433.333333333 766.666666667C433.333333333 766.666666667 500.0 733.333333333 500.0 733.333333333C500.0 733.333333333 500.0 633.333333333 500.0 633.333333333C500.0 633.333333333 466.666666667 433.333333333 466.666666667 433.333333333M466.666666667 733.333333333C466.666666667 733.333333333 466.666666667 333.333333333 466.666666667 333.333333333C466.666666667 333.333333333 500.0 266.666666667 500.0 266.666666667C500.0 266.666666667 566.666666667 266.666666667 566.666666667 266.666666667C566.666666667 266.666666667 633.333333333 300.0 633.333333333 300.0C633.333333333 300.0 700.0 366.666666667 700.0 366.666666667C700.0 366.666666667 800.0 500.0 800.0 500.0M466.666666667 333.333333333C466.666666667 333.333333333 500.0 300.0 500.0 300.0C500.0 300.0 600.0 300.0 600.0 300.0C600.0 300.0 666.666666667 333.333333333 666.666666667 333.333333333" glyph-name="»" horiz-adv-x="900.0" unicode="»"/><glyph d="M133.333333333 233.333333333C133.333333333 233.333333333 100.0 200.0 100.0 200.0C100.0 200.0 133.333333333 166.666666667 133.333333333 166.666666667C133.333333333 166.666666667 166.666666667 200.0 166.666666667 200.0C166.666666667 200.0 133.333333333 233.333333333 133.333333333 233.333333333" glyph-name="&lt;" horiz-adv-x="900.0" unicode="&lt;"/><glyph d="M433.333333333 866.666666667C433.333333333 866.666666667 533.333333333 833.333333333 533.333333333 833.333333333C533.333333333 833.333333333 533.333333333 166.666666667 533.333333333 166.666666667M500.0 833.333333333C500.0 833.333333333 500.0 133.333333333 500.0 133.333333333C500.0 133.333333333 533.333333333 166.666666667 533.333333333 166.666666667M200.0 733.333333333C200.0 733.333333333 266.666666667 666.666666667 266.666666667 666.666666667C266.666666667 666.666666667 666.666666667 733.333333333 666.666666667 733.333333333C666.666666667 733.333333333 733.333333333 700.0 733.333333333 700.0M233.333333333 700.0C233.333333333 700.0 733.333333333 700.0 733.333333333 700.0M266.666666667 666.666666667C266.666666667 666.666666667 333.333333333 633.333333333 333.333333333 633.333333333C333.333333333 633.333333333 333.333333333 466.666666667 333.333333333 466.666666667M300.0 633.333333333C300.0 633.333333333 300.0 466.666666667 300.0 466.666666667M133.333333333 500.0C133.333333333 500.0 200.0 433.333333333 200.0 433.333333333C200.0 433.333333333 733.333333333 500.0 733.333333333 500.0C733.333333333 500.0 800.0 466.666666667 800.0 466.666666667M166.666666667 466.666666667C166.666666667 466.666666667 800.0 466.666666667 800.0 466.666666667" glyph-name="¿" horiz-adv-x="900.0" unicode="¿"/><glyph d="M133.333333333 233.333333333C133.333333333 233.333333333 100.0 200.0 100.0 200.0C100.0 200.0 133.333333333 166.666666667 133.333333333 166.666666667C133.333333333 166.666666667 166.666666667 200.0 166.666666667 200.0C166.666666667 200.0 133.333333333 233.333333333 133.333333333 233.333333333" glyph-name="@" horiz-adv-x="900.0" unicode="@"/><glyph d="M200.0 800.0C200.0 800.0 266.666666667 766.666666667 266.666666667 766.666666667C266.666666667 766.666666667 300.0 733.333333333 300.0 733.333333333C300.0 733.333333333 300.0 700.0 300.0 700.0C300.0 700.0 266.666666667 700.0 266.666666667 700.0C266.666666667 700.0 233.333333333 766.666666667 233.333333333 766.666666667C233.333333333 766.666666667 200.0 800.0 200.0 800.0M166.666666667 300.0C166.666666667 300.0 233.333333333 233.333333333 233.333333333 233.333333333C233.333333333 233.333333333 366.666666667 300.0 366.666666667 300.0C366.666666667 300.0 500.0 400.0 500.0 400.0C500.0 400.0 633.333333333 533.333333333 633.333333333 533.333333333C633.333333333 533.333333333 766.666666667 700.0 766.666666667 700.0M200.0 266.666666667C200.0 266.666666667 366.666666667 333.333333333 366.666666667 333.333333333C366.666666667 333.333333333 500.0 433.333333333 500.0 433.333333333C500.0 433.333333333 766.666666667 700.0 766.666666667 700.0" glyph-name="Ã" horiz-adv-x="900.0" unicode="Ã"/><glyph d="M333.333333333 900.0C333.333333333 900.0 366.666666667 866.666666667 366.666666667 866.666666667C366.666666667 866.666666667 433.333333333 833.333333333 433.333333333 833.333333333C433.333333333 833.333333333 566.666666667 833.333333333 566.666666667 833.333333333M366.666666667 866.666666667C366.666666667 866.666666667 533.333333333 866.666666667 533.333333333 866.666666667C533.333333333 866.666666667 566.666666667 833.333333333 566.666666667 833.333333333C566.666666667 833.333333333 433.333333333 766.666666667 433.333333333 766.666666667M200.0 633.333333333C200.0 633.333333333 200.0 600.0 200.0 600.0C200.0 600.0 233.333333333 566.666666667 233.333333333 566.666666667C233.333333333 566.666666667 300.0 566.666666667 300.0 566.666666667C300.0 566.666666667 466.666666667 633.333333333 466.666666667 633.333333333C466.666666667 633.333333333 566.666666667 666.666666667 566.666666667 666.666666667C566.666666667 666.666666667 600.0 633.333333333 600.0 633.333333333M200.0 600.0C200.0 600.0 300.0 600.0 300.0 600.0C300.0 600.0 466.666666667 633.333333333 466.666666667 633.333333333M600.0 633.333333333C600.0 633.333333333 466.666666667 533.333333333 466.666666667 533.333333333C466.666666667 533.333333333 266.666666667 333.333333333 266.666666667 333.333333333C266.666666667 333.333333333 133.333333333 200.0 133.333333333 200.0M566.666666667 666.666666667C566.666666667 666.666666667 466.666666667 533.333333333 466.666666667 533.333333333M133.333333333 200.0C133.333333333 200.0 133.333333333 233.333333333 133.333333333 233.333333333C133.333333333 233.333333333 266.666666667 333.333333333 266.666666667 333.333333333C266.666666667 333.333333333 333.333333333 366.666666667 333.333333333 366.666666667C333.333333333 366.666666667 466.666666667 366.666666667 466.666666667 366.666666667C466.666666667 366.666666667 500.0 333.333333333 500.0 333.333333333C500.0 333.333333333 533.333333333 200.0 533.333333333 200.0C533.333333333 200.0 566.666666667 166.666666667 566.666666667 166.666666667C566.666666667 166.666666667 800.0 166.666666667 800.0 166.666666667M633.333333333 166.666666667C633.333333333 166.666666667 733.333333333 200.0 733.333333333 200.0C733.333333333 200.0 766.666666667 200.0 766.666666667 200.0C766.666666667 200.0 800.0 166.666666667 800.0 166.666666667" glyph-name="D" horiz-adv-x="900.0" unicode="D"/><glyph d="M133.333333333 233.333333333C133.333333333 233.333333333 100.0 200.0 100.0 200.0C100.0 200.0 133.333333333 166.666666667 133.333333333 166.666666667C133.333333333 166.666666667 166.666666667 200.0 166.666666667 200.0C166.666666667 200.0 133.333333333 233.333333333 133.333333333 233.333333333" glyph-name="Ç" horiz-adv-x="900.0" unicode="Ç"/><glyph d="M533.333333333 866.666666667C533.333333333 866.666666667 600.0 833.333333333 600.0 833.333333333C600.0 833.333333333 600.0 800.0 600.0 800.0C600.0 800.0 333.333333333 533.333333333 333.333333333 533.333333333M566.666666667 833.333333333C566.666666667 833.333333333 533.333333333 766.666666667 533.333333333 766.666666667C533.333333333 766.666666667 333.333333333 533.333333333 333.333333333 533.333333333C333.333333333 533.333333333 333.333333333 500.0 333.333333333 500.0C333.333333333 500.0 500.0 333.333333333 500.0 333.333333333C500.0 333.333333333 566.666666667 233.333333333 566.666666667 233.333333333C566.666666667 233.333333333 600.0 166.666666667 600.0 166.666666667M333.333333333 500.0C333.333333333 500.0 600.0 266.666666667 600.0 266.666666667C600.0 266.666666667 633.333333333 200.0 633.333333333 200.0C633.333333333 200.0 600.0 166.666666667 600.0 166.666666667" glyph-name="H" horiz-adv-x="900.0" unicode="H"/><glyph d="M333.333333333 866.666666667C333.333333333 866.666666667 400.0 800.0 400.0 800.0C400.0 800.0 333.333333333 666.666666667 333.333333333 666.666666667C333.333333333 666.666666667 266.666666667 566.666666667 266.666666667 566.666666667C266.666666667 566.666666667 200.0 500.0 200.0 500.0C200.0 500.0 133.333333333 433.333333333 133.333333333 433.333333333M366.666666667 833.333333333C366.666666667 833.333333333 333.333333333 733.333333333 333.333333333 733.333333333C333.333333333 733.333333333 266.666666667 600.0 266.666666667 600.0C266.666666667 600.0 200.0 500.0 200.0 500.0M266.666666667 566.666666667C266.666666667 566.666666667 533.333333333 600.0 533.333333333 600.0C533.333333333 600.0 700.0 633.333333333 700.0 633.333333333C700.0 633.333333333 800.0 600.0 800.0 600.0M533.333333333 600.0C533.333333333 600.0 800.0 600.0 800.0 600.0M466.666666667 566.666666667C466.666666667 566.666666667 533.333333333 500.0 533.333333333 500.0C533.333333333 500.0 466.666666667 366.666666667 466.666666667 366.666666667C466.666666667 366.666666667 400.0 266.666666667 400.0 266.666666667C400.0 266.666666667 333.333333333 200.0 333.333333333 200.0C333.333333333 200.0 266.666666667 133.333333333 266.666666667 133.333333333M500.0 533.333333333C500.0 533.333333333 466.666666667 433.333333333 466.666666667 433.333333333C466.666666667 433.333333333 400.0 300.0 400.0 300.0C400.0 300.0 333.333333333 200.0 333.333333333 200.0M700.0 800.0C700.0 800.0 766.666666667 733.333333333 766.666666667 733.333333333M766.666666667 866.666666667C766.666666667 866.666666667 833.333333333 800.0 833.333333333 800.0" glyph-name="Ë" horiz-adv-x="900.0" unicode="Ë"/><glyph d="M266.666666667 866.666666667C266.666666667 866.666666667 333.333333333 833.333333333 333.333333333 833.333333333C333.333333333 833.333333333 300.0 433.333333333 300.0 433.333333333C300.0 433.333333333 300.0 266.666666667 300.0 266.666666667C300.0 266.666666667 333.333333333 200.0 333.333333333 200.0M300.0 833.333333333C300.0 833.333333333 266.666666667 433.333333333 266.666666667 433.333333333C266.666666667 433.333333333 266.666666667 300.0 266.666666667 300.0C266.666666667 300.0 300.0 233.333333333 300.0 233.333333333C300.0 233.333333333 333.333333333 200.0 333.333333333 200.0C333.333333333 200.0 400.0 166.666666667 400.0 166.666666667C400.0 166.666666667 500.0 166.666666667 500.0 166.666666667C500.0 166.666666667 600.0 200.0 600.0 200.0C600.0 200.0 700.0 266.666666667 700.0 266.666666667C700.0 266.666666667 766.666666667 333.333333333 766.666666667 333.333333333" glyph-name="L" horiz-adv-x="900.0" unicode="L"/><glyph d="M200.0 766.666666667C200.0 766.666666667 266.666666667 700.0 266.666666667 700.0C266.666666667 700.0 633.333333333 766.666666667 633.333333333 766.666666667C633.333333333 766.666666667 700.0 700.0 700.0 700.0M233.333333333 733.333333333C233.333333333 733.333333333 666.666666667 733.333333333 666.666666667 733.333333333M700.0 700.0C700.0 700.0 633.333333333 600.0 633.333333333 600.0C633.333333333 600.0 533.333333333 500.0 533.333333333 500.0C533.333333333 500.0 433.333333333 433.333333333 433.333333333 433.333333333C433.333333333 433.333333333 366.666666667 400.0 366.666666667 400.0C366.666666667 400.0 200.0 333.333333333 200.0 333.333333333M666.666666667 733.333333333C666.666666667 733.333333333 633.333333333 666.666666667 633.333333333 666.666666667C633.333333333 666.666666667 566.666666667 566.666666667 566.666666667 566.666666667C566.666666667 566.666666667 500.0 500.0 500.0 500.0C500.0 500.0 400.0 433.333333333 400.0 433.333333333C400.0 433.333333333 200.0 333.333333333 200.0 333.333333333M566.666666667 433.333333333C566.666666667 433.333333333 666.666666667 366.666666667 666.666666667 366.666666667C666.666666667 366.666666667 733.333333333 300.0 733.333333333 300.0C733.333333333 300.0 733.333333333 266.666666667 733.333333333 266.666666667C733.333333333 266.666666667 700.0 266.666666667 700.0 266.666666667C700.0 266.666666667 666.666666667 333.333333333 666.666666667 333.333333333C666.666666667 333.333333333 566.666666667 433.333333333 566.666666667 433.333333333M733.333333333 800.0C733.333333333 800.0 800.0 733.333333333 800.0 733.333333333M800.0 866.666666667C800.0 866.666666667 866.666666667 800.0 866.666666667 800.0" glyph-name="Ï" horiz-adv-x="900.0" unicode="Ï"/><glyph d="M333.333333333 866.666666667C333.333333333 866.666666667 400.0 833.333333333 400.0 833.333333333C400.0 833.333333333 400.0 766.666666667 400.0 766.666666667C400.0 766.666666667 333.333333333 566.666666667 333.333333333 566.666666667C333.333333333 566.666666667 300.0 466.666666667 300.0 466.666666667C300.0 466.666666667 233.333333333 300.0 233.333333333 300.0C233.333333333 300.0 166.666666667 166.666666667 166.666666667 166.666666667M366.666666667 833.333333333C366.666666667 833.333333333 366.666666667 733.333333333 366.666666667 733.333333333C366.666666667 733.333333333 333.333333333 566.666666667 333.333333333 566.666666667M300.0 466.666666667C300.0 466.666666667 233.333333333 333.333333333 233.333333333 333.333333333C233.333333333 333.333333333 166.666666667 233.333333333 166.666666667 233.333333333C166.666666667 233.333333333 166.666666667 166.666666667 166.666666667 166.666666667M133.333333333 633.333333333C133.333333333 633.333333333 200.0 600.0 200.0 600.0C200.0 600.0 300.0 600.0 300.0 600.0C300.0 600.0 400.0 633.333333333 400.0 633.333333333C400.0 633.333333333 466.666666667 666.666666667 466.666666667 666.666666667C466.666666667 666.666666667 533.333333333 700.0 533.333333333 700.0M466.666666667 666.666666667C466.666666667 666.666666667 500.0 733.333333333 500.0 733.333333333C500.0 733.333333333 533.333333333 700.0 533.333333333 700.0M566.666666667 600.0C566.666666667 600.0 666.666666667 600.0 666.666666667 600.0C666.666666667 600.0 766.666666667 566.666666667 766.666666667 566.666666667C766.666666667 566.666666667 700.0 566.666666667 700.0 566.666666667C700.0 566.666666667 633.333333333 533.333333333 633.333333333 533.333333333M666.666666667 600.0C666.666666667 600.0 700.0 566.666666667 700.0 566.666666667M466.666666667 333.333333333C466.666666667 333.333333333 500.0 266.666666667 500.0 266.666666667C500.0 266.666666667 533.333333333 233.333333333 533.333333333 233.333333333C533.333333333 233.333333333 600.0 200.0 600.0 200.0C600.0 200.0 766.666666667 200.0 766.666666667 200.0M500.0 266.666666667C500.0 266.666666667 566.666666667 233.333333333 566.666666667 233.333333333C566.666666667 233.333333333 800.0 233.333333333 800.0 233.333333333C800.0 233.333333333 766.666666667 200.0 766.666666667 200.0" glyph-name="P" horiz-adv-x="900.0" unicode="P"/><glyph d="M266.666666667 733.333333333C266.666666667 733.333333333 366.666666667 733.333333333 366.666666667 733.333333333C366.666666667 733.333333333 533.333333333 766.666666667 533.333333333 766.666666667C533.333333333 766.666666667 666.666666667 833.333333333 666.666666667 833.333333333M366.666666667 733.333333333C366.666666667 733.333333333 466.666666667 766.666666667 466.666666667 766.666666667C466.666666667 766.666666667 533.333333333 800.0 533.333333333 800.0C533.333333333 800.0 633.333333333 866.666666667 633.333333333 866.666666667C633.333333333 866.666666667 666.666666667 833.333333333 666.666666667 833.333333333M400.0 733.333333333C400.0 733.333333333 500.0 700.0 500.0 700.0C500.0 700.0 500.0 500.0 500.0 500.0C500.0 500.0 466.666666667 366.666666667 466.666666667 366.666666667C466.666666667 366.666666667 400.0 266.666666667 400.0 266.666666667C400.0 266.666666667 300.0 166.666666667 300.0 166.666666667M466.666666667 700.0C466.666666667 700.0 466.666666667 500.0 466.666666667 500.0C466.666666667 500.0 433.333333333 366.666666667 433.333333333 366.666666667C433.333333333 366.666666667 366.666666667 233.333333333 366.666666667 233.333333333M133.333333333 600.0C133.333333333 600.0 200.0 533.333333333 200.0 533.333333333C200.0 533.333333333 366.666666667 566.666666667 366.666666667 566.666666667C366.666666667 566.666666667 566.666666667 600.0 566.666666667 600.0C566.666666667 600.0 733.333333333 633.333333333 733.333333333 633.333333333C733.333333333 633.333333333 800.0 600.0 800.0 600.0M166.666666667 566.666666667C166.666666667 566.666666667 366.666666667 566.666666667 366.666666667 566.666666667M566.666666667 600.0C566.666666667 600.0 800.0 600.0 800.0 600.0M733.333333333 800.0C733.333333333 800.0 800.0 733.333333333 800.0 733.333333333M800.0 866.666666667C800.0 866.666666667 866.666666667 800.0 866.666666667 800.0" glyph-name="Ó" horiz-adv-x="900.0" unicode="Ó"/><glyph d="M366.666666667 866.666666667C366.666666667 866.666666667 433.333333333 833.333333333 433.333333333 833.333333333C433.333333333 833.333333333 433.333333333 500.0 433.333333333 500.0M400.0 833.333333333C400.0 833.333333333 400.0 633.333333333 400.0 633.333333333C400.0 633.333333333 433.333333333 500.0 433.333333333 500.0M633.333333333 600.0C633.333333333 600.0 700.0 533.333333333 700.0 533.333333333C700.0 533.333333333 433.333333333 500.0 433.333333333 500.0M666.666666667 566.666666667C666.666666667 566.666666667 533.333333333 533.333333333 533.333333333 533.333333333C533.333333333 533.333333333 433.333333333 500.0 433.333333333 500.0C433.333333333 500.0 333.333333333 466.666666667 333.333333333 466.666666667C333.333333333 466.666666667 266.666666667 433.333333333 266.666666667 433.333333333C266.666666667 433.333333333 233.333333333 366.666666667 233.333333333 366.666666667C233.333333333 366.666666667 233.333333333 300.0 233.333333333 300.0C233.333333333 300.0 266.666666667 233.333333333 266.666666667 233.333333333C266.666666667 233.333333333 300.0 200.0 300.0 200.0C300.0 200.0 366.666666667 166.666666667 366.666666667 166.666666667C366.666666667 166.666666667 733.333333333 166.666666667 733.333333333 166.666666667M266.666666667 233.333333333C266.666666667 233.333333333 333.333333333 200.0 333.333333333 200.0C333.333333333 200.0 700.0 200.0 700.0 200.0C700.0 200.0 733.333333333 166.666666667 733.333333333 166.666666667" glyph-name="T" horiz-adv-x="900.0" unicode="T"/><glyph d="M266.666666667 666.666666667C266.666666667 666.666666667 333.333333333 600.0 333.333333333 600.0C333.333333333 600.0 300.0 500.0 300.0 500.0C300.0 500.0 266.666666667 433.333333333 266.666666667 433.333333333C266.666666667 433.333333333 200.0 366.666666667 200.0 366.666666667C200.0 366.666666667 133.333333333 333.333333333 133.333333333 333.333333333M300.0 633.333333333C300.0 633.333333333 266.666666667 500.0 266.666666667 500.0C266.666666667 500.0 200.0 366.666666667 200.0 366.666666667M600.0 666.666666667C600.0 666.666666667 666.666666667 600.0 666.666666667 600.0C666.666666667 600.0 733.333333333 500.0 733.333333333 500.0C733.333333333 500.0 800.0 366.666666667 800.0 366.666666667C800.0 366.666666667 800.0 333.333333333 800.0 333.333333333C800.0 333.333333333 766.666666667 333.333333333 766.666666667 333.333333333C766.666666667 333.333333333 733.333333333 466.666666667 733.333333333 466.666666667C733.333333333 466.666666667 666.666666667 600.0 666.666666667 600.0M700.0 766.666666667C700.0 766.666666667 766.666666667 700.0 766.666666667 700.0M766.666666667 833.333333333C766.666666667 833.333333333 833.333333333 766.666666667 833.333333333 766.666666667" glyph-name="×" horiz-adv-x="900.0" unicode="×"/><glyph d="M300.0 866.666666667C300.0 866.666666667 366.666666667 833.333333333 366.666666667 833.333333333C366.666666667 833.333333333 366.666666667 766.666666667 366.666666667 766.666666667C366.666666667 766.666666667 300.0 166.666666667 300.0 166.666666667M333.333333333 833.333333333C333.333333333 833.333333333 333.333333333 166.666666667 333.333333333 166.666666667C333.333333333 166.666666667 300.0 166.666666667 300.0 166.666666667C300.0 166.666666667 266.666666667 266.666666667 266.666666667 266.666666667C266.666666667 266.666666667 233.333333333 300.0 233.333333333 300.0C233.333333333 300.0 166.666666667 333.333333333 166.666666667 333.333333333M133.333333333 666.666666667C133.333333333 666.666666667 166.666666667 600.0 166.666666667 600.0C166.666666667 600.0 233.333333333 600.0 233.333333333 600.0C233.333333333 600.0 366.666666667 666.666666667 366.666666667 666.666666667C366.666666667 666.666666667 366.666666667 633.333333333 366.666666667 633.333333333M166.666666667 633.333333333C166.666666667 633.333333333 266.666666667 633.333333333 266.666666667 633.333333333C266.666666667 633.333333333 333.333333333 666.666666667 333.333333333 666.666666667C333.333333333 666.666666667 300.0 533.333333333 300.0 533.333333333M366.666666667 633.333333333C366.666666667 633.333333333 300.0 533.333333333 300.0 533.333333333C300.0 533.333333333 233.333333333 433.333333333 233.333333333 433.333333333C233.333333333 433.333333333 133.333333333 300.0 133.333333333 300.0C133.333333333 300.0 133.333333333 333.333333333 133.333333333 333.333333333C133.333333333 333.333333333 233.333333333 433.333333333 233.333333333 433.333333333C233.333333333 433.333333333 366.666666667 566.666666667 366.666666667 566.666666667C366.666666667 566.666666667 500.0 666.666666667 500.0 666.666666667C500.0 666.666666667 600.0 700.0 600.0 700.0C600.0 700.0 666.666666667 700.0 666.666666667 700.0C666.666666667 700.0 733.333333333 666.666666667 733.333333333 666.666666667C733.333333333 666.666666667 766.666666667 600.0 766.666666667 600.0C766.666666667 600.0 766.666666667 366.666666667 766.666666667 366.666666667C766.666666667 366.666666667 733.333333333 266.666666667 733.333333333 266.666666667C733.333333333 266.666666667 700.0 233.333333333 700.0 233.333333333C700.0 233.333333333 633.333333333 200.0 633.333333333 200.0C633.333333333 200.0 566.666666667 200.0 566.666666667 200.0C566.666666667 200.0 500.0 233.333333333 500.0 233.333333333C500.0 233.333333333 466.666666667 266.666666667 466.666666667 266.666666667C466.666666667 266.666666667 466.666666667 300.0 466.666666667 300.0C466.666666667 300.0 500.0 333.333333333 500.0 333.333333333C500.0 333.333333333 566.666666667 366.666666667 566.666666667 366.666666667C566.666666667 366.666666667 633.333333333 366.666666667 633.333333333 366.666666667C633.333333333 366.666666667 700.0 333.333333333 700.0 333.333333333C700.0 333.333333333 733.333333333 300.0 733.333333333 300.0C733.333333333 300.0 800.0 200.0 800.0 200.0M666.666666667 700.0C666.666666667 700.0 700.0 666.666666667 700.0 666.666666667C700.0 666.666666667 733.333333333 600.0 733.333333333 600.0C733.333333333 600.0 733.333333333 333.333333333 733.333333333 333.333333333C733.333333333 333.333333333 700.0 233.333333333 700.0 233.333333333M733.333333333 300.0C733.333333333 300.0 800.0 233.333333333 800.0 233.333333333C800.0 233.333333333 800.0 200.0 800.0 200.0" glyph-name="X" horiz-adv-x="900.0" unicode="X"/><glyph d="M400.0 866.666666667C400.0 866.666666667 500.0 833.333333333 500.0 833.333333333C500.0 833.333333333 500.0 233.333333333 500.0 233.333333333C500.0 233.333333333 466.666666667 166.666666667 466.666666667 166.666666667C466.666666667 166.666666667 433.333333333 233.333333333 433.333333333 233.333333333C433.333333333 233.333333333 366.666666667 266.666666667 366.666666667 266.666666667M466.666666667 833.333333333C466.666666667 833.333333333 466.666666667 266.666666667 466.666666667 266.666666667C466.666666667 266.666666667 433.333333333 233.333333333 433.333333333 233.333333333M133.333333333 666.666666667C133.333333333 666.666666667 200.0 600.0 200.0 600.0C200.0 600.0 366.666666667 633.333333333 366.666666667 633.333333333C366.666666667 633.333333333 566.666666667 666.666666667 566.666666667 666.666666667C566.666666667 666.666666667 733.333333333 700.0 733.333333333 700.0C733.333333333 700.0 800.0 666.666666667 800.0 666.666666667M166.666666667 633.333333333C166.666666667 633.333333333 366.666666667 633.333333333 366.666666667 633.333333333M566.666666667 666.666666667C566.666666667 666.666666667 800.0 666.666666667 800.0 666.666666667M266.666666667 433.333333333C266.666666667 433.333333333 200.0 333.333333333 200.0 333.333333333C200.0 333.333333333 166.666666667 300.0 166.666666667 300.0C166.666666667 300.0 133.333333333 300.0 133.333333333 300.0C133.333333333 300.0 133.333333333 333.333333333 133.333333333 333.333333333C133.333333333 333.333333333 200.0 366.666666667 200.0 366.666666667C200.0 366.666666667 266.666666667 433.333333333 266.666666667 433.333333333M666.666666667 433.333333333C666.666666667 433.333333333 766.666666667 366.666666667 766.666666667 366.666666667C766.666666667 366.666666667 800.0 333.333333333 800.0 333.333333333C800.0 333.333333333 800.0 300.0 800.0 300.0C800.0 300.0 766.666666667 300.0 766.666666667 300.0C766.666666667 300.0 733.333333333 366.666666667 733.333333333 366.666666667C733.333333333 366.666666667 666.666666667 433.333333333 666.666666667 433.333333333M733.333333333 833.333333333C733.333333333 833.333333333 800.0 766.666666667 800.0 766.666666667M800.0 900.0C800.0 900.0 866.666666667 833.333333333 866.666666667 833.333333333" glyph-name="Û" horiz-adv-x="900.0" unicode="Û"/><glyph d="M400.0 866.666666667C400.0 866.666666667 433.333333333 766.666666667 433.333333333 766.666666667C433.333333333 766.666666667 500.0 733.333333333 500.0 733.333333333M433.333333333 800.0C433.333333333 800.0 500.0 766.666666667 500.0 766.666666667C500.0 766.666666667 533.333333333 766.666666667 533.333333333 766.666666667C533.333333333 766.666666667 533.333333333 733.333333333 533.333333333 733.333333333M533.333333333 733.333333333C533.333333333 733.333333333 433.333333333 700.0 433.333333333 700.0C433.333333333 700.0 366.666666667 666.666666667 366.666666667 666.666666667C366.666666667 666.666666667 333.333333333 633.333333333 333.333333333 633.333333333C333.333333333 633.333333333 333.333333333 566.666666667 333.333333333 566.666666667C333.333333333 566.666666667 366.666666667 533.333333333 366.666666667 533.333333333C366.666666667 533.333333333 433.333333333 500.0 433.333333333 500.0C433.333333333 500.0 500.0 466.666666667 500.0 466.666666667C500.0 466.666666667 533.333333333 433.333333333 533.333333333 433.333333333C533.333333333 433.333333333 566.666666667 366.666666667 566.666666667 366.666666667C566.666666667 366.666666667 566.666666667 300.0 566.666666667 300.0C566.666666667 300.0 533.333333333 233.333333333 533.333333333 233.333333333C533.333333333 233.333333333 466.666666667 200.0 466.666666667 200.0C466.666666667 200.0 400.0 200.0 400.0 200.0C400.0 200.0 300.0 233.333333333 300.0 233.333333333C300.0 233.333333333 233.333333333 300.0 233.333333333 300.0M433.333333333 500.0C433.333333333 500.0 500.0 433.333333333 500.0 433.333333333C500.0 433.333333333 533.333333333 366.666666667 533.333333333 366.666666667C533.333333333 366.666666667 533.333333333 300.0 533.333333333 300.0C533.333333333 300.0 500.0 233.333333333 500.0 233.333333333C500.0 233.333333333 466.666666667 200.0 466.666666667 200.0M166.666666667 233.333333333C166.666666667 233.333333333 266.666666667 333.333333333 266.666666667 333.333333333C266.666666667 333.333333333 366.666666667 400.0 366.666666667 400.0C366.666666667 400.0 466.666666667 433.333333333 466.666666667 433.333333333M600.0 433.333333333C600.0 433.333333333 700.0 400.0 700.0 400.0C700.0 400.0 766.666666667 333.333333333 766.666666667 333.333333333C766.666666667 333.333333333 800.0 266.666666667 800.0 266.666666667C800.0 266.666666667 700.0 266.666666667 700.0 266.666666667M166.666666667 233.333333333C166.666666667 233.333333333 166.666666667 266.666666667 166.666666667 266.666666667C166.666666667 266.666666667 266.666666667 333.333333333 266.666666667 333.333333333M600.0 433.333333333C600.0 433.333333333 666.666666667 400.0 666.666666667 400.0C666.666666667 400.0 733.333333333 333.333333333 733.333333333 333.333333333C733.333333333 333.333333333 766.666666667 266.666666667 766.666666667 266.666666667" glyph-name="\" horiz-adv-x="900.0" unicode="\"/><glyph d="M100.0 500.0C100.0 500.0 166.666666667 433.333333333 166.666666667 433.333333333C166.666666667 433.333333333 400.0 666.666666667 400.0 666.666666667C400.0 666.666666667 433.333333333 666.666666667 433.333333333 666.666666667C433.333333333 666.666666667 766.666666667 333.333333333 766.666666667 333.333333333M133.333333333 466.666666667C133.333333333 466.666666667 200.0 500.0 200.0 500.0C200.0 500.0 333.333333333 600.0 333.333333333 600.0M566.666666667 533.333333333C566.666666667 533.333333333 733.333333333 400.0 733.333333333 400.0C733.333333333 400.0 800.0 366.666666667 800.0 366.666666667C800.0 366.666666667 766.666666667 333.333333333 766.666666667 333.333333333M633.333333333 800.0C633.333333333 800.0 600.0 766.666666667 600.0 766.666666667C600.0 766.666666667 600.0 700.0 600.0 700.0C600.0 700.0 633.333333333 666.666666667 633.333333333 666.666666667C633.333333333 666.666666667 700.0 666.666666667 700.0 666.666666667C700.0 666.666666667 733.333333333 700.0 733.333333333 700.0C733.333333333 700.0 733.333333333 766.666666667 733.333333333 766.666666667C733.333333333 766.666666667 700.0 800.0 700.0 800.0C700.0 800.0 633.333333333 800.0 633.333333333 800.0" glyph-name="ß" horiz-adv-x="900.0" unicode="ß"/><glyph d="M200.0 833.333333333C200.0 833.333333333 233.333333333 766.666666667 233.333333333 766.666666667C233.333333333 766.666666667 300.0 766.666666667 300.0 766.666666667C300.0 766.666666667 400.0 800.0 400.0 800.0C400.0 800.0 500.0 866.666666667 500.0 866.666666667C500.0 866.666666667 533.333333333 833.333333333 533.333333333 833.333333333M233.333333333 800.0C233.333333333 800.0 400.0 800.0 400.0 800.0M533.333333333 833.333333333C533.333333333 833.333333333 400.0 633.333333333 400.0 633.333333333C400.0 633.333333333 300.0 433.333333333 300.0 433.333333333C300.0 433.333333333 233.333333333 333.333333333 233.333333333 333.333333333C233.333333333 333.333333333 200.0 300.0 200.0 300.0C200.0 300.0 166.666666667 300.0 166.666666667 300.0C166.666666667 300.0 133.333333333 333.333333333 133.333333333 333.333333333C133.333333333 333.333333333 133.333333333 400.0 133.333333333 400.0C133.333333333 400.0 166.666666667 466.666666667 166.666666667 466.666666667C166.666666667 466.666666667 233.333333333 500.0 233.333333333 500.0C233.333333333 500.0 400.0 500.0 400.0 500.0C400.0 500.0 533.333333333 466.666666667 533.333333333 466.666666667C533.333333333 466.666666667 633.333333333 433.333333333 633.333333333 433.333333333C633.333333333 433.333333333 800.0 366.666666667 800.0 366.666666667M500.0 866.666666667C500.0 866.666666667 400.0 633.333333333 400.0 633.333333333M533.333333333 466.666666667C533.333333333 466.666666667 800.0 400.0 800.0 400.0C800.0 400.0 800.0 366.666666667 800.0 366.666666667M600.0 633.333333333C600.0 633.333333333 666.666666667 600.0 666.666666667 600.0C666.666666667 600.0 666.666666667 400.0 666.666666667 400.0C666.666666667 400.0 633.333333333 300.0 633.333333333 300.0C633.333333333 300.0 566.666666667 233.333333333 566.666666667 233.333333333C566.666666667 233.333333333 500.0 200.0 500.0 200.0C500.0 200.0 400.0 166.666666667 400.0 166.666666667M633.333333333 600.0C633.333333333 600.0 633.333333333 366.666666667 633.333333333 366.666666667C633.333333333 366.666666667 600.0 266.666666667 600.0 266.666666667" glyph-name="`" horiz-adv-x="900.0" unicode="`"/><glyph d="M400.0 866.666666667C400.0 866.666666667 466.666666667 833.333333333 466.666666667 833.333333333C466.666666667 833.333333333 500.0 800.0 500.0 800.0C500.0 800.0 533.333333333 733.333333333 533.333333333 733.333333333C533.333333333 733.333333333 500.0 700.0 500.0 700.0C500.0 700.0 400.0 733.333333333 400.0 733.333333333C400.0 733.333333333 300.0 733.333333333 300.0 733.333333333C300.0 733.333333333 266.666666667 700.0 266.666666667 700.0C266.666666667 700.0 266.666666667 633.333333333 266.666666667 633.333333333C266.666666667 633.333333333 366.666666667 400.0 366.666666667 400.0C366.666666667 400.0 433.333333333 166.666666667 433.333333333 166.666666667M466.666666667 833.333333333C466.666666667 833.333333333 500.0 766.666666667 500.0 766.666666667C500.0 766.666666667 500.0 700.0 500.0 700.0M366.666666667 400.0C366.666666667 400.0 466.666666667 200.0 466.666666667 200.0C466.666666667 200.0 433.333333333 166.666666667 433.333333333 166.666666667M133.333333333 600.0C133.333333333 600.0 166.666666667 533.333333333 166.666666667 533.333333333C166.666666667 533.333333333 233.333333333 533.333333333 233.333333333 533.333333333C233.333333333 533.333333333 333.333333333 600.0 333.333333333 600.0C333.333333333 600.0 466.666666667 666.666666667 466.666666667 666.666666667C466.666666667 666.666666667 600.0 700.0 600.0 700.0C600.0 700.0 700.0 700.0 700.0 700.0C700.0 700.0 766.666666667 666.666666667 766.666666667 666.666666667C766.666666667 666.666666667 800.0 600.0 800.0 600.0C800.0 600.0 800.0 533.333333333 800.0 533.333333333C800.0 533.333333333 766.666666667 466.666666667 766.666666667 466.666666667C766.666666667 466.666666667 733.333333333 433.333333333 733.333333333 433.333333333C733.333333333 433.333333333 633.333333333 400.0 633.333333333 400.0C633.333333333 400.0 533.333333333 400.0 533.333333333 400.0C533.333333333 400.0 433.333333333 433.333333333 433.333333333 433.333333333M166.666666667 566.666666667C166.666666667 566.666666667 233.333333333 566.666666667 233.333333333 566.666666667C233.333333333 566.666666667 333.333333333 600.0 333.333333333 600.0M700.0 700.0C700.0 700.0 733.333333333 666.666666667 733.333333333 666.666666667C733.333333333 666.666666667 766.666666667 600.0 766.666666667 600.0C766.666666667 600.0 766.666666667 533.333333333 766.666666667 533.333333333C766.666666667 533.333333333 733.333333333 466.666666667 733.333333333 466.666666667C733.333333333 466.666666667 700.0 433.333333333 700.0 433.333333333C700.0 433.333333333 633.333333333 400.0 633.333333333 400.0" glyph-name="d" horiz-adv-x="900.0" unicode="d"/><glyph d="M400.0 866.666666667C400.0 866.666666667 500.0 833.333333333 500.0 833.333333333C500.0 833.333333333 500.0 766.666666667 500.0 766.666666667C500.0 766.666666667 466.666666667 600.0 466.666666667 600.0M466.666666667 833.333333333C466.666666667 833.333333333 466.666666667 266.666666667 466.666666667 266.666666667C466.666666667 266.666666667 433.333333333 200.0 433.333333333 200.0C433.333333333 200.0 366.666666667 166.666666667 366.666666667 166.666666667C366.666666667 166.666666667 266.666666667 166.666666667 266.666666667 166.666666667C266.666666667 166.666666667 200.0 200.0 200.0 200.0C200.0 200.0 166.666666667 233.333333333 166.666666667 233.333333333C166.666666667 233.333333333 166.666666667 300.0 166.666666667 300.0C166.666666667 300.0 200.0 333.333333333 200.0 333.333333333C200.0 333.333333333 266.666666667 366.666666667 266.666666667 366.666666667C266.666666667 366.666666667 366.666666667 366.666666667 366.666666667 366.666666667C366.666666667 366.666666667 466.666666667 333.333333333 466.666666667 333.333333333C466.666666667 333.333333333 600.0 266.666666667 600.0 266.666666667C600.0 266.666666667 766.666666667 166.666666667 766.666666667 166.666666667M466.666666667 333.333333333C466.666666667 333.333333333 633.333333333 266.666666667 633.333333333 266.666666667C633.333333333 266.666666667 766.666666667 200.0 766.666666667 200.0C766.666666667 200.0 766.666666667 166.666666667 766.666666667 166.666666667M466.666666667 600.0C466.666666667 600.0 566.666666667 600.0 566.666666667 600.0C566.666666667 600.0 700.0 633.333333333 700.0 633.333333333M566.666666667 600.0C566.666666667 600.0 633.333333333 633.333333333 633.333333333 633.333333333C633.333333333 633.333333333 666.666666667 666.666666667 666.666666667 666.666666667C666.666666667 666.666666667 700.0 633.333333333 700.0 633.333333333" glyph-name="h" horiz-adv-x="900.0" unicode="h"/><glyph d="M300.0 866.666666667C300.0 866.666666667 366.666666667 833.333333333 366.666666667 833.333333333C366.666666667 833.333333333 366.666666667 766.666666667 366.666666667 766.666666667C366.666666667 766.666666667 300.0 166.666666667 300.0 166.666666667M333.333333333 833.333333333C333.333333333 833.333333333 333.333333333 166.666666667 333.333333333 166.666666667C333.333333333 166.666666667 300.0 166.666666667 300.0 166.666666667C300.0 166.666666667 266.666666667 266.666666667 266.666666667 266.666666667C266.666666667 266.666666667 233.333333333 300.0 233.333333333 300.0C233.333333333 300.0 166.666666667 333.333333333 166.666666667 333.333333333M133.333333333 666.666666667C133.333333333 666.666666667 166.666666667 600.0 166.666666667 600.0C166.666666667 600.0 233.333333333 600.0 233.333333333 600.0C233.333333333 600.0 366.666666667 666.666666667 366.666666667 666.666666667C366.666666667 666.666666667 366.666666667 633.333333333 366.666666667 633.333333333M166.666666667 633.333333333C166.666666667 633.333333333 266.666666667 633.333333333 266.666666667 633.333333333C266.666666667 633.333333333 366.666666667 666.666666667 366.666666667 666.666666667C366.666666667 666.666666667 300.0 533.333333333 300.0 533.333333333M366.666666667 633.333333333C366.666666667 633.333333333 300.0 533.333333333 300.0 533.333333333C300.0 533.333333333 233.333333333 433.333333333 233.333333333 433.333333333C233.333333333 433.333333333 133.333333333 300.0 133.333333333 300.0C133.333333333 300.0 133.333333333 333.333333333 133.333333333 333.333333333C133.333333333 333.333333333 233.333333333 433.333333333 233.333333333 433.333333333C233.333333333 433.333333333 366.666666667 566.666666667 366.666666667 566.666666667C366.666666667 566.666666667 500.0 666.666666667 500.0 666.666666667C500.0 666.666666667 600.0 700.0 600.0 700.0C600.0 700.0 633.333333333 700.0 633.333333333 700.0C633.333333333 700.0 700.0 666.666666667 700.0 666.666666667C700.0 666.666666667 733.333333333 600.0 733.333333333 600.0C733.333333333 600.0 700.0 266.666666667 700.0 266.666666667C700.0 266.666666667 700.0 200.0 700.0 200.0C700.0 200.0 733.333333333 166.666666667 733.333333333 166.666666667M633.333333333 700.0C633.333333333 700.0 666.666666667 666.666666667 666.666666667 666.666666667C666.666666667 666.666666667 700.0 600.0 700.0 600.0C700.0 600.0 666.666666667 266.666666667 666.666666667 266.666666667C666.666666667 266.666666667 666.666666667 200.0 666.666666667 200.0C666.666666667 200.0 700.0 166.666666667 700.0 166.666666667C700.0 166.666666667 733.333333333 166.666666667 733.333333333 166.666666667C733.333333333 166.666666667 766.666666667 200.0 766.666666667 200.0C766.666666667 200.0 800.0 266.666666667 800.0 266.666666667" glyph-name="l" horiz-adv-x="900.0" unicode="l"/><glyph d="M333.333333333 900.0C333.333333333 900.0 366.666666667 866.666666667 366.666666667 866.666666667C366.666666667 866.666666667 433.333333333 833.333333333 433.333333333 833.333333333C433.333333333 833.333333333 566.666666667 833.333333333 566.666666667 833.333333333M366.666666667 866.666666667C366.666666667 866.666666667 533.333333333 866.666666667 533.333333333 866.666666667C533.333333333 866.666666667 566.666666667 833.333333333 566.666666667 833.333333333C566.666666667 833.333333333 433.333333333 766.666666667 433.333333333 766.666666667M233.333333333 633.333333333C233.333333333 633.333333333 233.333333333 600.0 233.333333333 600.0C233.333333333 600.0 266.666666667 566.666666667 266.666666667 566.666666667C266.666666667 566.666666667 300.0 566.666666667 300.0 566.666666667C300.0 566.666666667 400.0 633.333333333 400.0 633.333333333C400.0 633.333333333 466.666666667 666.666666667 466.666666667 666.666666667M233.333333333 600.0C233.333333333 600.0 266.666666667 600.0 266.666666667 600.0C266.666666667 600.0 366.666666667 633.333333333 366.666666667 633.333333333C366.666666667 633.333333333 466.666666667 666.666666667 466.666666667 666.666666667C466.666666667 666.666666667 533.333333333 666.666666667 533.333333333 666.666666667C533.333333333 666.666666667 633.333333333 633.333333333 633.333333333 633.333333333C633.333333333 633.333333333 666.666666667 566.666666667 666.666666667 566.666666667C666.666666667 566.666666667 666.666666667 466.666666667 666.666666667 466.666666667C666.666666667 466.666666667 633.333333333 366.666666667 633.333333333 366.666666667C633.333333333 366.666666667 566.666666667 266.666666667 566.666666667 266.666666667C566.666666667 266.666666667 466.666666667 200.0 466.666666667 200.0C466.666666667 200.0 333.333333333 133.333333333 333.333333333 133.333333333M533.333333333 666.666666667C533.333333333 666.666666667 600.0 633.333333333 600.0 633.333333333C600.0 633.333333333 633.333333333 566.666666667 633.333333333 566.666666667C633.333333333 566.666666667 633.333333333 466.666666667 633.333333333 466.666666667C633.333333333 466.666666667 600.0 366.666666667 600.0 366.666666667C600.0 366.666666667 566.666666667 300.0 566.666666667 300.0C566.666666667 300.0 500.0 233.333333333 500.0 233.333333333C500.0 233.333333333 400.0 166.666666667 400.0 166.666666667" glyph-name="p" horiz-adv-x="900.0" unicode="p"/><glyph d="M133.333333333 233.333333333C133.333333333 233.333333333 100.0 200.0 100.0 200.0C100.0 200.0 133.333333333 166.666666667 133.333333333 166.666666667C133.333333333 166.666666667 166.666666667 200.0 166.666666667 200.0C166.666666667 200.0 133.333333333 233.333333333 133.333333333 233.333333333" glyph-name="t" horiz-adv-x="900.0" unicode="t"/><glyph d="M333.333333333 866.666666667C333.333333333 866.666666667 400.0 833.333333333 400.0 833.333333333C400.0 833.333333333 400.0 766.666666667 400.0 766.666666667C400.0 766.666666667 366.666666667 666.666666667 366.666666667 666.666666667C366.666666667 666.666666667 300.0 500.0 300.0 500.0C300.0 500.0 133.333333333 166.666666667 133.333333333 166.666666667M366.666666667 833.333333333C366.666666667 833.333333333 366.666666667 766.666666667 366.666666667 766.666666667C366.666666667 766.666666667 300.0 566.666666667 300.0 566.666666667C300.0 566.666666667 233.333333333 400.0 233.333333333 400.0C233.333333333 400.0 133.333333333 166.666666667 133.333333333 166.666666667M133.333333333 633.333333333C133.333333333 633.333333333 133.333333333 600.0 133.333333333 600.0C133.333333333 600.0 166.666666667 566.666666667 166.666666667 566.666666667C166.666666667 566.666666667 200.0 566.666666667 200.0 566.666666667C200.0 566.666666667 300.0 633.333333333 300.0 633.333333333C300.0 633.333333333 366.666666667 666.666666667 366.666666667 666.666666667C366.666666667 666.666666667 466.666666667 666.666666667 466.666666667 666.666666667C466.666666667 666.666666667 533.333333333 633.333333333 533.333333333 633.333333333C533.333333333 633.333333333 566.666666667 566.666666667 566.666666667 566.666666667C566.666666667 566.666666667 566.666666667 466.666666667 566.666666667 466.666666667C566.666666667 466.666666667 533.333333333 333.333333333 533.333333333 333.333333333C533.333333333 333.333333333 466.666666667 200.0 466.666666667 200.0C466.666666667 200.0 433.333333333 166.666666667 433.333333333 166.666666667C433.333333333 166.666666667 400.0 166.666666667 400.0 166.666666667C400.0 166.666666667 400.0 200.0 400.0 200.0C400.0 200.0 366.666666667 233.333333333 366.666666667 233.333333333C366.666666667 233.333333333 300.0 266.666666667 300.0 266.666666667M133.333333333 600.0C133.333333333 600.0 200.0 600.0 200.0 600.0C200.0 600.0 300.0 633.333333333 300.0 633.333333333M466.666666667 666.666666667C466.666666667 666.666666667 533.333333333 600.0 533.333333333 600.0C533.333333333 600.0 533.333333333 466.666666667 533.333333333 466.666666667C533.333333333 466.666666667 500.0 333.333333333 500.0 333.333333333C500.0 333.333333333 466.666666667 266.666666667 466.666666667 266.666666667C466.666666667 266.666666667 400.0 200.0 400.0 200.0M633.333333333 633.333333333C633.333333333 633.333333333 700.0 600.0 700.0 600.0C700.0 600.0 766.666666667 533.333333333 766.666666667 533.333333333C766.666666667 533.333333333 800.0 466.666666667 800.0 466.666666667C800.0 466.666666667 800.0 400.0 800.0 400.0C800.0 400.0 766.666666667 433.333333333 766.666666667 433.333333333C766.666666667 433.333333333 700.0 400.0 700.0 400.0M733.333333333 566.666666667C733.333333333 566.666666667 766.666666667 500.0 766.666666667 500.0C766.666666667 500.0 766.666666667 433.333333333 766.666666667 433.333333333M633.333333333 800.0C633.333333333 800.0 700.0 733.333333333 700.0 733.333333333M700.0 866.666666667C700.0 866.666666667 766.666666667 800.0 766.666666667 800.0" glyph-name="x" horiz-adv-x="900.0" unicode="x"/><glyph d="M300.0 800.0C300.0 800.0 366.666666667 766.666666667 366.666666667 766.666666667C366.666666667 766.666666667 466.666666667 733.333333333 466.666666667 733.333333333C466.666666667 733.333333333 533.333333333 733.333333333 533.333333333 733.333333333C533.333333333 733.333333333 633.333333333 766.666666667 633.333333333 766.666666667M366.666666667 766.666666667C366.666666667 766.666666667 533.333333333 766.666666667 533.333333333 766.666666667C533.333333333 766.666666667 600.0 800.0 600.0 800.0C600.0 800.0 633.333333333 766.666666667 633.333333333 766.666666667C633.333333333 766.666666667 433.333333333 666.666666667 433.333333333 666.666666667M233.333333333 433.333333333C233.333333333 433.333333333 233.333333333 366.666666667 233.333333333 366.666666667C233.333333333 366.666666667 266.666666667 300.0 266.666666667 300.0C266.666666667 300.0 333.333333333 266.666666667 333.333333333 266.666666667C333.333333333 266.666666667 466.666666667 233.333333333 466.666666667 233.333333333C466.666666667 233.333333333 700.0 233.333333333 700.0 233.333333333M333.333333333 266.666666667C333.333333333 266.666666667 666.666666667 266.666666667 666.666666667 266.666666667C666.666666667 266.666666667 700.0 233.333333333 700.0 233.333333333M700.0 833.333333333C700.0 833.333333333 766.666666667 766.666666667 766.666666667 766.666666667M766.666666667 900.0C766.666666667 900.0 833.333333333 833.333333333 833.333333333 833.333333333" glyph-name="|" horiz-adv-x="900.0" unicode="|"/><glyph d="M266.666666667 733.333333333C266.666666667 733.333333333 333.333333333 700.0 333.333333333 700.0C333.333333333 700.0 333.333333333 333.333333333 333.333333333 333.333333333C333.333333333 333.333333333 366.666666667 266.666666667 366.666666667 266.666666667C366.666666667 266.666666667 400.0 233.333333333 400.0 233.333333333C400.0 233.333333333 466.666666667 200.0 466.666666667 200.0C466.666666667 200.0 733.333333333 200.0 733.333333333 200.0M300.0 700.0C300.0 700.0 333.333333333 600.0 333.333333333 600.0M566.666666667 200.0C566.666666667 200.0 666.666666667 233.333333333 666.666666667 233.333333333C666.666666667 233.333333333 700.0 233.333333333 700.0 233.333333333C700.0 233.333333333 733.333333333 200.0 733.333333333 200.0M566.666666667 833.333333333C566.666666667 833.333333333 633.333333333 800.0 633.333333333 800.0C633.333333333 800.0 633.333333333 400.0 633.333333333 400.0C633.333333333 400.0 600.0 333.333333333 600.0 333.333333333C600.0 333.333333333 566.666666667 366.666666667 566.666666667 366.666666667C566.666666667 366.666666667 466.666666667 433.333333333 466.666666667 433.333333333M600.0 800.0C600.0 800.0 633.333333333 700.0 633.333333333 700.0M633.333333333 500.0C633.333333333 500.0 600.0 400.0 600.0 400.0C600.0 400.0 566.666666667 366.666666667 566.666666667 366.666666667M133.333333333 600.0C133.333333333 600.0 200.0 533.333333333 200.0 533.333333333C200.0 533.333333333 266.666666667 533.333333333 266.666666667 533.333333333C266.666666667 533.333333333 400.0 566.666666667 400.0 566.666666667C400.0 566.666666667 566.666666667 600.0 566.666666667 600.0C566.666666667 600.0 700.0 633.333333333 700.0 633.333333333C700.0 633.333333333 766.666666667 633.333333333 766.666666667 633.333333333C766.666666667 633.333333333 800.0 600.0 800.0 600.0M166.666666667 566.666666667C166.666666667 566.666666667 400.0 566.666666667 400.0 566.666666667M566.666666667 600.0C566.666666667 600.0 800.0 600.0 800.0 600.0M733.333333333 800.0C733.333333333 800.0 800.0 733.333333333 800.0 733.333333333M800.0 866.666666667C800.0 866.666666667 866.666666667 800.0 866.666666667 800.0" glyph-name="" horiz-adv-x="900.0" unicode=""/><glyph d="M133.333333333 666.666666667C133.333333333 666.666666667 200.0 600.0 200.0 600.0C200.0 600.0 366.666666667 666.666666667 366.666666667 666.666666667C366.666666667 666.666666667 500.0 700.0 500.0 700.0C500.0 700.0 633.333333333 700.0 633.333333333 700.0C633.333333333 700.0 733.333333333 666.666666667 733.333333333 666.666666667C733.333333333 666.666666667 766.666666667 633.333333333 766.666666667 633.333333333C766.666666667 633.333333333 800.0 566.666666667 800.0 566.666666667C800.0 566.666666667 800.0 466.666666667 800.0 466.666666667C800.0 466.666666667 766.666666667 400.0 766.666666667 400.0C766.666666667 400.0 733.333333333 366.666666667 733.333333333 366.666666667C733.333333333 366.666666667 666.666666667 333.333333333 666.666666667 333.333333333C666.666666667 333.333333333 566.666666667 300.0 566.666666667 300.0C566.666666667 300.0 400.0 266.666666667 400.0 266.666666667M166.666666667 633.333333333C166.666666667 633.333333333 366.666666667 666.666666667 366.666666667 666.666666667M633.333333333 700.0C633.333333333 700.0 700.0 666.666666667 700.0 666.666666667C700.0 666.666666667 733.333333333 633.333333333 733.333333333 633.333333333C733.333333333 633.333333333 766.666666667 566.666666667 766.666666667 566.666666667C766.666666667 566.666666667 766.666666667 466.666666667 766.666666667 466.666666667C766.666666667 466.666666667 733.333333333 400.0 733.333333333 400.0C733.333333333 400.0 666.666666667 333.333333333 666.666666667 333.333333333M733.333333333 800.0C733.333333333 800.0 800.0 733.333333333 800.0 733.333333333M800.0 866.666666667C800.0 866.666666667 866.666666667 800.0 866.666666667 800.0" glyph-name="" horiz-adv-x="900.0" unicode=""/><glyph d="M166.666666667 833.333333333C166.666666667 833.333333333 200.0 800.0 200.0 800.0C200.0 800.0 266.666666667 766.666666667 266.666666667 766.666666667C266.666666667 766.666666667 400.0 766.666666667 400.0 766.666666667M200.0 800.0C200.0 800.0 366.666666667 800.0 366.666666667 800.0C366.666666667 800.0 400.0 766.666666667 400.0 766.666666667M400.0 766.666666667C400.0 766.666666667 300.0 700.0 300.0 700.0C300.0 700.0 233.333333333 633.333333333 233.333333333 633.333333333C233.333333333 633.333333333 166.666666667 533.333333333 166.666666667 533.333333333C166.666666667 533.333333333 133.333333333 433.333333333 133.333333333 433.333333333C133.333333333 433.333333333 133.333333333 333.333333333 133.333333333 333.333333333C133.333333333 333.333333333 166.666666667 266.666666667 166.666666667 266.666666667C166.666666667 266.666666667 200.0 233.333333333 200.0 233.333333333C200.0 233.333333333 266.666666667 200.0 266.666666667 200.0C266.666666667 200.0 366.666666667 200.0 366.666666667 200.0C366.666666667 200.0 466.666666667 233.333333333 466.666666667 233.333333333C466.666666667 233.333333333 533.333333333 300.0 533.333333333 300.0C533.333333333 300.0 566.666666667 366.666666667 566.666666667 366.666666667C566.666666667 366.666666667 600.0 500.0 600.0 500.0C600.0 500.0 600.0 633.333333333 600.0 633.333333333C600.0 633.333333333 566.666666667 766.666666667 566.666666667 766.666666667C566.666666667 766.666666667 600.0 766.666666667 600.0 766.666666667M133.333333333 366.666666667C133.333333333 366.666666667 166.666666667 300.0 166.666666667 300.0C166.666666667 300.0 200.0 266.666666667 200.0 266.666666667C200.0 266.666666667 266.666666667 233.333333333 266.666666667 233.333333333C266.666666667 233.333333333 366.666666667 233.333333333 366.666666667 233.333333333C366.666666667 233.333333333 466.666666667 266.666666667 466.666666667 266.666666667C466.666666667 266.666666667 533.333333333 333.333333333 533.333333333 333.333333333C533.333333333 333.333333333 566.666666667 400.0 566.666666667 400.0C566.666666667 400.0 600.0 500.0 600.0 500.0M600.0 766.666666667C600.0 766.666666667 666.666666667 666.666666667 666.666666667 666.666666667C666.666666667 666.666666667 700.0 600.0 700.0 600.0C700.0 600.0 766.666666667 500.0 766.666666667 500.0C766.666666667 500.0 800.0 433.333333333 800.0 433.333333333C800.0 433.333333333 733.333333333 433.333333333 733.333333333 433.333333333C733.333333333 433.333333333 700.0 400.0 700.0 400.0M566.666666667 766.666666667C566.666666667 766.666666667 666.666666667 666.666666667 666.666666667 666.666666667M700.0 600.0C700.0 600.0 733.333333333 500.0 733.333333333 500.0C733.333333333 500.0 733.333333333 433.333333333 733.333333333 433.333333333M700.0 800.0C700.0 800.0 766.666666667 733.333333333 766.666666667 733.333333333M766.666666667 866.666666667C766.666666667 866.666666667 833.333333333 800.0 833.333333333 800.0" glyph-name="" horiz-adv-x="900.0" unicode=""/><glyph d="M166.666666667 833.333333333C166.666666667 833.333333333 233.333333333 800.0 233.333333333 800.0C233.333333333 800.0 233.333333333 733.333333333 233.333333333 733.333333333C233.333333333 733.333333333 200.0 633.333333333 200.0 633.333333333C200.0 633.333333333 166.666666667 500.0 166.666666667 500.0M200.0 800.0C200.0 800.0 200.0 700.0 200.0 700.0C200.0 700.0 166.666666667 500.0 166.666666667 500.0C166.666666667 500.0 166.666666667 366.666666667 166.666666667 366.666666667C166.666666667 366.666666667 200.0 233.333333333 200.0 233.333333333C200.0 233.333333333 233.333333333 200.0 233.333333333 200.0C233.333333333 200.0 233.333333333 266.666666667 233.333333333 266.666666667C233.333333333 266.666666667 266.666666667 400.0 266.666666667 400.0C266.666666667 400.0 300.0 500.0 300.0 500.0M166.666666667 366.666666667C166.666666667 366.666666667 200.0 300.0 200.0 300.0C200.0 300.0 233.333333333 266.666666667 233.333333333 266.666666667M566.666666667 833.333333333C566.666666667 833.333333333 633.333333333 800.0 633.333333333 800.0C633.333333333 800.0 633.333333333 300.0 633.333333333 300.0C633.333333333 300.0 600.0 233.333333333 600.0 233.333333333C600.0 233.333333333 533.333333333 200.0 533.333333333 200.0C533.333333333 200.0 466.666666667 200.0 466.666666667 200.0C466.666666667 200.0 400.0 233.333333333 400.0 233.333333333C400.0 233.333333333 366.666666667 300.0 366.666666667 300.0C366.666666667 300.0 400.0 366.666666667 400.0 366.666666667C400.0 366.666666667 466.666666667 400.0 466.666666667 400.0C466.666666667 400.0 533.333333333 400.0 533.333333333 400.0C533.333333333 400.0 600.0 366.666666667 600.0 366.666666667C600.0 366.666666667 766.666666667 233.333333333 766.666666667 233.333333333M600.0 800.0C600.0 800.0 633.333333333 666.666666667 633.333333333 666.666666667M600.0 366.666666667C600.0 366.666666667 766.666666667 266.666666667 766.666666667 266.666666667C766.666666667 266.666666667 766.666666667 233.333333333 766.666666667 233.333333333M400.0 633.333333333C400.0 633.333333333 466.666666667 600.0 466.666666667 600.0C466.666666667 600.0 566.666666667 600.0 566.666666667 600.0C566.666666667 600.0 700.0 633.333333333 700.0 633.333333333C700.0 633.333333333 766.666666667 666.666666667 766.666666667 666.666666667M700.0 633.333333333C700.0 633.333333333 733.333333333 700.0 733.333333333 700.0C733.333333333 700.0 766.666666667 666.666666667 766.666666667 666.666666667M766.666666667 900.0C766.666666667 900.0 733.333333333 866.666666667 733.333333333 866.666666667C733.333333333 866.666666667 733.333333333 800.0 733.333333333 800.0C733.333333333 800.0 766.666666667 766.666666667 766.666666667 766.666666667C766.666666667 766.666666667 833.333333333 766.666666667 833.333333333 766.666666667C833.333333333 766.666666667 866.666666667 800.0 866.666666667 800.0C866.666666667 800.0 866.666666667 866.666666667 866.666666667 866.666666667C866.666666667 866.666666667 833.333333333 900.0 833.333333333 900.0C833.333333333 900.0 766.666666667 900.0 766.666666667 900.0" glyph-name="" horiz-adv-x="900.0" unicode=""/><glyph d="M166.666666667 833.333333333C166.666666667 833.333333333 233.333333333 800.0 233.333333333 800.0C233.333333333 800.0 233.333333333 733.333333333 233.333333333 733.333333333C233.333333333 733.333333333 200.0 633.333333333 200.0 633.333333333C200.0 633.333333333 166.666666667 500.0 166.666666667 500.0M200.0 800.0C200.0 800.0 200.0 700.0 200.0 700.0C200.0 700.0 166.666666667 500.0 166.666666667 500.0C166.666666667 500.0 166.666666667 366.666666667 166.666666667 366.666666667C166.666666667 366.666666667 200.0 233.333333333 200.0 233.333333333C200.0 233.333333333 233.333333333 200.0 233.333333333 200.0C233.333333333 200.0 233.333333333 266.666666667 233.333333333 266.666666667C233.333333333 266.666666667 266.666666667 400.0 266.666666667 400.0C266.666666667 400.0 300.0 500.0 300.0 500.0M166.666666667 366.666666667C166.666666667 366.666666667 200.0 300.0 200.0 300.0C200.0 300.0 233.333333333 266.666666667 233.333333333 266.666666667M433.333333333 833.333333333C433.333333333 833.333333333 500.0 800.0 500.0 800.0C500.0 800.0 566.666666667 800.0 566.666666667 800.0C566.666666667 800.0 700.0 833.333333333 700.0 833.333333333M566.666666667 800.0C566.666666667 800.0 633.333333333 833.333333333 633.333333333 833.333333333C633.333333333 833.333333333 666.666666667 866.666666667 666.666666667 866.666666667C666.666666667 866.666666667 700.0 833.333333333 700.0 833.333333333M400.0 566.666666667C400.0 566.666666667 500.0 533.333333333 500.0 533.333333333C500.0 533.333333333 600.0 533.333333333 600.0 533.333333333C600.0 533.333333333 700.0 566.666666667 700.0 566.666666667C700.0 566.666666667 766.666666667 600.0 766.666666667 600.0M700.0 566.666666667C700.0 566.666666667 733.333333333 633.333333333 733.333333333 633.333333333C733.333333333 633.333333333 766.666666667 600.0 766.666666667 600.0M566.666666667 800.0C566.666666667 800.0 633.333333333 766.666666667 633.333333333 766.666666667C633.333333333 766.666666667 633.333333333 300.0 633.333333333 300.0C633.333333333 300.0 600.0 233.333333333 600.0 233.333333333C600.0 233.333333333 533.333333333 200.0 533.333333333 200.0C533.333333333 200.0 466.666666667 200.0 466.666666667 200.0C466.666666667 200.0 400.0 233.333333333 400.0 233.333333333C400.0 233.333333333 366.666666667 300.0 366.666666667 300.0C366.666666667 300.0 400.0 366.666666667 400.0 366.666666667C400.0 366.666666667 466.666666667 400.0 466.666666667 400.0C466.666666667 400.0 533.333333333 400.0 533.333333333 400.0C533.333333333 400.0 600.0 366.666666667 600.0 366.666666667C600.0 366.666666667 766.666666667 233.333333333 766.666666667 233.333333333M600.0 766.666666667C600.0 766.666666667 633.333333333 633.333333333 633.333333333 633.333333333M600.0 366.666666667C600.0 366.666666667 766.666666667 266.666666667 766.666666667 266.666666667C766.666666667 266.666666667 766.666666667 233.333333333 766.666666667 233.333333333M800.0 833.333333333C800.0 833.333333333 766.666666667 800.0 766.666666667 800.0C766.666666667 800.0 766.666666667 733.333333333 766.666666667 733.333333333C766.666666667 733.333333333 800.0 700.0 800.0 700.0C800.0 700.0 866.666666667 700.0 866.666666667 700.0C866.666666667 700.0 900.0 733.333333333 900.0 733.333333333C900.0 733.333333333 900.0 800.0 900.0 800.0C900.0 800.0 866.666666667 833.333333333 866.666666667 833.333333333C866.666666667 833.333333333 800.0 833.333333333 800.0 833.333333333" glyph-name="" horiz-adv-x="900.0" unicode=""/><glyph d="M433.333333333 700.0C433.333333333 700.0 500.0 666.666666667 500.0 666.666666667C500.0 666.666666667 500.0 300.0 500.0 300.0M466.666666667 666.666666667C466.666666667 666.666666667 466.666666667 300.0 466.666666667 300.0M200.0 733.333333333C200.0 733.333333333 266.666666667 666.666666667 266.666666667 666.666666667C266.666666667 666.666666667 666.666666667 733.333333333 666.666666667 733.333333333C666.666666667 733.333333333 733.333333333 700.0 733.333333333 700.0M233.333333333 700.0C233.333333333 700.0 733.333333333 700.0 733.333333333 700.0M133.333333333 333.333333333C133.333333333 333.333333333 200.0 266.666666667 200.0 266.666666667C200.0 266.666666667 733.333333333 333.333333333 733.333333333 333.333333333C733.333333333 333.333333333 800.0 300.0 800.0 300.0M166.666666667 300.0C166.666666667 300.0 800.0 300.0 800.0 300.0" glyph-name="" horiz-adv-x="900.0" unicode=""/><glyph d="M400.0 866.666666667C400.0 866.666666667 466.666666667 800.0 466.666666667 800.0C466.666666667 800.0 400.0 666.666666667 400.0 666.666666667C400.0 666.666666667 333.333333333 566.666666667 333.333333333 566.666666667C333.333333333 566.666666667 266.666666667 500.0 266.666666667 500.0C266.666666667 500.0 200.0 433.333333333 200.0 433.333333333M433.333333333 833.333333333C433.333333333 833.333333333 400.0 733.333333333 400.0 733.333333333C400.0 733.333333333 333.333333333 600.0 333.333333333 600.0C333.333333333 600.0 266.666666667 500.0 266.666666667 500.0M433.333333333 733.333333333C433.333333333 733.333333333 500.0 700.0 500.0 700.0C500.0 700.0 666.666666667 700.0 666.666666667 700.0M566.666666667 700.0C566.666666667 700.0 633.333333333 733.333333333 633.333333333 733.333333333C633.333333333 733.333333333 700.0 666.666666667 700.0 666.666666667M700.0 666.666666667C700.0 666.666666667 600.0 466.666666667 600.0 466.666666667C600.0 466.666666667 500.0 333.333333333 500.0 333.333333333C500.0 333.333333333 400.0 233.333333333 400.0 233.333333333C400.0 233.333333333 300.0 166.666666667 300.0 166.666666667C300.0 166.666666667 233.333333333 133.333333333 233.333333333 133.333333333M666.666666667 700.0C666.666666667 700.0 633.333333333 600.0 633.333333333 600.0C633.333333333 600.0 566.666666667 466.666666667 566.666666667 466.666666667C566.666666667 466.666666667 466.666666667 333.333333333 466.666666667 333.333333333C466.666666667 333.333333333 366.666666667 233.333333333 366.666666667 233.333333333C366.666666667 233.333333333 233.333333333 133.333333333 233.333333333 133.333333333" glyph-name="" horiz-adv-x="900.0" unicode=""/><glyph d="M300.0 833.333333333C300.0 833.333333333 366.666666667 800.0 366.666666667 800.0C366.666666667 800.0 400.0 766.666666667 400.0 766.666666667C400.0 766.666666667 400.0 733.333333333 400.0 733.333333333C400.0 733.333333333 366.666666667 733.333333333 366.666666667 733.333333333C366.666666667 733.333333333 333.333333333 800.0 333.333333333 800.0C333.333333333 800.0 300.0 833.333333333 300.0 833.333333333M133.333333333 600.0C133.333333333 600.0 200.0 566.666666667 200.0 566.666666667C200.0 566.666666667 233.333333333 533.333333333 233.333333333 533.333333333C233.333333333 533.333333333 233.333333333 500.0 233.333333333 500.0C233.333333333 500.0 200.0 500.0 200.0 500.0C200.0 500.0 166.666666667 566.666666667 166.666666667 566.666666667C166.666666667 566.666666667 133.333333333 600.0 133.333333333 600.0M166.666666667 266.666666667C166.666666667 266.666666667 233.333333333 200.0 233.333333333 200.0C233.333333333 200.0 366.666666667 266.666666667 366.666666667 266.666666667C366.666666667 266.666666667 500.0 366.666666667 500.0 366.666666667C500.0 366.666666667 633.333333333 500.0 633.333333333 500.0C633.333333333 500.0 766.666666667 666.666666667 766.666666667 666.666666667M200.0 233.333333333C200.0 233.333333333 366.666666667 300.0 366.666666667 300.0C366.666666667 300.0 500.0 400.0 500.0 400.0C500.0 400.0 766.666666667 666.666666667 766.666666667 666.666666667" glyph-name="" horiz-adv-x="900.0" unicode=""/><glyph d="M400.0 866.666666667C400.0 866.666666667 466.666666667 800.0 466.666666667 800.0C466.666666667 800.0 400.0 666.666666667 400.0 666.666666667C400.0 666.666666667 333.333333333 566.666666667 333.333333333 566.666666667C333.333333333 566.666666667 266.666666667 500.0 266.666666667 500.0C266.666666667 500.0 200.0 433.333333333 200.0 433.333333333M433.333333333 833.333333333C433.333333333 833.333333333 400.0 733.333333333 400.0 733.333333333C400.0 733.333333333 333.333333333 600.0 333.333333333 600.0C333.333333333 600.0 266.666666667 500.0 266.666666667 500.0M433.333333333 733.333333333C433.333333333 733.333333333 500.0 700.0 500.0 700.0C500.0 700.0 666.666666667 700.0 666.666666667 700.0M566.666666667 700.0C566.666666667 700.0 633.333333333 733.333333333 633.333333333 733.333333333C633.333333333 733.333333333 700.0 666.666666667 700.0 666.666666667M700.0 666.666666667C700.0 666.666666667 600.0 466.666666667 600.0 466.666666667C600.0 466.666666667 500.0 333.333333333 500.0 333.333333333C500.0 333.333333333 400.0 233.333333333 400.0 233.333333333C400.0 233.333333333 300.0 166.666666667 300.0 166.666666667C300.0 166.666666667 233.333333333 133.333333333 233.333333333 133.333333333M666.666666667 700.0C666.666666667 700.0 633.333333333 600.0 633.333333333 600.0C633.333333333 600.0 566.666666667 466.666666667 566.666666667 466.666666667C566.666666667 466.666666667 466.666666667 333.333333333 466.666666667 333.333333333C466.666666667 333.333333333 366.666666667 233.333333333 366.666666667 233.333333333C366.666666667 233.333333333 233.333333333 133.333333333 233.333333333 133.333333333M333.333333333 533.333333333C333.333333333 533.333333333 433.333333333 500.0 433.333333333 500.0C433.333333333 500.0 500.0 466.666666667 500.0 466.666666667C500.0 466.666666667 600.0 400.0 600.0 400.0C600.0 400.0 633.333333333 366.666666667 633.333333333 366.666666667C633.333333333 366.666666667 633.333333333 333.333333333 633.333333333 333.333333333C633.333333333 333.333333333 600.0 333.333333333 600.0 333.333333333C600.0 333.333333333 566.666666667 400.0 566.666666667 400.0C566.666666667 400.0 500.0 466.666666667 500.0 466.666666667" glyph-name=" " horiz-adv-x="900.0" unicode=" "/><glyph d="M300.0 800.0C300.0 800.0 233.333333333 833.333333333 233.333333333 833.333333333C233.333333333 833.333333333 233.333333333 133.333333333 233.333333333 133.333333333M266.666666667 800.0C266.666666667 800.0 266.666666667 133.333333333 266.666666667 133.333333333M266.666666667 200.0C266.666666667 200.0 666.666666667 200.0 666.666666667 200.0M266.666666667 800.0C266.666666667 800.0 666.666666667 800.0 666.666666667 800.0M633.333333333 800.0C633.333333333 800.0 666.666666667 833.333333333 666.666666667 833.333333333C666.666666667 833.333333333 733.333333333 800.0 733.333333333 800.0C733.333333333 800.0 700.0 733.333333333 700.0 733.333333333M666.666666667 800.0C666.666666667 800.0 666.666666667 133.333333333 666.666666667 133.333333333M700.0 800.0C700.0 800.0 700.0 133.333333333 700.0 133.333333333M266.666666667 500.0C266.666666667 500.0 666.666666667 500.0 666.666666667 500.0" glyph-name="#" horiz-adv-x="900.0" unicode="#"/><glyph d="M300.0 866.666666667C300.0 866.666666667 400.0 833.333333333 400.0 833.333333333C400.0 833.333333333 400.0 133.333333333 400.0 133.333333333M366.666666667 833.333333333C366.666666667 833.333333333 366.666666667 166.666666667 366.666666667 166.666666667C366.666666667 166.666666667 400.0 133.333333333 400.0 133.333333333M400.0 566.666666667C400.0 566.666666667 466.666666667 566.666666667 466.666666667 566.666666667C466.666666667 566.666666667 566.666666667 533.333333333 566.666666667 533.333333333C566.666666667 533.333333333 600.0 500.0 600.0 500.0C600.0 500.0 600.0 466.666666667 600.0 466.666666667C600.0 466.666666667 566.666666667 466.666666667 566.666666667 466.666666667C566.666666667 466.666666667 533.333333333 533.333333333 533.333333333 533.333333333C533.333333333 533.333333333 466.666666667 566.666666667 466.666666667 566.666666667" glyph-name="¤" horiz-adv-x="900.0" unicode="¤"/><glyph d="M200.0 833.333333333C200.0 833.333333333 133.333333333 866.666666667 133.333333333 866.666666667C133.333333333 866.666666667 133.333333333 133.333333333 133.333333333 133.333333333M166.666666667 833.333333333C166.666666667 833.333333333 166.666666667 133.333333333 166.666666667 133.333333333M166.666666667 833.333333333C166.666666667 833.333333333 766.666666667 833.333333333 766.666666667 833.333333333M733.333333333 833.333333333C733.333333333 833.333333333 766.666666667 866.666666667 766.666666667 866.666666667C766.666666667 866.666666667 833.333333333 833.333333333 833.333333333 833.333333333C833.333333333 833.333333333 800.0 766.666666667 800.0 766.666666667M766.666666667 833.333333333C766.666666667 833.333333333 766.666666667 133.333333333 766.666666667 133.333333333M800.0 833.333333333C800.0 833.333333333 800.0 133.333333333 800.0 133.333333333M233.333333333 700.0C233.333333333 700.0 700.0 700.0 700.0 700.0C700.0 700.0 666.666666667 733.333333333 666.666666667 733.333333333C666.666666667 733.333333333 633.333333333 700.0 633.333333333 700.0M433.333333333 700.0C433.333333333 700.0 433.333333333 300.0 433.333333333 300.0M466.666666667 700.0C466.666666667 700.0 466.666666667 300.0 466.666666667 300.0M266.666666667 500.0C266.666666667 500.0 666.666666667 500.0 666.666666667 500.0C666.666666667 500.0 633.333333333 533.333333333 633.333333333 533.333333333C633.333333333 533.333333333 600.0 500.0 600.0 500.0M233.333333333 300.0C233.333333333 300.0 700.0 300.0 700.0 300.0C700.0 300.0 666.666666667 333.333333333 666.666666667 333.333333333C666.666666667 333.333333333 633.333333333 300.0 633.333333333 300.0M533.333333333 433.333333333C533.333333333 433.333333333 566.666666667 366.666666667 566.666666667 366.666666667C566.666666667 366.666666667 600.0 366.666666667 600.0 366.666666667C600.0 366.666666667 600.0 400.0 600.0 400.0C600.0 400.0 533.333333333 433.333333333 533.333333333 433.333333333M166.666666667 166.666666667C166.666666667 166.666666667 766.666666667 166.666666667 766.666666667 166.666666667" glyph-name="'" horiz-adv-x="900.0" unicode="'"/><glyph d="M400.0 866.666666667C400.0 866.666666667 466.666666667 833.333333333 466.666666667 833.333333333C466.666666667 833.333333333 500.0 800.0 500.0 800.0C500.0 800.0 500.0 766.666666667 500.0 766.666666667C500.0 766.666666667 466.666666667 766.666666667 466.666666667 766.666666667C466.666666667 766.666666667 433.333333333 833.333333333 433.333333333 833.333333333C433.333333333 833.333333333 400.0 866.666666667 400.0 866.666666667M200.0 666.666666667C200.0 666.666666667 266.666666667 600.0 266.666666667 600.0C266.666666667 600.0 600.0 666.666666667 600.0 666.666666667C600.0 666.666666667 666.666666667 600.0 666.666666667 600.0M233.333333333 633.333333333C233.333333333 633.333333333 633.333333333 633.333333333 633.333333333 633.333333333M666.666666667 600.0C666.666666667 600.0 533.333333333 466.666666667 533.333333333 466.666666667C533.333333333 466.666666667 433.333333333 400.0 433.333333333 400.0C433.333333333 400.0 366.666666667 366.666666667 366.666666667 366.666666667C366.666666667 366.666666667 200.0 300.0 200.0 300.0M633.333333333 633.333333333C633.333333333 633.333333333 566.666666667 533.333333333 566.666666667 533.333333333C566.666666667 533.333333333 500.0 466.666666667 500.0 466.666666667C500.0 466.666666667 400.0 400.0 400.0 400.0C400.0 400.0 200.0 300.0 200.0 300.0M466.666666667 433.333333333C466.666666667 433.333333333 500.0 400.0 500.0 400.0C500.0 400.0 500.0 133.333333333 500.0 133.333333333M466.666666667 433.333333333C466.666666667 433.333333333 466.666666667 166.666666667 466.666666667 166.666666667C466.666666667 166.666666667 500.0 133.333333333 500.0 133.333333333M666.666666667 366.666666667C666.666666667 366.666666667 733.333333333 333.333333333 733.333333333 333.333333333C733.333333333 333.333333333 766.666666667 300.0 766.666666667 300.0C766.666666667 300.0 766.666666667 266.666666667 766.666666667 266.666666667C766.666666667 266.666666667 733.333333333 266.666666667 733.333333333 266.666666667C733.333333333 266.666666667 700.0 333.333333333 700.0 333.333333333C700.0 333.333333333 666.666666667 366.666666667 666.666666667 366.666666667" glyph-name="¨" horiz-adv-x="900.0" unicode="¨"/><glyph d="M466.666666667 800.0C466.666666667 800.0 500.0 833.333333333 500.0 833.333333333C500.0 833.333333333 433.333333333 866.666666667 433.333333333 866.666666667C433.333333333 866.666666667 433.333333333 133.333333333 433.333333333 133.333333333M466.666666667 833.333333333C466.666666667 833.333333333 466.666666667 133.333333333 466.666666667 133.333333333M100.0 666.666666667C100.0 666.666666667 833.333333333 666.666666667 833.333333333 666.666666667C833.333333333 666.666666667 766.666666667 733.333333333 766.666666667 733.333333333C766.666666667 733.333333333 700.0 666.666666667 700.0 666.666666667M700.0 666.666666667C700.0 666.666666667 800.0 700.0 800.0 700.0M400.0 666.666666667C400.0 666.666666667 300.0 466.666666667 300.0 466.666666667C300.0 466.666666667 200.0 333.333333333 200.0 333.333333333C200.0 333.333333333 100.0 233.333333333 100.0 233.333333333M433.333333333 633.333333333C433.333333333 633.333333333 366.666666667 500.0 366.666666667 500.0C366.666666667 500.0 300.0 400.0 300.0 400.0C300.0 400.0 233.333333333 333.333333333 233.333333333 333.333333333C233.333333333 333.333333333 100.0 233.333333333 100.0 233.333333333M500.0 633.333333333C500.0 633.333333333 533.333333333 533.333333333 533.333333333 533.333333333C533.333333333 533.333333333 566.666666667 466.666666667 566.666666667 466.666666667C566.666666667 466.666666667 666.666666667 333.333333333 666.666666667 333.333333333C666.666666667 333.333333333 766.666666667 233.333333333 766.666666667 233.333333333C766.666666667 233.333333333 833.333333333 266.666666667 833.333333333 266.666666667M700.0 333.333333333C700.0 333.333333333 766.666666667 266.666666667 766.666666667 266.666666667M500.0 633.333333333C500.0 633.333333333 533.333333333 566.666666667 533.333333333 566.666666667C533.333333333 566.666666667 633.333333333 433.333333333 633.333333333 433.333333333C633.333333333 433.333333333 733.333333333 333.333333333 733.333333333 333.333333333C733.333333333 333.333333333 833.333333333 266.666666667 833.333333333 266.666666667M300.0 300.0C300.0 300.0 600.0 300.0 600.0 300.0C600.0 300.0 566.666666667 333.333333333 566.666666667 333.333333333C566.666666667 333.333333333 533.333333333 300.0 533.333333333 300.0" glyph-name="+" horiz-adv-x="900.0" unicode="+"/><glyph d="M200.0 833.333333333C200.0 833.333333333 266.666666667 766.666666667 266.666666667 766.666666667C266.666666667 766.666666667 700.0 766.666666667 700.0 766.666666667M233.333333333 800.0C233.333333333 800.0 366.666666667 766.666666667 366.666666667 766.666666667M566.666666667 766.666666667C566.666666667 766.666666667 666.666666667 800.0 666.666666667 800.0C666.666666667 800.0 733.333333333 733.333333333 733.333333333 733.333333333M733.333333333 733.333333333C733.333333333 733.333333333 633.333333333 533.333333333 633.333333333 533.333333333C633.333333333 533.333333333 566.666666667 433.333333333 566.666666667 433.333333333C566.666666667 433.333333333 466.666666667 333.333333333 466.666666667 333.333333333C466.666666667 333.333333333 366.666666667 266.666666667 366.666666667 266.666666667C366.666666667 266.666666667 300.0 233.333333333 300.0 233.333333333M700.0 766.666666667C700.0 766.666666667 666.666666667 666.666666667 666.666666667 666.666666667C666.666666667 666.666666667 600.0 533.333333333 600.0 533.333333333C600.0 533.333333333 500.0 400.0 500.0 400.0C500.0 400.0 400.0 300.0 400.0 300.0C400.0 300.0 300.0 233.333333333 300.0 233.333333333" glyph-name="¬" horiz-adv-x="900.0" unicode="¬"/><glyph d="M466.666666667 800.0C466.666666667 800.0 500.0 833.333333333 500.0 833.333333333C500.0 833.333333333 433.333333333 866.666666667 433.333333333 866.666666667C433.333333333 866.666666667 433.333333333 166.666666667 433.333333333 166.666666667M466.666666667 833.333333333C466.666666667 833.333333333 466.666666667 166.666666667 466.666666667 166.666666667M466.666666667 533.333333333C466.666666667 533.333333333 766.666666667 533.333333333 766.666666667 533.333333333C766.666666667 533.333333333 700.0 600.0 700.0 600.0C700.0 600.0 633.333333333 533.333333333 633.333333333 533.333333333M633.333333333 533.333333333C633.333333333 533.333333333 733.333333333 566.666666667 733.333333333 566.666666667M100.0 166.666666667C100.0 166.666666667 833.333333333 166.666666667 833.333333333 166.666666667C833.333333333 166.666666667 766.666666667 233.333333333 766.666666667 233.333333333C766.666666667 233.333333333 700.0 166.666666667 700.0 166.666666667M700.0 166.666666667C700.0 166.666666667 800.0 200.0 800.0 200.0" glyph-name="/" horiz-adv-x="900.0" unicode="/"/><glyph d="M400.0 866.666666667C400.0 866.666666667 500.0 833.333333333 500.0 833.333333333C500.0 833.333333333 566.666666667 800.0 566.666666667 800.0C566.666666667 800.0 600.0 766.666666667 600.0 766.666666667C600.0 766.666666667 600.0 733.333333333 600.0 733.333333333C600.0 733.333333333 566.666666667 733.333333333 566.666666667 733.333333333C566.666666667 733.333333333 500.0 800.0 500.0 800.0C500.0 800.0 400.0 866.666666667 400.0 866.666666667M300.0 633.333333333C300.0 633.333333333 400.0 600.0 400.0 600.0C400.0 600.0 466.666666667 566.666666667 466.666666667 566.666666667C466.666666667 566.666666667 500.0 533.333333333 500.0 533.333333333C500.0 533.333333333 500.0 500.0 500.0 500.0C500.0 500.0 466.666666667 500.0 466.666666667 500.0C466.666666667 500.0 400.0 566.666666667 400.0 566.666666667C400.0 566.666666667 300.0 633.333333333 300.0 633.333333333M333.333333333 333.333333333C333.333333333 333.333333333 500.0 266.666666667 500.0 266.666666667C500.0 266.666666667 566.666666667 233.333333333 566.666666667 233.333333333C566.666666667 233.333333333 600.0 200.0 600.0 200.0C600.0 200.0 600.0 166.666666667 600.0 166.666666667C600.0 166.666666667 566.666666667 166.666666667 566.666666667 166.666666667C566.666666667 166.666666667 500.0 233.333333333 500.0 233.333333333C500.0 233.333333333 400.0 300.0 400.0 300.0C400.0 300.0 333.333333333 333.333333333 333.333333333 333.333333333" glyph-name="°" horiz-adv-x="900.0" unicode="°"/><glyph d="M200.0 733.333333333C200.0 733.333333333 733.333333333 733.333333333 733.333333333 733.333333333C733.333333333 733.333333333 666.666666667 800.0 666.666666667 800.0C666.666666667 800.0 600.0 733.333333333 600.0 733.333333333M600.0 733.333333333C600.0 733.333333333 700.0 766.666666667 700.0 766.666666667M100.0 266.666666667C100.0 266.666666667 833.333333333 266.666666667 833.333333333 266.666666667C833.333333333 266.666666667 766.666666667 333.333333333 766.666666667 333.333333333C766.666666667 333.333333333 700.0 266.666666667 700.0 266.666666667M700.0 266.666666667C700.0 266.666666667 800.0 300.0 800.0 300.0" glyph-name="3" horiz-adv-x="900.0" unicode="3"/><glyph d="M366.666666667 866.666666667C366.666666667 866.666666667 466.666666667 833.333333333 466.666666667 833.333333333C466.666666667 833.333333333 533.333333333 166.666666667 533.333333333 166.666666667M433.333333333 833.333333333C433.333333333 833.333333333 500.0 133.333333333 500.0 133.333333333C500.0 133.333333333 533.333333333 166.666666667 533.333333333 166.666666667M133.333333333 666.666666667C133.333333333 666.666666667 200.0 600.0 200.0 600.0C200.0 600.0 366.666666667 633.333333333 366.666666667 633.333333333C366.666666667 633.333333333 566.666666667 666.666666667 566.666666667 666.666666667C566.666666667 666.666666667 733.333333333 700.0 733.333333333 700.0C733.333333333 700.0 800.0 633.333333333 800.0 633.333333333M166.666666667 633.333333333C166.666666667 633.333333333 366.666666667 633.333333333 366.666666667 633.333333333M566.666666667 666.666666667C566.666666667 666.666666667 766.666666667 666.666666667 766.666666667 666.666666667M800.0 633.333333333C800.0 633.333333333 700.0 533.333333333 700.0 533.333333333C700.0 533.333333333 600.0 466.666666667 600.0 466.666666667C600.0 466.666666667 533.333333333 433.333333333 533.333333333 433.333333333M766.666666667 666.666666667C766.666666667 666.666666667 733.333333333 600.0 733.333333333 600.0C733.333333333 600.0 633.333333333 500.0 633.333333333 500.0C633.333333333 500.0 533.333333333 433.333333333 533.333333333 433.333333333" glyph-name="´" horiz-adv-x="900.0" unicode="´"/><glyph d="M466.666666667 766.666666667C466.666666667 766.666666667 500.0 800.0 500.0 800.0C500.0 800.0 433.333333333 833.333333333 433.333333333 833.333333333C433.333333333 833.333333333 433.333333333 633.333333333 433.333333333 633.333333333M466.666666667 800.0C466.666666667 800.0 466.666666667 633.333333333 466.666666667 633.333333333M100.0 633.333333333C100.0 633.333333333 833.333333333 633.333333333 833.333333333 633.333333333C833.333333333 633.333333333 766.666666667 700.0 766.666666667 700.0C766.666666667 700.0 700.0 633.333333333 700.0 633.333333333M700.0 633.333333333C700.0 633.333333333 800.0 666.666666667 800.0 666.666666667M300.0 500.0C300.0 500.0 266.666666667 400.0 266.666666667 400.0C266.666666667 400.0 200.0 266.666666667 200.0 266.666666667C200.0 266.666666667 133.333333333 166.666666667 133.333333333 166.666666667M333.333333333 466.666666667C333.333333333 466.666666667 300.0 400.0 300.0 400.0M300.0 500.0C300.0 500.0 366.666666667 466.666666667 366.666666667 466.666666667C366.666666667 466.666666667 300.0 366.666666667 300.0 366.666666667C300.0 366.666666667 200.0 233.333333333 200.0 233.333333333C200.0 233.333333333 133.333333333 166.666666667 133.333333333 166.666666667M533.333333333 500.0C533.333333333 500.0 600.0 433.333333333 600.0 433.333333333C600.0 433.333333333 700.0 300.0 700.0 300.0C700.0 300.0 733.333333333 233.333333333 733.333333333 233.333333333C733.333333333 233.333333333 766.666666667 200.0 766.666666667 200.0C766.666666667 200.0 800.0 233.333333333 800.0 233.333333333C800.0 233.333333333 766.666666667 300.0 766.666666667 300.0C766.666666667 300.0 666.666666667 400.0 666.666666667 400.0C666.666666667 400.0 533.333333333 500.0 533.333333333 500.0M700.0 333.333333333C700.0 333.333333333 766.666666667 233.333333333 766.666666667 233.333333333" glyph-name="7" horiz-adv-x="900.0" unicode="7"/><glyph d="M200.0 733.333333333C200.0 733.333333333 266.666666667 666.666666667 266.666666667 666.666666667C266.666666667 666.666666667 666.666666667 733.333333333 666.666666667 733.333333333C666.666666667 733.333333333 733.333333333 666.666666667 733.333333333 666.666666667M233.333333333 700.0C233.333333333 700.0 700.0 700.0 700.0 700.0M200.0 533.333333333C200.0 533.333333333 266.666666667 466.666666667 266.666666667 466.666666667C266.666666667 466.666666667 666.666666667 533.333333333 666.666666667 533.333333333M233.333333333 500.0C233.333333333 500.0 666.666666667 500.0 666.666666667 500.0M200.0 333.333333333C200.0 333.333333333 266.666666667 266.666666667 266.666666667 266.666666667C266.666666667 266.666666667 666.666666667 333.333333333 666.666666667 333.333333333M233.333333333 300.0C233.333333333 300.0 666.666666667 300.0 666.666666667 300.0M733.333333333 666.666666667C733.333333333 666.666666667 700.0 566.666666667 700.0 566.666666667C700.0 566.666666667 700.0 233.333333333 700.0 233.333333333M700.0 700.0C700.0 700.0 666.666666667 533.333333333 666.666666667 533.333333333C666.666666667 533.333333333 666.666666667 233.333333333 666.666666667 233.333333333" glyph-name="¸" horiz-adv-x="900.0" unicode="¸"/><glyph d="M133.333333333 233.333333333C133.333333333 233.333333333 100.0 200.0 100.0 200.0C100.0 200.0 133.333333333 166.666666667 133.333333333 166.666666667C133.333333333 166.666666667 166.666666667 200.0 166.666666667 200.0C166.666666667 200.0 133.333333333 233.333333333 133.333333333 233.333333333" glyph-name=";" horiz-adv-x="900.0" unicode=";"/><glyph d="M133.333333333 766.666666667C133.333333333 766.666666667 233.333333333 733.333333333 233.333333333 733.333333333C233.333333333 733.333333333 233.333333333 633.333333333 233.333333333 633.333333333C233.333333333 633.333333333 200.0 433.333333333 200.0 433.333333333M200.0 733.333333333C200.0 733.333333333 200.0 333.333333333 200.0 333.333333333C200.0 333.333333333 233.333333333 266.666666667 233.333333333 266.666666667C233.333333333 266.666666667 333.333333333 266.666666667 333.333333333 266.666666667C333.333333333 266.666666667 433.333333333 300.0 433.333333333 300.0C433.333333333 300.0 533.333333333 366.666666667 533.333333333 366.666666667C533.333333333 366.666666667 666.666666667 466.666666667 666.666666667 466.666666667C666.666666667 466.666666667 766.666666667 566.666666667 766.666666667 566.666666667M200.0 333.333333333C200.0 333.333333333 233.333333333 300.0 233.333333333 300.0C233.333333333 300.0 333.333333333 300.0 333.333333333 300.0C333.333333333 300.0 433.333333333 333.333333333 433.333333333 333.333333333C433.333333333 333.333333333 566.666666667 400.0 566.666666667 400.0C566.666666667 400.0 666.666666667 466.666666667 666.666666667 466.666666667" glyph-name="¼" horiz-adv-x="900.0" unicode="¼"/><glyph d="M133.333333333 233.333333333C133.333333333 233.333333333 100.0 200.0 100.0 200.0C100.0 200.0 133.333333333 166.666666667 133.333333333 166.666666667C133.333333333 166.666666667 166.666666667 200.0 166.666666667 200.0C166.666666667 200.0 133.333333333 233.333333333 133.333333333 233.333333333" glyph-name="?" horiz-adv-x="900.0" unicode="?"/><glyph d="M400.0 866.666666667C400.0 866.666666667 500.0 833.333333333 500.0 833.333333333C500.0 833.333333333 500.0 766.666666667 500.0 766.666666667C500.0 766.666666667 466.666666667 700.0 466.666666667 700.0M400.0 866.666666667C400.0 866.666666667 466.666666667 833.333333333 466.666666667 833.333333333C466.666666667 833.333333333 466.666666667 700.0 466.666666667 700.0M200.0 766.666666667C200.0 766.666666667 233.333333333 700.0 233.333333333 700.0C233.333333333 700.0 233.333333333 533.333333333 233.333333333 533.333333333C233.333333333 533.333333333 266.666666667 500.0 266.666666667 500.0M266.666666667 700.0C266.666666667 700.0 266.666666667 500.0 266.666666667 500.0M266.666666667 700.0C266.666666667 700.0 700.0 700.0 700.0 700.0M200.0 766.666666667C200.0 766.666666667 233.333333333 733.333333333 233.333333333 733.333333333C233.333333333 733.333333333 366.666666667 700.0 366.666666667 700.0M566.666666667 700.0C566.666666667 700.0 666.666666667 733.333333333 666.666666667 733.333333333C666.666666667 733.333333333 733.333333333 666.666666667 733.333333333 666.666666667M733.333333333 666.666666667C733.333333333 666.666666667 633.333333333 466.666666667 633.333333333 466.666666667C633.333333333 466.666666667 566.666666667 366.666666667 566.666666667 366.666666667C566.666666667 366.666666667 466.666666667 266.666666667 466.666666667 266.666666667C466.666666667 266.666666667 366.666666667 200.0 366.666666667 200.0C366.666666667 200.0 300.0 166.666666667 300.0 166.666666667M700.0 700.0C700.0 700.0 666.666666667 600.0 666.666666667 600.0C666.666666667 600.0 600.0 466.666666667 600.0 466.666666667C600.0 466.666666667 500.0 333.333333333 500.0 333.333333333C500.0 333.333333333 400.0 233.333333333 400.0 233.333333333C400.0 233.333333333 300.0 166.666666667 300.0 166.666666667" glyph-name="À" horiz-adv-x="900.0" unicode="À"/><glyph d="M333.333333333 900.0C333.333333333 900.0 366.666666667 866.666666667 366.666666667 866.666666667C366.666666667 866.666666667 433.333333333 833.333333333 433.333333333 833.333333333C433.333333333 833.333333333 566.666666667 833.333333333 566.666666667 833.333333333M366.666666667 866.666666667C366.666666667 866.666666667 533.333333333 866.666666667 533.333333333 866.666666667C533.333333333 866.666666667 566.666666667 833.333333333 566.666666667 833.333333333C566.666666667 833.333333333 433.333333333 766.666666667 433.333333333 766.666666667M233.333333333 633.333333333C233.333333333 633.333333333 233.333333333 600.0 233.333333333 600.0C233.333333333 600.0 266.666666667 566.666666667 266.666666667 566.666666667C266.666666667 566.666666667 300.0 566.666666667 300.0 566.666666667C300.0 566.666666667 400.0 633.333333333 400.0 633.333333333C400.0 633.333333333 466.666666667 666.666666667 466.666666667 666.666666667M233.333333333 600.0C233.333333333 600.0 266.666666667 600.0 266.666666667 600.0C266.666666667 600.0 366.666666667 633.333333333 366.666666667 633.333333333C366.666666667 633.333333333 466.666666667 666.666666667 466.666666667 666.666666667C466.666666667 666.666666667 533.333333333 666.666666667 533.333333333 666.666666667C533.333333333 666.666666667 633.333333333 633.333333333 633.333333333 633.333333333C633.333333333 633.333333333 666.666666667 566.666666667 666.666666667 566.666666667C666.666666667 566.666666667 666.666666667 466.666666667 666.666666667 466.666666667C666.666666667 466.666666667 633.333333333 366.666666667 633.333333333 366.666666667C633.333333333 366.666666667 566.666666667 266.666666667 566.666666667 266.666666667C566.666666667 266.666666667 466.666666667 200.0 466.666666667 200.0C466.666666667 200.0 333.333333333 133.333333333 333.333333333 133.333333333M533.333333333 666.666666667C533.333333333 666.666666667 600.0 633.333333333 600.0 633.333333333C600.0 633.333333333 633.333333333 566.666666667 633.333333333 566.666666667C633.333333333 566.666666667 633.333333333 466.666666667 633.333333333 466.666666667C633.333333333 466.666666667 600.0 366.666666667 600.0 366.666666667C600.0 366.666666667 566.666666667 300.0 566.666666667 300.0C566.666666667 300.0 500.0 233.333333333 500.0 233.333333333C500.0 233.333333333 400.0 166.666666667 400.0 166.666666667" glyph-name="C" horiz-adv-x="900.0" unicode="C"/><glyph d="M133.333333333 233.333333333C133.333333333 233.333333333 100.0 200.0 100.0 200.0C100.0 200.0 133.333333333 166.666666667 133.333333333 166.666666667C133.333333333 166.666666667 166.666666667 200.0 166.666666667 200.0C166.666666667 200.0 133.333333333 233.333333333 133.333333333 233.333333333" glyph-name="Ä" horiz-adv-x="900.0" unicode="Ä"/><glyph d="M333.333333333 866.666666667C333.333333333 866.666666667 433.333333333 833.333333333 433.333333333 833.333333333C433.333333333 833.333333333 466.666666667 700.0 466.666666667 700.0C466.666666667 700.0 500.0 600.0 500.0 600.0C500.0 600.0 566.666666667 466.666666667 566.666666667 466.666666667C566.666666667 466.666666667 666.666666667 333.333333333 666.666666667 333.333333333C666.666666667 333.333333333 633.333333333 300.0 633.333333333 300.0M400.0 833.333333333C400.0 833.333333333 466.666666667 700.0 466.666666667 700.0M566.666666667 466.666666667C566.666666667 466.666666667 633.333333333 300.0 633.333333333 300.0M266.666666667 700.0C266.666666667 700.0 333.333333333 666.666666667 333.333333333 666.666666667C333.333333333 666.666666667 433.333333333 666.666666667 433.333333333 666.666666667C433.333333333 666.666666667 533.333333333 700.0 533.333333333 700.0M166.666666667 566.666666667C166.666666667 566.666666667 200.0 533.333333333 200.0 533.333333333C200.0 533.333333333 300.0 500.0 300.0 500.0C300.0 500.0 466.666666667 500.0 466.666666667 500.0C466.666666667 500.0 633.333333333 533.333333333 633.333333333 533.333333333C633.333333333 533.333333333 733.333333333 566.666666667 733.333333333 566.666666667M633.333333333 533.333333333C633.333333333 533.333333333 700.0 600.0 700.0 600.0C700.0 600.0 733.333333333 566.666666667 733.333333333 566.666666667M633.333333333 300.0C633.333333333 300.0 566.666666667 333.333333333 566.666666667 333.333333333C566.666666667 333.333333333 466.666666667 366.666666667 466.666666667 366.666666667C466.666666667 366.666666667 333.333333333 366.666666667 333.333333333 366.666666667C333.333333333 366.666666667 266.666666667 333.333333333 266.666666667 333.333333333C266.666666667 333.333333333 233.333333333 300.0 233.333333333 300.0C233.333333333 300.0 233.333333333 233.333333333 233.333333333 233.333333333C233.333333333 233.333333333 266.666666667 200.0 266.666666667 200.0C266.666666667 200.0 333.333333333 166.666666667 333.333333333 166.666666667C333.333333333 166.666666667 433.333333333 133.333333333 433.333333333 133.333333333C433.333333333 133.333333333 633.333333333 133.333333333 633.333333333 133.333333333M333.333333333 166.666666667C333.333333333 166.666666667 600.0 166.666666667 600.0 166.666666667C600.0 166.666666667 633.333333333 133.333333333 633.333333333 133.333333333" glyph-name="G" horiz-adv-x="900.0" unicode="G"/><glyph d="M433.333333333 866.666666667C433.333333333 866.666666667 500.0 800.0 500.0 800.0C500.0 800.0 466.666666667 700.0 466.666666667 700.0C466.666666667 700.0 400.0 533.333333333 400.0 533.333333333C400.0 533.333333333 333.333333333 400.0 333.333333333 400.0C333.333333333 400.0 266.666666667 300.0 266.666666667 300.0C266.666666667 300.0 166.666666667 166.666666667 166.666666667 166.666666667M466.666666667 833.333333333C466.666666667 833.333333333 433.333333333 733.333333333 433.333333333 733.333333333C433.333333333 733.333333333 366.666666667 533.333333333 366.666666667 533.333333333C366.666666667 533.333333333 300.0 366.666666667 300.0 366.666666667C300.0 366.666666667 166.666666667 166.666666667 166.666666667 166.666666667M166.666666667 666.666666667C166.666666667 666.666666667 233.333333333 600.0 233.333333333 600.0C233.333333333 600.0 366.666666667 633.333333333 366.666666667 633.333333333C366.666666667 633.333333333 533.333333333 666.666666667 533.333333333 666.666666667C533.333333333 666.666666667 666.666666667 700.0 666.666666667 700.0C666.666666667 700.0 733.333333333 633.333333333 733.333333333 633.333333333M200.0 633.333333333C200.0 633.333333333 366.666666667 633.333333333 366.666666667 633.333333333M533.333333333 666.666666667C533.333333333 666.666666667 700.0 666.666666667 700.0 666.666666667M733.333333333 633.333333333C733.333333333 633.333333333 700.0 433.333333333 700.0 433.333333333C700.0 433.333333333 666.666666667 300.0 666.666666667 300.0C666.666666667 300.0 633.333333333 233.333333333 633.333333333 233.333333333C633.333333333 233.333333333 566.666666667 166.666666667 566.666666667 166.666666667C566.666666667 166.666666667 533.333333333 200.0 533.333333333 200.0C533.333333333 200.0 466.666666667 233.333333333 466.666666667 233.333333333M700.0 666.666666667C700.0 666.666666667 666.666666667 433.333333333 666.666666667 433.333333333C666.666666667 433.333333333 633.333333333 300.0 633.333333333 300.0C633.333333333 300.0 600.0 233.333333333 600.0 233.333333333C600.0 233.333333333 533.333333333 200.0 533.333333333 200.0M733.333333333 800.0C733.333333333 800.0 800.0 733.333333333 800.0 733.333333333M800.0 866.666666667C800.0 866.666666667 866.666666667 800.0 866.666666667 800.0" glyph-name="È" horiz-adv-x="900.0" unicode="È"/><glyph d="M200.0 700.0C200.0 700.0 233.333333333 666.666666667 233.333333333 666.666666667C233.333333333 666.666666667 333.333333333 633.333333333 333.333333333 633.333333333C333.333333333 633.333333333 466.666666667 633.333333333 466.666666667 633.333333333C466.666666667 633.333333333 600.0 666.666666667 600.0 666.666666667C600.0 666.666666667 666.666666667 700.0 666.666666667 700.0C666.666666667 700.0 700.0 733.333333333 700.0 733.333333333M600.0 666.666666667C600.0 666.666666667 666.666666667 733.333333333 666.666666667 733.333333333C666.666666667 733.333333333 700.0 733.333333333 700.0 733.333333333M400.0 866.666666667C400.0 866.666666667 433.333333333 766.666666667 433.333333333 766.666666667C433.333333333 766.666666667 466.666666667 700.0 466.666666667 700.0C466.666666667 700.0 566.666666667 566.666666667 566.666666667 566.666666667C566.666666667 566.666666667 633.333333333 466.666666667 633.333333333 466.666666667C633.333333333 466.666666667 666.666666667 400.0 666.666666667 400.0M400.0 866.666666667C400.0 866.666666667 433.333333333 866.666666667 433.333333333 866.666666667C433.333333333 866.666666667 433.333333333 800.0 433.333333333 800.0C433.333333333 800.0 466.666666667 700.0 466.666666667 700.0M566.666666667 566.666666667C566.666666667 566.666666667 666.666666667 466.666666667 666.666666667 466.666666667C666.666666667 466.666666667 700.0 400.0 700.0 400.0C700.0 400.0 700.0 366.666666667 700.0 366.666666667M700.0 366.666666667C700.0 366.666666667 666.666666667 400.0 666.666666667 400.0C666.666666667 400.0 600.0 433.333333333 600.0 433.333333333C600.0 433.333333333 466.666666667 466.666666667 466.666666667 466.666666667C466.666666667 466.666666667 333.333333333 466.666666667 333.333333333 466.666666667C333.333333333 466.666666667 233.333333333 433.333333333 233.333333333 433.333333333C233.333333333 433.333333333 200.0 366.666666667 200.0 366.666666667C200.0 366.666666667 200.0 300.0 200.0 300.0C200.0 300.0 233.333333333 233.333333333 233.333333333 233.333333333C233.333333333 233.333333333 300.0 200.0 300.0 200.0C300.0 200.0 433.333333333 166.666666667 433.333333333 166.666666667C433.333333333 166.666666667 566.666666667 166.666666667 566.666666667 166.666666667M200.0 300.0C200.0 300.0 233.333333333 266.666666667 233.333333333 266.666666667C233.333333333 266.666666667 300.0 233.333333333 300.0 233.333333333C300.0 233.333333333 433.333333333 200.0 433.333333333 200.0C433.333333333 200.0 600.0 200.0 600.0 200.0C600.0 200.0 566.666666667 166.666666667 566.666666667 166.666666667" glyph-name="K" horiz-adv-x="900.0" unicode="K"/><glyph d="M200.0 733.333333333C200.0 733.333333333 266.666666667 666.666666667 266.666666667 666.666666667C266.666666667 666.666666667 666.666666667 733.333333333 666.666666667 733.333333333C666.666666667 733.333333333 733.333333333 666.666666667 733.333333333 666.666666667M233.333333333 700.0C233.333333333 700.0 700.0 700.0 700.0 700.0M733.333333333 666.666666667C733.333333333 666.666666667 700.0 566.666666667 700.0 566.666666667C700.0 566.666666667 666.666666667 333.333333333 666.666666667 333.333333333M700.0 700.0C700.0 700.0 666.666666667 533.333333333 666.666666667 533.333333333C666.666666667 533.333333333 666.666666667 333.333333333 666.666666667 333.333333333M200.0 333.333333333C200.0 333.333333333 266.666666667 266.666666667 266.666666667 266.666666667C266.666666667 266.666666667 666.666666667 333.333333333 666.666666667 333.333333333C666.666666667 333.333333333 700.0 300.0 700.0 300.0M233.333333333 300.0C233.333333333 300.0 700.0 300.0 700.0 300.0M733.333333333 800.0C733.333333333 800.0 800.0 733.333333333 800.0 733.333333333M800.0 866.666666667C800.0 866.666666667 866.666666667 800.0 866.666666667 800.0" glyph-name="Ì" horiz-adv-x="900.0" unicode="Ì"/><glyph d="M333.333333333 833.333333333C333.333333333 833.333333333 400.0 766.666666667 400.0 766.666666667C400.0 766.666666667 600.0 833.333333333 600.0 833.333333333M366.666666667 800.0C366.666666667 800.0 433.333333333 800.0 433.333333333 800.0C433.333333333 800.0 600.0 833.333333333 600.0 833.333333333C600.0 833.333333333 633.333333333 800.0 633.333333333 800.0M633.333333333 800.0C633.333333333 800.0 533.333333333 700.0 533.333333333 700.0C533.333333333 700.0 333.333333333 566.666666667 333.333333333 566.666666667C333.333333333 566.666666667 200.0 500.0 200.0 500.0M600.0 833.333333333C600.0 833.333333333 566.666666667 766.666666667 566.666666667 766.666666667C566.666666667 766.666666667 500.0 700.0 500.0 700.0C500.0 700.0 333.333333333 566.666666667 333.333333333 566.666666667M166.666666667 533.333333333C166.666666667 533.333333333 233.333333333 466.666666667 233.333333333 466.666666667C233.333333333 466.666666667 366.666666667 533.333333333 366.666666667 533.333333333M200.0 500.0C200.0 500.0 366.666666667 533.333333333 366.666666667 533.333333333C366.666666667 533.333333333 566.666666667 566.666666667 566.666666667 566.666666667C566.666666667 566.666666667 733.333333333 600.0 733.333333333 600.0C733.333333333 600.0 766.666666667 566.666666667 766.666666667 566.666666667M566.666666667 566.666666667C566.666666667 566.666666667 766.666666667 566.666666667 766.666666667 566.666666667M566.666666667 566.666666667C566.666666667 566.666666667 500.0 533.333333333 500.0 533.333333333C500.0 533.333333333 433.333333333 466.666666667 433.333333333 466.666666667C433.333333333 466.666666667 400.0 400.0 400.0 400.0C400.0 400.0 400.0 333.333333333 400.0 333.333333333C400.0 333.333333333 433.333333333 266.666666667 433.333333333 266.666666667C433.333333333 266.666666667 466.666666667 233.333333333 466.666666667 233.333333333C466.666666667 233.333333333 566.666666667 200.0 566.666666667 200.0C566.666666667 200.0 700.0 200.0 700.0 200.0M433.333333333 266.666666667C433.333333333 266.666666667 533.333333333 233.333333333 533.333333333 233.333333333C533.333333333 233.333333333 666.666666667 233.333333333 666.666666667 233.333333333C666.666666667 233.333333333 700.0 200.0 700.0 200.0" glyph-name="O" horiz-adv-x="900.0" unicode="O"/><glyph d="M366.666666667 833.333333333C366.666666667 833.333333333 466.666666667 800.0 466.666666667 800.0C466.666666667 800.0 466.666666667 733.333333333 466.666666667 733.333333333C466.666666667 733.333333333 433.333333333 433.333333333 433.333333333 433.333333333M433.333333333 800.0C433.333333333 800.0 433.333333333 333.333333333 433.333333333 333.333333333C433.333333333 333.333333333 466.666666667 266.666666667 466.666666667 266.666666667C466.666666667 266.666666667 533.333333333 233.333333333 533.333333333 233.333333333C533.333333333 233.333333333 766.666666667 233.333333333 766.666666667 233.333333333M600.0 233.333333333C600.0 233.333333333 733.333333333 266.666666667 733.333333333 266.666666667C733.333333333 266.666666667 766.666666667 233.333333333 766.666666667 233.333333333M133.333333333 600.0C133.333333333 600.0 200.0 533.333333333 200.0 533.333333333C200.0 533.333333333 366.666666667 566.666666667 366.666666667 566.666666667C366.666666667 566.666666667 566.666666667 600.0 566.666666667 600.0C566.666666667 600.0 733.333333333 633.333333333 733.333333333 633.333333333C733.333333333 633.333333333 800.0 566.666666667 800.0 566.666666667M166.666666667 566.666666667C166.666666667 566.666666667 366.666666667 566.666666667 366.666666667 566.666666667M566.666666667 600.0C566.666666667 600.0 766.666666667 600.0 766.666666667 600.0M800.0 566.666666667C800.0 566.666666667 700.0 500.0 700.0 500.0C700.0 500.0 600.0 400.0 600.0 400.0M766.666666667 600.0C766.666666667 600.0 600.0 400.0 600.0 400.0M700.0 800.0C700.0 800.0 766.666666667 733.333333333 766.666666667 733.333333333M766.666666667 866.666666667C766.666666667 866.666666667 833.333333333 800.0 833.333333333 800.0" glyph-name="Ð" horiz-adv-x="900.0" unicode="Ð"/><glyph d="M133.333333333 766.666666667C133.333333333 766.666666667 200.0 700.0 200.0 700.0C200.0 700.0 266.666666667 700.0 266.666666667 700.0C266.666666667 700.0 400.0 733.333333333 400.0 733.333333333C400.0 733.333333333 566.666666667 766.666666667 566.666666667 766.666666667C566.666666667 766.666666667 700.0 800.0 700.0 800.0C700.0 800.0 766.666666667 800.0 766.666666667 800.0C766.666666667 800.0 800.0 766.666666667 800.0 766.666666667M166.666666667 733.333333333C166.666666667 733.333333333 400.0 733.333333333 400.0 733.333333333M566.666666667 766.666666667C566.666666667 766.666666667 800.0 766.666666667 800.0 766.666666667M700.0 766.666666667C700.0 766.666666667 600.0 733.333333333 600.0 733.333333333C600.0 733.333333333 500.0 666.666666667 500.0 666.666666667C500.0 666.666666667 433.333333333 566.666666667 433.333333333 566.666666667C433.333333333 566.666666667 400.0 466.666666667 400.0 466.666666667C400.0 466.666666667 400.0 366.666666667 400.0 366.666666667C400.0 366.666666667 433.333333333 266.666666667 433.333333333 266.666666667C433.333333333 266.666666667 466.666666667 233.333333333 466.666666667 233.333333333C466.666666667 233.333333333 533.333333333 200.0 533.333333333 200.0C533.333333333 200.0 666.666666667 166.666666667 666.666666667 166.666666667C666.666666667 166.666666667 766.666666667 166.666666667 766.666666667 166.666666667M400.0 366.666666667C400.0 366.666666667 433.333333333 300.0 433.333333333 300.0C433.333333333 300.0 466.666666667 266.666666667 466.666666667 266.666666667C466.666666667 266.666666667 533.333333333 233.333333333 533.333333333 233.333333333C533.333333333 233.333333333 666.666666667 200.0 666.666666667 200.0C666.666666667 200.0 733.333333333 200.0 733.333333333 200.0C733.333333333 200.0 766.666666667 166.666666667 766.666666667 166.666666667" glyph-name="S" horiz-adv-x="900.0" unicode="S"/><glyph d="M166.666666667 766.666666667C166.666666667 766.666666667 233.333333333 733.333333333 233.333333333 733.333333333C233.333333333 733.333333333 266.666666667 700.0 266.666666667 700.0C266.666666667 700.0 266.666666667 666.666666667 266.666666667 666.666666667C266.666666667 666.666666667 233.333333333 666.666666667 233.333333333 666.666666667C233.333333333 666.666666667 200.0 733.333333333 200.0 733.333333333C200.0 733.333333333 166.666666667 766.666666667 166.666666667 766.666666667M366.666666667 800.0C366.666666667 800.0 433.333333333 766.666666667 433.333333333 766.666666667C433.333333333 766.666666667 466.666666667 733.333333333 466.666666667 733.333333333C466.666666667 733.333333333 466.666666667 700.0 466.666666667 700.0C466.666666667 700.0 433.333333333 700.0 433.333333333 700.0C433.333333333 700.0 400.0 766.666666667 400.0 766.666666667C400.0 766.666666667 366.666666667 800.0 366.666666667 800.0M666.666666667 800.0C666.666666667 800.0 733.333333333 733.333333333 733.333333333 733.333333333C733.333333333 733.333333333 633.333333333 533.333333333 633.333333333 533.333333333C633.333333333 533.333333333 533.333333333 400.0 533.333333333 400.0C533.333333333 400.0 433.333333333 300.0 433.333333333 300.0C433.333333333 300.0 333.333333333 233.333333333 333.333333333 233.333333333C333.333333333 233.333333333 266.666666667 200.0 266.666666667 200.0M700.0 766.666666667C700.0 766.666666667 666.666666667 666.666666667 666.666666667 666.666666667C666.666666667 666.666666667 600.0 533.333333333 600.0 533.333333333C600.0 533.333333333 500.0 400.0 500.0 400.0C500.0 400.0 400.0 300.0 400.0 300.0C400.0 300.0 266.666666667 200.0 266.666666667 200.0M766.666666667 833.333333333C766.666666667 833.333333333 833.333333333 766.666666667 833.333333333 766.666666667M833.333333333 900.0C833.333333333 900.0 900.0 833.333333333 900.0 833.333333333" glyph-name="Ô" horiz-adv-x="900.0" unicode="Ô"/><glyph d="M200.0 766.666666667C200.0 766.666666667 266.666666667 733.333333333 266.666666667 733.333333333C266.666666667 733.333333333 266.666666667 566.666666667 266.666666667 566.666666667M233.333333333 733.333333333C233.333333333 733.333333333 266.666666667 566.666666667 266.666666667 566.666666667C266.666666667 566.666666667 300.0 466.666666667 300.0 466.666666667C300.0 466.666666667 333.333333333 400.0 333.333333333 400.0C333.333333333 400.0 366.666666667 333.333333333 366.666666667 333.333333333C366.666666667 333.333333333 400.0 300.0 400.0 300.0M333.333333333 400.0C333.333333333 400.0 400.0 333.333333333 400.0 333.333333333C400.0 333.333333333 400.0 300.0 400.0 300.0M466.666666667 833.333333333C466.666666667 833.333333333 533.333333333 800.0 533.333333333 800.0C533.333333333 800.0 533.333333333 733.333333333 533.333333333 733.333333333C533.333333333 733.333333333 466.666666667 566.666666667 466.666666667 566.666666667C466.666666667 566.666666667 366.666666667 333.333333333 366.666666667 333.333333333C366.666666667 333.333333333 300.0 233.333333333 300.0 233.333333333C300.0 233.333333333 233.333333333 200.0 233.333333333 200.0C233.333333333 200.0 166.666666667 200.0 166.666666667 200.0C166.666666667 200.0 133.333333333 266.666666667 133.333333333 266.666666667C133.333333333 266.666666667 133.333333333 333.333333333 133.333333333 333.333333333C133.333333333 333.333333333 166.666666667 433.333333333 166.666666667 433.333333333C166.666666667 433.333333333 200.0 500.0 200.0 500.0C200.0 500.0 266.666666667 566.666666667 266.666666667 566.666666667C266.666666667 566.666666667 366.666666667 633.333333333 366.666666667 633.333333333C366.666666667 633.333333333 500.0 666.666666667 500.0 666.666666667C500.0 666.666666667 600.0 666.666666667 600.0 666.666666667C600.0 666.666666667 700.0 633.333333333 700.0 633.333333333C700.0 633.333333333 766.666666667 566.666666667 766.666666667 566.666666667C766.666666667 566.666666667 800.0 466.666666667 800.0 466.666666667C800.0 466.666666667 800.0 366.666666667 800.0 366.666666667C800.0 366.666666667 766.666666667 266.666666667 766.666666667 266.666666667C766.666666667 266.666666667 733.333333333 233.333333333 733.333333333 233.333333333C733.333333333 233.333333333 666.666666667 200.0 666.666666667 200.0C666.666666667 200.0 600.0 200.0 600.0 200.0C600.0 200.0 533.333333333 233.333333333 533.333333333 233.333333333C533.333333333 233.333333333 500.0 266.666666667 500.0 266.666666667C500.0 266.666666667 500.0 300.0 500.0 300.0C500.0 300.0 533.333333333 333.333333333 533.333333333 333.333333333C533.333333333 333.333333333 600.0 366.666666667 600.0 366.666666667C600.0 366.666666667 666.666666667 366.666666667 666.666666667 366.666666667C666.666666667 366.666666667 733.333333333 333.333333333 733.333333333 333.333333333C733.333333333 333.333333333 800.0 233.333333333 800.0 233.333333333M500.0 800.0C500.0 800.0 500.0 733.333333333 500.0 733.333333333C500.0 733.333333333 466.666666667 566.666666667 466.666666667 566.666666667M200.0 200.0C200.0 200.0 166.666666667 266.666666667 166.666666667 266.666666667C166.666666667 266.666666667 166.666666667 366.666666667 166.666666667 366.666666667C166.666666667 366.666666667 200.0 466.666666667 200.0 466.666666667C200.0 466.666666667 266.666666667 566.666666667 266.666666667 566.666666667M600.0 666.666666667C600.0 666.666666667 666.666666667 633.333333333 666.666666667 633.333333333C666.666666667 633.333333333 733.333333333 566.666666667 733.333333333 566.666666667C733.333333333 566.666666667 766.666666667 466.666666667 766.666666667 466.666666667C766.666666667 466.666666667 766.666666667 333.333333333 766.666666667 333.333333333C766.666666667 333.333333333 733.333333333 233.333333333 733.333333333 233.333333333M733.333333333 333.333333333C733.333333333 333.333333333 800.0 266.666666667 800.0 266.666666667C800.0 266.666666667 800.0 233.333333333 800.0 233.333333333" glyph-name="W" horiz-adv-x="900.0" unicode="W"/><glyph d="M166.666666667 833.333333333C166.666666667 833.333333333 266.666666667 800.0 266.666666667 800.0C266.666666667 800.0 266.666666667 733.333333333 266.666666667 733.333333333C266.666666667 733.333333333 233.333333333 433.333333333 233.333333333 433.333333333M233.333333333 800.0C233.333333333 800.0 233.333333333 333.333333333 233.333333333 333.333333333C233.333333333 333.333333333 266.666666667 266.666666667 266.666666667 266.666666667C266.666666667 266.666666667 333.333333333 233.333333333 333.333333333 233.333333333C333.333333333 233.333333333 700.0 233.333333333 700.0 233.333333333M433.333333333 233.333333333C433.333333333 233.333333333 566.666666667 266.666666667 566.666666667 266.666666667C566.666666667 266.666666667 633.333333333 266.666666667 633.333333333 266.666666667C633.333333333 266.666666667 700.0 233.333333333 700.0 233.333333333M233.333333333 466.666666667C233.333333333 466.666666667 366.666666667 500.0 366.666666667 500.0C366.666666667 500.0 466.666666667 533.333333333 466.666666667 533.333333333C466.666666667 533.333333333 666.666666667 600.0 666.666666667 600.0M466.666666667 533.333333333C466.666666667 533.333333333 600.0 600.0 600.0 600.0C600.0 600.0 666.666666667 600.0 666.666666667 600.0M700.0 766.666666667C700.0 766.666666667 766.666666667 700.0 766.666666667 700.0M766.666666667 833.333333333C766.666666667 833.333333333 833.333333333 766.666666667 833.333333333 766.666666667" glyph-name="Ø" horiz-adv-x="900.0" unicode="Ø"/><glyph d="M166.666666667 833.333333333C166.666666667 833.333333333 200.0 800.0 200.0 800.0C200.0 800.0 266.666666667 766.666666667 266.666666667 766.666666667C266.666666667 766.666666667 400.0 766.666666667 400.0 766.666666667M200.0 800.0C200.0 800.0 366.666666667 800.0 366.666666667 800.0C366.666666667 800.0 400.0 766.666666667 400.0 766.666666667M400.0 766.666666667C400.0 766.666666667 300.0 700.0 300.0 700.0C300.0 700.0 233.333333333 633.333333333 233.333333333 633.333333333C233.333333333 633.333333333 166.666666667 533.333333333 166.666666667 533.333333333C166.666666667 533.333333333 133.333333333 433.333333333 133.333333333 433.333333333C133.333333333 433.333333333 133.333333333 333.333333333 133.333333333 333.333333333C133.333333333 333.333333333 166.666666667 266.666666667 166.666666667 266.666666667C166.666666667 266.666666667 200.0 233.333333333 200.0 233.333333333C200.0 233.333333333 266.666666667 200.0 266.666666667 200.0C266.666666667 200.0 366.666666667 200.0 366.666666667 200.0C366.666666667 200.0 466.666666667 233.333333333 466.666666667 233.333333333C466.666666667 233.333333333 533.333333333 300.0 533.333333333 300.0C533.333333333 300.0 566.666666667 366.666666667 566.666666667 366.666666667C566.666666667 366.666666667 600.0 500.0 600.0 500.0C600.0 500.0 600.0 633.333333333 600.0 633.333333333C600.0 633.333333333 566.666666667 766.666666667 566.666666667 766.666666667C566.666666667 766.666666667 600.0 766.666666667 600.0 766.666666667M133.333333333 366.666666667C133.333333333 366.666666667 166.666666667 300.0 166.666666667 300.0C166.666666667 300.0 200.0 266.666666667 200.0 266.666666667C200.0 266.666666667 266.666666667 233.333333333 266.666666667 233.333333333C266.666666667 233.333333333 366.666666667 233.333333333 366.666666667 233.333333333C366.666666667 233.333333333 466.666666667 266.666666667 466.666666667 266.666666667C466.666666667 266.666666667 533.333333333 333.333333333 533.333333333 333.333333333C533.333333333 333.333333333 566.666666667 400.0 566.666666667 400.0C566.666666667 400.0 600.0 500.0 600.0 500.0M600.0 766.666666667C600.0 766.666666667 666.666666667 666.666666667 666.666666667 666.666666667C666.666666667 666.666666667 700.0 600.0 700.0 600.0C700.0 600.0 766.666666667 500.0 766.666666667 500.0C766.666666667 500.0 800.0 433.333333333 800.0 433.333333333C800.0 433.333333333 733.333333333 433.333333333 733.333333333 433.333333333C733.333333333 433.333333333 700.0 400.0 700.0 400.0M566.666666667 766.666666667C566.666666667 766.666666667 666.666666667 666.666666667 666.666666667 666.666666667M700.0 600.0C700.0 600.0 733.333333333 500.0 733.333333333 500.0C733.333333333 500.0 733.333333333 433.333333333 733.333333333 433.333333333" glyph-name="[" horiz-adv-x="900.0" unicode="["/><glyph d="M266.666666667 666.666666667C266.666666667 666.666666667 333.333333333 600.0 333.333333333 600.0C333.333333333 600.0 300.0 500.0 300.0 500.0C300.0 500.0 266.666666667 433.333333333 266.666666667 433.333333333C266.666666667 433.333333333 200.0 366.666666667 200.0 366.666666667C200.0 366.666666667 133.333333333 333.333333333 133.333333333 333.333333333M300.0 633.333333333C300.0 633.333333333 266.666666667 500.0 266.666666667 500.0C266.666666667 500.0 200.0 366.666666667 200.0 366.666666667M600.0 666.666666667C600.0 666.666666667 666.666666667 600.0 666.666666667 600.0C666.666666667 600.0 733.333333333 500.0 733.333333333 500.0C733.333333333 500.0 800.0 366.666666667 800.0 366.666666667C800.0 366.666666667 800.0 333.333333333 800.0 333.333333333C800.0 333.333333333 766.666666667 333.333333333 766.666666667 333.333333333C766.666666667 333.333333333 733.333333333 466.666666667 733.333333333 466.666666667C733.333333333 466.666666667 666.666666667 600.0 666.666666667 600.0M733.333333333 833.333333333C733.333333333 833.333333333 700.0 800.0 700.0 800.0C700.0 800.0 700.0 733.333333333 700.0 733.333333333C700.0 733.333333333 733.333333333 700.0 733.333333333 700.0C733.333333333 700.0 800.0 700.0 800.0 700.0C800.0 700.0 833.333333333 733.333333333 833.333333333 733.333333333C833.333333333 733.333333333 833.333333333 800.0 833.333333333 800.0C833.333333333 800.0 800.0 833.333333333 800.0 833.333333333C800.0 833.333333333 733.333333333 833.333333333 733.333333333 833.333333333" glyph-name="Ü" horiz-adv-x="900.0" unicode="Ü"/><glyph d="M466.666666667 866.666666667C466.666666667 866.666666667 533.333333333 833.333333333 533.333333333 833.333333333C533.333333333 833.333333333 533.333333333 266.666666667 533.333333333 266.666666667C533.333333333 266.666666667 500.0 200.0 500.0 200.0C500.0 200.0 433.333333333 166.666666667 433.333333333 166.666666667C433.333333333 166.666666667 366.666666667 166.666666667 366.666666667 166.666666667C366.666666667 166.666666667 300.0 200.0 300.0 200.0C300.0 200.0 266.666666667 266.666666667 266.666666667 266.666666667C266.666666667 266.666666667 300.0 333.333333333 300.0 333.333333333C300.0 333.333333333 366.666666667 366.666666667 366.666666667 366.666666667C366.666666667 366.666666667 433.333333333 366.666666667 433.333333333 366.666666667C433.333333333 366.666666667 533.333333333 333.333333333 533.333333333 333.333333333C533.333333333 333.333333333 633.333333333 266.666666667 633.333333333 266.666666667C633.333333333 266.666666667 733.333333333 166.666666667 733.333333333 166.666666667M500.0 833.333333333C500.0 833.333333333 533.333333333 700.0 533.333333333 700.0M633.333333333 266.666666667C633.333333333 266.666666667 733.333333333 200.0 733.333333333 200.0C733.333333333 200.0 733.333333333 166.666666667 733.333333333 166.666666667M133.333333333 766.666666667C133.333333333 766.666666667 200.0 700.0 200.0 700.0C200.0 700.0 500.0 700.0 500.0 700.0C500.0 700.0 733.333333333 733.333333333 733.333333333 733.333333333M166.666666667 733.333333333C166.666666667 733.333333333 333.333333333 700.0 333.333333333 700.0M500.0 700.0C500.0 700.0 633.333333333 733.333333333 633.333333333 733.333333333C633.333333333 733.333333333 700.0 766.666666667 700.0 766.666666667C700.0 766.666666667 733.333333333 733.333333333 733.333333333 733.333333333M300.0 533.333333333C300.0 533.333333333 366.666666667 500.0 366.666666667 500.0C366.666666667 500.0 500.0 500.0 500.0 500.0C500.0 500.0 633.333333333 533.333333333 633.333333333 533.333333333C633.333333333 533.333333333 700.0 566.666666667 700.0 566.666666667M633.333333333 533.333333333C633.333333333 533.333333333 666.666666667 600.0 666.666666667 600.0C666.666666667 600.0 700.0 566.666666667 700.0 566.666666667" glyph-name="_" horiz-adv-x="900.0" unicode="_"/><glyph d="M400.0 866.666666667C400.0 866.666666667 500.0 833.333333333 500.0 833.333333333C500.0 833.333333333 500.0 233.333333333 500.0 233.333333333C500.0 233.333333333 466.666666667 166.666666667 466.666666667 166.666666667C466.666666667 166.666666667 433.333333333 233.333333333 433.333333333 233.333333333C433.333333333 233.333333333 366.666666667 266.666666667 366.666666667 266.666666667M466.666666667 833.333333333C466.666666667 833.333333333 466.666666667 266.666666667 466.666666667 266.666666667C466.666666667 266.666666667 433.333333333 233.333333333 433.333333333 233.333333333M133.333333333 666.666666667C133.333333333 666.666666667 200.0 600.0 200.0 600.0C200.0 600.0 366.666666667 633.333333333 366.666666667 633.333333333C366.666666667 633.333333333 566.666666667 666.666666667 566.666666667 666.666666667C566.666666667 666.666666667 733.333333333 700.0 733.333333333 700.0C733.333333333 700.0 800.0 666.666666667 800.0 666.666666667M166.666666667 633.333333333C166.666666667 633.333333333 366.666666667 633.333333333 366.666666667 633.333333333M566.666666667 666.666666667C566.666666667 666.666666667 800.0 666.666666667 800.0 666.666666667M266.666666667 433.333333333C266.666666667 433.333333333 200.0 333.333333333 200.0 333.333333333C200.0 333.333333333 166.666666667 300.0 166.666666667 300.0C166.666666667 300.0 133.333333333 300.0 133.333333333 300.0C133.333333333 300.0 133.333333333 333.333333333 133.333333333 333.333333333C133.333333333 333.333333333 200.0 366.666666667 200.0 366.666666667C200.0 366.666666667 266.666666667 433.333333333 266.666666667 433.333333333M666.666666667 433.333333333C666.666666667 433.333333333 766.666666667 366.666666667 766.666666667 366.666666667C766.666666667 366.666666667 800.0 333.333333333 800.0 333.333333333C800.0 333.333333333 800.0 300.0 800.0 300.0C800.0 300.0 766.666666667 300.0 766.666666667 300.0C766.666666667 300.0 733.333333333 366.666666667 733.333333333 366.666666667C733.333333333 366.666666667 666.666666667 433.333333333 666.666666667 433.333333333M766.666666667 900.0C766.666666667 900.0 733.333333333 866.666666667 733.333333333 866.666666667C733.333333333 866.666666667 733.333333333 800.0 733.333333333 800.0C733.333333333 800.0 766.666666667 766.666666667 766.666666667 766.666666667C766.666666667 766.666666667 833.333333333 766.666666667 833.333333333 766.666666667C833.333333333 766.666666667 866.666666667 800.0 866.666666667 800.0C866.666666667 800.0 866.666666667 866.666666667 866.666666667 866.666666667C866.666666667 866.666666667 833.333333333 900.0 833.333333333 900.0C833.333333333 900.0 766.666666667 900.0 766.666666667 900.0" glyph-name="à" horiz-adv-x="900.0" unicode="à"/><glyph d="M366.666666667 866.666666667C366.666666667 866.666666667 433.333333333 833.333333333 433.333333333 833.333333333C433.333333333 833.333333333 433.333333333 766.666666667 433.333333333 766.666666667C433.333333333 766.666666667 400.0 633.333333333 400.0 633.333333333M400.0 833.333333333C400.0 833.333333333 400.0 400.0 400.0 400.0C400.0 400.0 433.333333333 266.666666667 433.333333333 266.666666667C433.333333333 266.666666667 466.666666667 200.0 466.666666667 200.0C466.666666667 200.0 533.333333333 166.666666667 533.333333333 166.666666667C533.333333333 166.666666667 666.666666667 166.666666667 666.666666667 166.666666667C666.666666667 166.666666667 733.333333333 200.0 733.333333333 200.0C733.333333333 200.0 766.666666667 266.666666667 766.666666667 266.666666667C766.666666667 266.666666667 766.666666667 333.333333333 766.666666667 333.333333333C766.666666667 333.333333333 733.333333333 400.0 733.333333333 400.0C733.333333333 400.0 666.666666667 466.666666667 666.666666667 466.666666667C666.666666667 466.666666667 566.666666667 533.333333333 566.666666667 533.333333333M633.333333333 166.666666667C633.333333333 166.666666667 700.0 200.0 700.0 200.0C700.0 200.0 733.333333333 266.666666667 733.333333333 266.666666667C733.333333333 266.666666667 733.333333333 366.666666667 733.333333333 366.666666667C733.333333333 366.666666667 700.0 433.333333333 700.0 433.333333333M266.666666667 733.333333333C266.666666667 733.333333333 300.0 700.0 300.0 700.0C300.0 700.0 400.0 666.666666667 400.0 666.666666667C400.0 666.666666667 500.0 666.666666667 500.0 666.666666667M300.0 700.0C300.0 700.0 466.666666667 700.0 466.666666667 700.0C466.666666667 700.0 500.0 666.666666667 500.0 666.666666667M500.0 666.666666667C500.0 666.666666667 400.0 633.333333333 400.0 633.333333333C400.0 633.333333333 333.333333333 600.0 333.333333333 600.0C333.333333333 600.0 266.666666667 533.333333333 266.666666667 533.333333333C266.666666667 533.333333333 233.333333333 466.666666667 233.333333333 466.666666667C233.333333333 466.666666667 266.666666667 400.0 266.666666667 400.0C266.666666667 400.0 333.333333333 366.666666667 333.333333333 366.666666667C333.333333333 366.666666667 500.0 366.666666667 500.0 366.666666667" glyph-name="c" horiz-adv-x="900.0" unicode="c"/><glyph d="M333.333333333 900.0C333.333333333 900.0 366.666666667 866.666666667 366.666666667 866.666666667C366.666666667 866.666666667 433.333333333 833.333333333 433.333333333 833.333333333C433.333333333 833.333333333 566.666666667 833.333333333 566.666666667 833.333333333M366.666666667 866.666666667C366.666666667 866.666666667 533.333333333 866.666666667 533.333333333 866.666666667C533.333333333 866.666666667 566.666666667 833.333333333 566.666666667 833.333333333C566.666666667 833.333333333 433.333333333 766.666666667 433.333333333 766.666666667M200.0 633.333333333C200.0 633.333333333 200.0 600.0 200.0 600.0C200.0 600.0 233.333333333 566.666666667 233.333333333 566.666666667C233.333333333 566.666666667 300.0 566.666666667 300.0 566.666666667C300.0 566.666666667 466.666666667 633.333333333 466.666666667 633.333333333C466.666666667 633.333333333 566.666666667 666.666666667 566.666666667 666.666666667C566.666666667 666.666666667 600.0 633.333333333 600.0 633.333333333M200.0 600.0C200.0 600.0 300.0 600.0 300.0 600.0C300.0 600.0 466.666666667 633.333333333 466.666666667 633.333333333M600.0 633.333333333C600.0 633.333333333 466.666666667 533.333333333 466.666666667 533.333333333C466.666666667 533.333333333 266.666666667 333.333333333 266.666666667 333.333333333C266.666666667 333.333333333 133.333333333 200.0 133.333333333 200.0M566.666666667 666.666666667C566.666666667 666.666666667 466.666666667 533.333333333 466.666666667 533.333333333M133.333333333 200.0C133.333333333 200.0 133.333333333 233.333333333 133.333333333 233.333333333C133.333333333 233.333333333 266.666666667 333.333333333 266.666666667 333.333333333C266.666666667 333.333333333 333.333333333 366.666666667 333.333333333 366.666666667C333.333333333 366.666666667 466.666666667 366.666666667 466.666666667 366.666666667C466.666666667 366.666666667 500.0 333.333333333 500.0 333.333333333C500.0 333.333333333 533.333333333 200.0 533.333333333 200.0C533.333333333 200.0 566.666666667 166.666666667 566.666666667 166.666666667C566.666666667 166.666666667 800.0 166.666666667 800.0 166.666666667M633.333333333 166.666666667C633.333333333 166.666666667 733.333333333 200.0 733.333333333 200.0C733.333333333 200.0 766.666666667 200.0 766.666666667 200.0C766.666666667 200.0 800.0 166.666666667 800.0 166.666666667" glyph-name="g" horiz-adv-x="900.0" unicode="g"/><glyph d="M300.0 833.333333333C300.0 833.333333333 333.333333333 766.666666667 333.333333333 766.666666667C333.333333333 766.666666667 400.0 766.666666667 400.0 766.666666667C400.0 766.666666667 566.666666667 833.333333333 566.666666667 833.333333333M333.333333333 800.0C333.333333333 800.0 400.0 800.0 400.0 800.0C400.0 800.0 566.666666667 833.333333333 566.666666667 833.333333333C566.666666667 833.333333333 600.0 800.0 600.0 800.0M600.0 800.0C600.0 800.0 466.666666667 700.0 466.666666667 700.0C466.666666667 700.0 333.333333333 533.333333333 333.333333333 533.333333333C333.333333333 533.333333333 233.333333333 366.666666667 233.333333333 366.666666667M566.666666667 833.333333333C566.666666667 833.333333333 466.666666667 700.0 466.666666667 700.0M333.333333333 533.333333333C333.333333333 533.333333333 233.333333333 433.333333333 233.333333333 433.333333333C233.333333333 433.333333333 233.333333333 366.666666667 233.333333333 366.666666667M233.333333333 366.666666667C233.333333333 366.666666667 300.0 433.333333333 300.0 433.333333333C300.0 433.333333333 400.0 500.0 400.0 500.0C400.0 500.0 500.0 533.333333333 500.0 533.333333333C500.0 533.333333333 600.0 533.333333333 600.0 533.333333333C600.0 533.333333333 666.666666667 500.0 666.666666667 500.0C666.666666667 500.0 700.0 466.666666667 700.0 466.666666667C700.0 466.666666667 733.333333333 400.0 733.333333333 400.0C733.333333333 400.0 733.333333333 300.0 733.333333333 300.0C733.333333333 300.0 700.0 233.333333333 700.0 233.333333333C700.0 233.333333333 666.666666667 200.0 666.666666667 200.0C666.666666667 200.0 600.0 166.666666667 600.0 166.666666667C600.0 166.666666667 500.0 166.666666667 500.0 166.666666667C500.0 166.666666667 433.333333333 200.0 433.333333333 200.0C433.333333333 200.0 400.0 233.333333333 400.0 233.333333333C400.0 233.333333333 400.0 266.666666667 400.0 266.666666667C400.0 266.666666667 433.333333333 300.0 433.333333333 300.0C433.333333333 300.0 500.0 300.0 500.0 300.0C500.0 300.0 566.666666667 266.666666667 566.666666667 266.666666667C566.666666667 266.666666667 633.333333333 200.0 633.333333333 200.0M600.0 533.333333333C600.0 533.333333333 666.666666667 466.666666667 666.666666667 466.666666667C666.666666667 466.666666667 700.0 400.0 700.0 400.0C700.0 400.0 700.0 300.0 700.0 300.0C700.0 300.0 666.666666667 233.333333333 666.666666667 233.333333333C666.666666667 233.333333333 600.0 166.666666667 600.0 166.666666667" glyph-name="k" horiz-adv-x="900.0" unicode="k"/><glyph d="M300.0 833.333333333C300.0 833.333333333 333.333333333 766.666666667 333.333333333 766.666666667C333.333333333 766.666666667 400.0 766.666666667 400.0 766.666666667C400.0 766.666666667 533.333333333 833.333333333 533.333333333 833.333333333M333.333333333 800.0C333.333333333 800.0 400.0 800.0 400.0 800.0C400.0 800.0 533.333333333 833.333333333 533.333333333 833.333333333C533.333333333 833.333333333 566.666666667 800.0 566.666666667 800.0M566.666666667 800.0C566.666666667 800.0 433.333333333 600.0 433.333333333 600.0C433.333333333 600.0 300.0 333.333333333 300.0 333.333333333C300.0 333.333333333 266.666666667 266.666666667 266.666666667 266.666666667C266.666666667 266.666666667 233.333333333 233.333333333 233.333333333 233.333333333C233.333333333 233.333333333 166.666666667 233.333333333 166.666666667 233.333333333C166.666666667 233.333333333 133.333333333 300.0 133.333333333 300.0C133.333333333 300.0 133.333333333 366.666666667 133.333333333 366.666666667C133.333333333 366.666666667 166.666666667 433.333333333 166.666666667 433.333333333C166.666666667 433.333333333 233.333333333 500.0 233.333333333 500.0C233.333333333 500.0 333.333333333 566.666666667 333.333333333 566.666666667C333.333333333 566.666666667 466.666666667 600.0 466.666666667 600.0C466.666666667 600.0 600.0 600.0 600.0 600.0C600.0 600.0 700.0 566.666666667 700.0 566.666666667C700.0 566.666666667 766.666666667 500.0 766.666666667 500.0C766.666666667 500.0 800.0 433.333333333 800.0 433.333333333C800.0 433.333333333 800.0 333.333333333 800.0 333.333333333C800.0 333.333333333 766.666666667 266.666666667 766.666666667 266.666666667C766.666666667 266.666666667 700.0 200.0 700.0 200.0C700.0 200.0 633.333333333 166.666666667 633.333333333 166.666666667C633.333333333 166.666666667 533.333333333 166.666666667 533.333333333 166.666666667C533.333333333 166.666666667 466.666666667 200.0 466.666666667 200.0C466.666666667 200.0 433.333333333 233.333333333 433.333333333 233.333333333C433.333333333 233.333333333 433.333333333 266.666666667 433.333333333 266.666666667C433.333333333 266.666666667 466.666666667 300.0 466.666666667 300.0C466.666666667 300.0 533.333333333 300.0 533.333333333 300.0C533.333333333 300.0 600.0 266.666666667 600.0 266.666666667C600.0 266.666666667 666.666666667 200.0 666.666666667 200.0M533.333333333 833.333333333C533.333333333 833.333333333 433.333333333 600.0 433.333333333 600.0M200.0 233.333333333C200.0 233.333333333 166.666666667 300.0 166.666666667 300.0C166.666666667 300.0 166.666666667 366.666666667 166.666666667 366.666666667C166.666666667 366.666666667 200.0 466.666666667 200.0 466.666666667M733.333333333 533.333333333C733.333333333 533.333333333 766.666666667 433.333333333 766.666666667 433.333333333C766.666666667 433.333333333 766.666666667 333.333333333 766.666666667 333.333333333C766.666666667 333.333333333 733.333333333 233.333333333 733.333333333 233.333333333" glyph-name="o" horiz-adv-x="900.0" unicode="o"/><glyph d="M433.333333333 866.666666667C433.333333333 866.666666667 500.0 800.0 500.0 800.0C500.0 800.0 400.0 633.333333333 400.0 633.333333333C400.0 633.333333333 266.666666667 400.0 266.666666667 400.0C266.666666667 400.0 133.333333333 166.666666667 133.333333333 166.666666667M466.666666667 833.333333333C466.666666667 833.333333333 400.0 633.333333333 400.0 633.333333333M133.333333333 166.666666667C133.333333333 166.666666667 133.333333333 233.333333333 133.333333333 233.333333333C133.333333333 233.333333333 266.666666667 400.0 266.666666667 400.0C266.666666667 400.0 333.333333333 466.666666667 333.333333333 466.666666667C333.333333333 466.666666667 400.0 500.0 400.0 500.0C400.0 500.0 466.666666667 500.0 466.666666667 500.0C466.666666667 500.0 533.333333333 466.666666667 533.333333333 466.666666667C533.333333333 466.666666667 533.333333333 300.0 533.333333333 300.0C533.333333333 300.0 566.666666667 233.333333333 566.666666667 233.333333333C566.666666667 233.333333333 600.0 200.0 600.0 200.0M466.666666667 500.0C466.666666667 500.0 500.0 466.666666667 500.0 466.666666667C500.0 466.666666667 500.0 300.0 500.0 300.0C500.0 300.0 533.333333333 233.333333333 533.333333333 233.333333333C533.333333333 233.333333333 600.0 200.0 600.0 200.0C600.0 200.0 666.666666667 200.0 666.666666667 200.0C666.666666667 200.0 733.333333333 233.333333333 733.333333333 233.333333333C733.333333333 233.333333333 766.666666667 300.0 766.666666667 300.0C766.666666667 300.0 800.0 400.0 800.0 400.0" glyph-name="s" horiz-adv-x="900.0" unicode="s"/><glyph d="M133.333333333 233.333333333C133.333333333 233.333333333 100.0 200.0 100.0 200.0C100.0 200.0 133.333333333 166.666666667 133.333333333 166.666666667C133.333333333 166.666666667 166.666666667 200.0 166.666666667 200.0C166.666666667 200.0 133.333333333 233.333333333 133.333333333 233.333333333" glyph-name="w" horiz-adv-x="900.0" unicode="w"/><glyph d="M166.666666667 833.333333333C166.666666667 833.333333333 233.333333333 800.0 233.333333333 800.0C233.333333333 800.0 233.333333333 733.333333333 233.333333333 733.333333333C233.333333333 733.333333333 200.0 633.333333333 200.0 633.333333333C200.0 633.333333333 166.666666667 500.0 166.666666667 500.0M200.0 800.0C200.0 800.0 200.0 700.0 200.0 700.0C200.0 700.0 166.666666667 500.0 166.666666667 500.0C166.666666667 500.0 166.666666667 366.666666667 166.666666667 366.666666667C166.666666667 366.666666667 200.0 233.333333333 200.0 233.333333333C200.0 233.333333333 233.333333333 200.0 233.333333333 200.0C233.333333333 200.0 233.333333333 266.666666667 233.333333333 266.666666667C233.333333333 266.666666667 266.666666667 400.0 266.666666667 400.0C266.666666667 400.0 300.0 500.0 300.0 500.0C300.0 500.0 333.333333333 566.666666667 333.333333333 566.666666667C333.333333333 566.666666667 366.666666667 600.0 366.666666667 600.0C366.666666667 600.0 433.333333333 633.333333333 433.333333333 633.333333333C433.333333333 633.333333333 733.333333333 633.333333333 733.333333333 633.333333333C733.333333333 633.333333333 800.0 666.666666667 800.0 666.666666667M166.666666667 366.666666667C166.666666667 366.666666667 200.0 300.0 200.0 300.0C200.0 300.0 233.333333333 266.666666667 233.333333333 266.666666667M600.0 633.333333333C600.0 633.333333333 733.333333333 666.666666667 733.333333333 666.666666667C733.333333333 666.666666667 766.666666667 700.0 766.666666667 700.0C766.666666667 700.0 800.0 666.666666667 800.0 666.666666667M600.0 866.666666667C600.0 866.666666667 666.666666667 833.333333333 666.666666667 833.333333333C666.666666667 833.333333333 666.666666667 366.666666667 666.666666667 366.666666667C666.666666667 366.666666667 633.333333333 266.666666667 633.333333333 266.666666667C633.333333333 266.666666667 566.666666667 200.0 566.666666667 200.0C566.666666667 200.0 466.666666667 133.333333333 466.666666667 133.333333333M633.333333333 833.333333333C633.333333333 833.333333333 666.666666667 733.333333333 666.666666667 733.333333333M666.666666667 466.666666667C666.666666667 466.666666667 633.333333333 333.333333333 633.333333333 333.333333333C633.333333333 333.333333333 566.666666667 233.333333333 566.666666667 233.333333333C566.666666667 233.333333333 466.666666667 133.333333333 466.666666667 133.333333333M766.666666667 833.333333333C766.666666667 833.333333333 833.333333333 766.666666667 833.333333333 766.666666667M833.333333333 900.0C833.333333333 900.0 900.0 833.333333333 900.0 833.333333333" glyph-name="{" horiz-adv-x="900.0" unicode="{"/><glyph d="M466.666666667 866.666666667C466.666666667 866.666666667 533.333333333 833.333333333 533.333333333 833.333333333C533.333333333 833.333333333 533.333333333 433.333333333 533.333333333 433.333333333C533.333333333 433.333333333 500.0 366.666666667 500.0 366.666666667C500.0 366.666666667 433.333333333 333.333333333 433.333333333 333.333333333C433.333333333 333.333333333 366.666666667 366.666666667 366.666666667 366.666666667C366.666666667 366.666666667 333.333333333 433.333333333 333.333333333 433.333333333C333.333333333 433.333333333 333.333333333 466.666666667 333.333333333 466.666666667C333.333333333 466.666666667 366.666666667 533.333333333 366.666666667 533.333333333C366.666666667 533.333333333 433.333333333 566.666666667 433.333333333 566.666666667C433.333333333 566.666666667 500.0 533.333333333 500.0 533.333333333C500.0 533.333333333 533.333333333 466.666666667 533.333333333 466.666666667C533.333333333 466.666666667 533.333333333 333.333333333 533.333333333 333.333333333C533.333333333 333.333333333 500.0 200.0 500.0 200.0C500.0 200.0 433.333333333 133.333333333 433.333333333 133.333333333M500.0 833.333333333C500.0 833.333333333 533.333333333 666.666666667 533.333333333 666.666666667M533.333333333 333.333333333C533.333333333 333.333333333 500.0 233.333333333 500.0 233.333333333C500.0 233.333333333 433.333333333 133.333333333 433.333333333 133.333333333M133.333333333 733.333333333C133.333333333 733.333333333 200.0 666.666666667 200.0 666.666666667C200.0 666.666666667 300.0 666.666666667 300.0 666.666666667C300.0 666.666666667 600.0 700.0 600.0 700.0C600.0 700.0 733.333333333 733.333333333 733.333333333 733.333333333C733.333333333 733.333333333 800.0 700.0 800.0 700.0M166.666666667 700.0C166.666666667 700.0 300.0 666.666666667 300.0 666.666666667M600.0 700.0C600.0 700.0 800.0 700.0 800.0 700.0M666.666666667 866.666666667C666.666666667 866.666666667 733.333333333 800.0 733.333333333 800.0M766.666666667 900.0C766.666666667 900.0 833.333333333 833.333333333 833.333333333 833.333333333" glyph-name="" horiz-adv-x="900.0" unicode=""/><glyph d="M333.333333333 833.333333333C333.333333333 833.333333333 400.0 766.666666667 400.0 766.666666667C400.0 766.666666667 600.0 833.333333333 600.0 833.333333333M366.666666667 800.0C366.666666667 800.0 433.333333333 800.0 433.333333333 800.0C433.333333333 800.0 600.0 833.333333333 600.0 833.333333333C600.0 833.333333333 633.333333333 800.0 633.333333333 800.0M633.333333333 800.0C633.333333333 800.0 533.333333333 700.0 533.333333333 700.0C533.333333333 700.0 333.333333333 566.666666667 333.333333333 566.666666667C333.333333333 566.666666667 200.0 500.0 200.0 500.0M600.0 833.333333333C600.0 833.333333333 566.666666667 766.666666667 566.666666667 766.666666667C566.666666667 766.666666667 500.0 700.0 500.0 700.0C500.0 700.0 333.333333333 566.666666667 333.333333333 566.666666667M166.666666667 533.333333333C166.666666667 533.333333333 233.333333333 466.666666667 233.333333333 466.666666667C233.333333333 466.666666667 366.666666667 533.333333333 366.666666667 533.333333333M200.0 500.0C200.0 500.0 366.666666667 533.333333333 366.666666667 533.333333333C366.666666667 533.333333333 566.666666667 566.666666667 566.666666667 566.666666667C566.666666667 566.666666667 733.333333333 600.0 733.333333333 600.0C733.333333333 600.0 766.666666667 566.666666667 766.666666667 566.666666667M566.666666667 566.666666667C566.666666667 566.666666667 766.666666667 566.666666667 766.666666667 566.666666667M566.666666667 566.666666667C566.666666667 566.666666667 500.0 533.333333333 500.0 533.333333333C500.0 533.333333333 433.333333333 466.666666667 433.333333333 466.666666667C433.333333333 466.666666667 400.0 400.0 400.0 400.0C400.0 400.0 400.0 333.333333333 400.0 333.333333333C400.0 333.333333333 433.333333333 266.666666667 433.333333333 266.666666667C433.333333333 266.666666667 466.666666667 233.333333333 466.666666667 233.333333333C466.666666667 233.333333333 566.666666667 200.0 566.666666667 200.0C566.666666667 200.0 700.0 200.0 700.0 200.0M433.333333333 266.666666667C433.333333333 266.666666667 533.333333333 233.333333333 533.333333333 233.333333333C533.333333333 233.333333333 666.666666667 233.333333333 666.666666667 233.333333333C666.666666667 233.333333333 700.0 200.0 700.0 200.0M733.333333333 800.0C733.333333333 800.0 800.0 733.333333333 800.0 733.333333333M800.0 866.666666667C800.0 866.666666667 866.666666667 800.0 866.666666667 800.0" glyph-name="" horiz-adv-x="900.0" unicode=""/><glyph d="M133.333333333 766.666666667C133.333333333 766.666666667 200.0 700.0 200.0 700.0C200.0 700.0 266.666666667 700.0 266.666666667 700.0C266.666666667 700.0 400.0 733.333333333 400.0 733.333333333C400.0 733.333333333 566.666666667 766.666666667 566.666666667 766.666666667C566.666666667 766.666666667 700.0 800.0 700.0 800.0C700.0 800.0 766.666666667 800.0 766.666666667 800.0C766.666666667 800.0 800.0 766.666666667 800.0 766.666666667M166.666666667 733.333333333C166.666666667 733.333333333 400.0 733.333333333 400.0 733.333333333M566.666666667 766.666666667C566.666666667 766.666666667 800.0 766.666666667 800.0 766.666666667M700.0 766.666666667C700.0 766.666666667 600.0 733.333333333 600.0 733.333333333C600.0 733.333333333 500.0 666.666666667 500.0 666.666666667C500.0 666.666666667 433.333333333 566.666666667 433.333333333 566.666666667C433.333333333 566.666666667 400.0 466.666666667 400.0 466.666666667C400.0 466.666666667 400.0 366.666666667 400.0 366.666666667C400.0 366.666666667 433.333333333 266.666666667 433.333333333 266.666666667C433.333333333 266.666666667 466.666666667 233.333333333 466.666666667 233.333333333C466.666666667 233.333333333 533.333333333 200.0 533.333333333 200.0C533.333333333 200.0 666.666666667 166.666666667 666.666666667 166.666666667C666.666666667 166.666666667 766.666666667 166.666666667 766.666666667 166.666666667M400.0 366.666666667C400.0 366.666666667 433.333333333 300.0 433.333333333 300.0C433.333333333 300.0 466.666666667 266.666666667 466.666666667 266.666666667C466.666666667 266.666666667 533.333333333 233.333333333 533.333333333 233.333333333C533.333333333 233.333333333 666.666666667 200.0 666.666666667 200.0C666.666666667 200.0 733.333333333 200.0 733.333333333 200.0C733.333333333 200.0 766.666666667 166.666666667 766.666666667 166.666666667M733.333333333 633.333333333C733.333333333 633.333333333 800.0 566.666666667 800.0 566.666666667M800.0 700.0C800.0 700.0 866.666666667 633.333333333 866.666666667 633.333333333" glyph-name="" horiz-adv-x="900.0" unicode=""/><glyph d="M400.0 866.666666667C400.0 866.666666667 433.333333333 766.666666667 433.333333333 766.666666667C433.333333333 766.666666667 500.0 733.333333333 500.0 733.333333333M433.333333333 800.0C433.333333333 800.0 500.0 766.666666667 500.0 766.666666667C500.0 766.666666667 533.333333333 766.666666667 533.333333333 766.666666667C533.333333333 766.666666667 533.333333333 733.333333333 533.333333333 733.333333333M533.333333333 733.333333333C533.333333333 733.333333333 433.333333333 700.0 433.333333333 700.0C433.333333333 700.0 366.666666667 666.666666667 366.666666667 666.666666667C366.666666667 666.666666667 333.333333333 633.333333333 333.333333333 633.333333333C333.333333333 633.333333333 333.333333333 566.666666667 333.333333333 566.666666667C333.333333333 566.666666667 366.666666667 533.333333333 366.666666667 533.333333333C366.666666667 533.333333333 433.333333333 500.0 433.333333333 500.0C433.333333333 500.0 500.0 466.666666667 500.0 466.666666667C500.0 466.666666667 533.333333333 433.333333333 533.333333333 433.333333333C533.333333333 433.333333333 566.666666667 366.666666667 566.666666667 366.666666667C566.666666667 366.666666667 566.666666667 300.0 566.666666667 300.0C566.666666667 300.0 533.333333333 233.333333333 533.333333333 233.333333333C533.333333333 233.333333333 466.666666667 200.0 466.666666667 200.0C466.666666667 200.0 400.0 200.0 400.0 200.0C400.0 200.0 300.0 233.333333333 300.0 233.333333333C300.0 233.333333333 233.333333333 300.0 233.333333333 300.0M433.333333333 500.0C433.333333333 500.0 500.0 433.333333333 500.0 433.333333333C500.0 433.333333333 533.333333333 366.666666667 533.333333333 366.666666667C533.333333333 366.666666667 533.333333333 300.0 533.333333333 300.0C533.333333333 300.0 500.0 233.333333333 500.0 233.333333333C500.0 233.333333333 466.666666667 200.0 466.666666667 200.0M166.666666667 233.333333333C166.666666667 233.333333333 266.666666667 333.333333333 266.666666667 333.333333333C266.666666667 333.333333333 366.666666667 400.0 366.666666667 400.0C366.666666667 400.0 466.666666667 433.333333333 466.666666667 433.333333333M600.0 433.333333333C600.0 433.333333333 700.0 400.0 700.0 400.0C700.0 400.0 766.666666667 333.333333333 766.666666667 333.333333333C766.666666667 333.333333333 800.0 266.666666667 800.0 266.666666667C800.0 266.666666667 700.0 266.666666667 700.0 266.666666667M166.666666667 233.333333333C166.666666667 233.333333333 166.666666667 266.666666667 166.666666667 266.666666667C166.666666667 266.666666667 266.666666667 333.333333333 266.666666667 333.333333333M600.0 433.333333333C600.0 433.333333333 666.666666667 400.0 666.666666667 400.0C666.666666667 400.0 733.333333333 333.333333333 733.333333333 333.333333333C733.333333333 333.333333333 766.666666667 266.666666667 766.666666667 266.666666667M633.333333333 766.666666667C633.333333333 766.666666667 700.0 700.0 700.0 700.0M700.0 833.333333333C700.0 833.333333333 766.666666667 766.666666667 766.666666667 766.666666667" glyph-name="" horiz-adv-x="900.0" unicode=""/><glyph d="M166.666666667 833.333333333C166.666666667 833.333333333 200.0 800.0 200.0 800.0C200.0 800.0 266.666666667 766.666666667 266.666666667 766.666666667C266.666666667 766.666666667 400.0 766.666666667 400.0 766.666666667M200.0 800.0C200.0 800.0 366.666666667 800.0 366.666666667 800.0C366.666666667 800.0 400.0 766.666666667 400.0 766.666666667M400.0 766.666666667C400.0 766.666666667 300.0 700.0 300.0 700.0C300.0 700.0 233.333333333 633.333333333 233.333333333 633.333333333C233.333333333 633.333333333 166.666666667 533.333333333 166.666666667 533.333333333C166.666666667 533.333333333 133.333333333 433.333333333 133.333333333 433.333333333C133.333333333 433.333333333 133.333333333 333.333333333 133.333333333 333.333333333C133.333333333 333.333333333 166.666666667 266.666666667 166.666666667 266.666666667C166.666666667 266.666666667 200.0 233.333333333 200.0 233.333333333C200.0 233.333333333 266.666666667 200.0 266.666666667 200.0C266.666666667 200.0 366.666666667 200.0 366.666666667 200.0C366.666666667 200.0 466.666666667 233.333333333 466.666666667 233.333333333C466.666666667 233.333333333 533.333333333 300.0 533.333333333 300.0C533.333333333 300.0 566.666666667 366.666666667 566.666666667 366.666666667C566.666666667 366.666666667 600.0 500.0 600.0 500.0C600.0 500.0 600.0 633.333333333 600.0 633.333333333C600.0 633.333333333 566.666666667 766.666666667 566.666666667 766.666666667C566.666666667 766.666666667 600.0 766.666666667 600.0 766.666666667M133.333333333 366.666666667C133.333333333 366.666666667 166.666666667 300.0 166.666666667 300.0C166.666666667 300.0 200.0 266.666666667 200.0 266.666666667C200.0 266.666666667 266.666666667 233.333333333 266.666666667 233.333333333C266.666666667 233.333333333 366.666666667 233.333333333 366.666666667 233.333333333C366.666666667 233.333333333 466.666666667 266.666666667 466.666666667 266.666666667C466.666666667 266.666666667 533.333333333 333.333333333 533.333333333 333.333333333C533.333333333 333.333333333 566.666666667 400.0 566.666666667 400.0C566.666666667 400.0 600.0 500.0 600.0 500.0M600.0 766.666666667C600.0 766.666666667 666.666666667 666.666666667 666.666666667 666.666666667C666.666666667 666.666666667 700.0 600.0 700.0 600.0C700.0 600.0 766.666666667 500.0 766.666666667 500.0C766.666666667 500.0 800.0 433.333333333 800.0 433.333333333C800.0 433.333333333 733.333333333 433.333333333 733.333333333 433.333333333C733.333333333 433.333333333 700.0 400.0 700.0 400.0M566.666666667 766.666666667C566.666666667 766.666666667 666.666666667 666.666666667 666.666666667 666.666666667M700.0 600.0C700.0 600.0 733.333333333 500.0 733.333333333 500.0C733.333333333 500.0 733.333333333 433.333333333 733.333333333 433.333333333M733.333333333 866.666666667C733.333333333 866.666666667 700.0 833.333333333 700.0 833.333333333C700.0 833.333333333 700.0 766.666666667 700.0 766.666666667C700.0 766.666666667 733.333333333 733.333333333 733.333333333 733.333333333C733.333333333 733.333333333 800.0 733.333333333 800.0 733.333333333C800.0 733.333333333 833.333333333 766.666666667 833.333333333 766.666666667C833.333333333 766.666666667 833.333333333 833.333333333 833.333333333 833.333333333C833.333333333 833.333333333 800.0 866.666666667 800.0 866.666666667C800.0 866.666666667 733.333333333 866.666666667 733.333333333 866.666666667" glyph-name="" horiz-adv-x="900.0" unicode=""/><glyph d="M133.333333333 833.333333333C133.333333333 833.333333333 200.0 766.666666667 200.0 766.666666667C200.0 766.666666667 366.666666667 800.0 366.666666667 800.0C366.666666667 800.0 566.666666667 833.333333333 566.666666667 833.333333333C566.666666667 833.333333333 733.333333333 866.666666667 733.333333333 866.666666667C733.333333333 866.666666667 800.0 800.0 800.0 800.0M166.666666667 800.0C166.666666667 800.0 366.666666667 800.0 366.666666667 800.0M566.666666667 833.333333333C566.666666667 833.333333333 766.666666667 833.333333333 766.666666667 833.333333333M800.0 800.0C800.0 800.0 733.333333333 733.333333333 733.333333333 733.333333333C733.333333333 733.333333333 600.0 633.333333333 600.0 633.333333333C600.0 633.333333333 533.333333333 600.0 533.333333333 600.0M766.666666667 833.333333333C766.666666667 833.333333333 700.0 733.333333333 700.0 733.333333333C700.0 733.333333333 633.333333333 666.666666667 633.333333333 666.666666667C633.333333333 666.666666667 533.333333333 600.0 533.333333333 600.0M466.666666667 633.333333333C466.666666667 633.333333333 533.333333333 600.0 533.333333333 600.0C533.333333333 600.0 533.333333333 500.0 533.333333333 500.0C533.333333333 500.0 500.0 366.666666667 500.0 366.666666667C500.0 366.666666667 433.333333333 266.666666667 433.333333333 266.666666667C433.333333333 266.666666667 333.333333333 166.666666667 333.333333333 166.666666667M466.666666667 633.333333333C466.666666667 633.333333333 500.0 600.0 500.0 600.0C500.0 600.0 500.0 500.0 500.0 500.0C500.0 500.0 466.666666667 366.666666667 466.666666667 366.666666667C466.666666667 366.666666667 400.0 233.333333333 400.0 233.333333333" glyph-name="" horiz-adv-x="900.0" unicode=""/><glyph d="M466.666666667 866.666666667C466.666666667 866.666666667 566.666666667 833.333333333 566.666666667 833.333333333C566.666666667 833.333333333 566.666666667 233.333333333 566.666666667 233.333333333C566.666666667 233.333333333 533.333333333 166.666666667 533.333333333 166.666666667C533.333333333 166.666666667 500.0 233.333333333 500.0 233.333333333C500.0 233.333333333 400.0 300.0 400.0 300.0M533.333333333 833.333333333C533.333333333 833.333333333 533.333333333 266.666666667 533.333333333 266.666666667C533.333333333 266.666666667 500.0 233.333333333 500.0 233.333333333M133.333333333 666.666666667C133.333333333 666.666666667 200.0 600.0 200.0 600.0C200.0 600.0 366.666666667 633.333333333 366.666666667 633.333333333C366.666666667 633.333333333 566.666666667 666.666666667 566.666666667 666.666666667C566.666666667 666.666666667 733.333333333 700.0 733.333333333 700.0C733.333333333 700.0 800.0 666.666666667 800.0 666.666666667M166.666666667 633.333333333C166.666666667 633.333333333 366.666666667 633.333333333 366.666666667 633.333333333M566.666666667 666.666666667C566.666666667 666.666666667 800.0 666.666666667 800.0 666.666666667M500.0 633.333333333C500.0 633.333333333 400.0 500.0 400.0 500.0C400.0 500.0 266.666666667 366.666666667 266.666666667 366.666666667C266.666666667 366.666666667 133.333333333 266.666666667 133.333333333 266.666666667M533.333333333 633.333333333C533.333333333 633.333333333 466.666666667 533.333333333 466.666666667 533.333333333C466.666666667 533.333333333 366.666666667 433.333333333 366.666666667 433.333333333C366.666666667 433.333333333 233.333333333 333.333333333 233.333333333 333.333333333C233.333333333 333.333333333 133.333333333 266.666666667 133.333333333 266.666666667" glyph-name="" horiz-adv-x="900.0" unicode=""/><glyph d="M333.333333333 866.666666667C333.333333333 866.666666667 400.0 800.0 400.0 800.0C400.0 800.0 333.333333333 666.666666667 333.333333333 666.666666667C333.333333333 666.666666667 266.666666667 566.666666667 266.666666667 566.666666667C266.666666667 566.666666667 200.0 500.0 200.0 500.0C200.0 500.0 133.333333333 433.333333333 133.333333333 433.333333333M366.666666667 833.333333333C366.666666667 833.333333333 333.333333333 733.333333333 333.333333333 733.333333333C333.333333333 733.333333333 266.666666667 600.0 266.666666667 600.0C266.666666667 600.0 200.0 500.0 200.0 500.0M266.666666667 566.666666667C266.666666667 566.666666667 533.333333333 600.0 533.333333333 600.0C533.333333333 600.0 700.0 633.333333333 700.0 633.333333333C700.0 633.333333333 800.0 600.0 800.0 600.0M533.333333333 600.0C533.333333333 600.0 800.0 600.0 800.0 600.0M466.666666667 566.666666667C466.666666667 566.666666667 533.333333333 500.0 533.333333333 500.0C533.333333333 500.0 466.666666667 366.666666667 466.666666667 366.666666667C466.666666667 366.666666667 400.0 266.666666667 400.0 266.666666667C400.0 266.666666667 333.333333333 200.0 333.333333333 200.0C333.333333333 200.0 266.666666667 133.333333333 266.666666667 133.333333333M500.0 533.333333333C500.0 533.333333333 466.666666667 433.333333333 466.666666667 433.333333333C466.666666667 433.333333333 400.0 300.0 400.0 300.0C400.0 300.0 333.333333333 200.0 333.333333333 200.0" glyph-name="" horiz-adv-x="900.0" unicode=""/><glyph d="M200.0 766.666666667C200.0 766.666666667 266.666666667 700.0 266.666666667 700.0C266.666666667 700.0 633.333333333 766.666666667 633.333333333 766.666666667C633.333333333 766.666666667 700.0 700.0 700.0 700.0M233.333333333 733.333333333C233.333333333 733.333333333 666.666666667 733.333333333 666.666666667 733.333333333M700.0 700.0C700.0 700.0 633.333333333 600.0 633.333333333 600.0C633.333333333 600.0 533.333333333 500.0 533.333333333 500.0C533.333333333 500.0 433.333333333 433.333333333 433.333333333 433.333333333C433.333333333 433.333333333 366.666666667 400.0 366.666666667 400.0C366.666666667 400.0 200.0 333.333333333 200.0 333.333333333M666.666666667 733.333333333C666.666666667 733.333333333 633.333333333 666.666666667 633.333333333 666.666666667C633.333333333 666.666666667 566.666666667 566.666666667 566.666666667 566.666666667C566.666666667 566.666666667 500.0 500.0 500.0 500.0C500.0 500.0 400.0 433.333333333 400.0 433.333333333C400.0 433.333333333 200.0 333.333333333 200.0 333.333333333M566.666666667 433.333333333C566.666666667 433.333333333 666.666666667 366.666666667 666.666666667 366.666666667C666.666666667 366.666666667 733.333333333 300.0 733.333333333 300.0C733.333333333 300.0 733.333333333 266.666666667 733.333333333 266.666666667C733.333333333 266.666666667 700.0 266.666666667 700.0 266.666666667C700.0 266.666666667 666.666666667 333.333333333 666.666666667 333.333333333C666.666666667 333.333333333 566.666666667 433.333333333 566.666666667 433.333333333" glyph-name="" horiz-adv-x="900.0" unicode=""/><glyph d="M266.666666667 733.333333333C266.666666667 733.333333333 366.666666667 733.333333333 366.666666667 733.333333333C366.666666667 733.333333333 533.333333333 766.666666667 533.333333333 766.666666667C533.333333333 766.666666667 666.666666667 833.333333333 666.666666667 833.333333333M366.666666667 733.333333333C366.666666667 733.333333333 466.666666667 766.666666667 466.666666667 766.666666667C466.666666667 766.666666667 533.333333333 800.0 533.333333333 800.0C533.333333333 800.0 633.333333333 866.666666667 633.333333333 866.666666667C633.333333333 866.666666667 666.666666667 833.333333333 666.666666667 833.333333333M400.0 733.333333333C400.0 733.333333333 500.0 700.0 500.0 700.0C500.0 700.0 500.0 500.0 500.0 500.0C500.0 500.0 466.666666667 366.666666667 466.666666667 366.666666667C466.666666667 366.666666667 400.0 266.666666667 400.0 266.666666667C400.0 266.666666667 300.0 166.666666667 300.0 166.666666667M466.666666667 700.0C466.666666667 700.0 466.666666667 500.0 466.666666667 500.0C466.666666667 500.0 433.333333333 366.666666667 433.333333333 366.666666667C433.333333333 366.666666667 366.666666667 233.333333333 366.666666667 233.333333333M133.333333333 600.0C133.333333333 600.0 200.0 533.333333333 200.0 533.333333333C200.0 533.333333333 366.666666667 566.666666667 366.666666667 566.666666667C366.666666667 566.666666667 566.666666667 600.0 566.666666667 600.0C566.666666667 600.0 733.333333333 633.333333333 733.333333333 633.333333333C733.333333333 633.333333333 800.0 600.0 800.0 600.0M166.666666667 566.666666667C166.666666667 566.666666667 366.666666667 566.666666667 366.666666667 566.666666667M566.666666667 600.0C566.666666667 600.0 800.0 600.0 800.0 600.0" glyph-name="¡" horiz-adv-x="900.0" unicode="¡"/><glyph d="M133.333333333 566.666666667C133.333333333 566.666666667 200.0 500.0 200.0 500.0C200.0 500.0 733.333333333 533.333333333 733.333333333 533.333333333C733.333333333 533.333333333 800.0 500.0 800.0 500.0M166.666666667 533.333333333C166.666666667 533.333333333 800.0 500.0 800.0 500.0" glyph-name="&quot;" horiz-adv-x="900.0" unicode="&quot;"/><glyph d="M433.333333333 866.666666667C433.333333333 866.666666667 533.333333333 833.333333333 533.333333333 833.333333333C533.333333333 833.333333333 533.333333333 666.666666667 533.333333333 666.666666667C533.333333333 666.666666667 500.0 500.0 500.0 500.0C500.0 500.0 466.666666667 400.0 466.666666667 400.0C466.666666667 400.0 433.333333333 333.333333333 433.333333333 333.333333333C433.333333333 333.333333333 366.666666667 233.333333333 366.666666667 233.333333333C366.666666667 233.333333333 300.0 166.666666667 300.0 166.666666667M500.0 833.333333333C500.0 833.333333333 500.0 666.666666667 500.0 666.666666667C500.0 666.666666667 466.666666667 500.0 466.666666667 500.0C466.666666667 500.0 433.333333333 366.666666667 433.333333333 366.666666667C433.333333333 366.666666667 366.666666667 233.333333333 366.666666667 233.333333333M133.333333333 600.0C133.333333333 600.0 200.0 533.333333333 200.0 533.333333333C200.0 533.333333333 366.666666667 566.666666667 366.666666667 566.666666667C366.666666667 566.666666667 566.666666667 600.0 566.666666667 600.0C566.666666667 600.0 733.333333333 633.333333333 733.333333333 633.333333333C733.333333333 633.333333333 800.0 600.0 800.0 600.0M166.666666667 566.666666667C166.666666667 566.666666667 366.666666667 566.666666667 366.666666667 566.666666667M566.666666667 600.0C566.666666667 600.0 800.0 600.0 800.0 600.0" glyph-name="¥" horiz-adv-x="900.0" unicode="¥"/><glyph d="M433.333333333 866.666666667C433.333333333 866.666666667 433.333333333 666.666666667 433.333333333 666.666666667C433.333333333 666.666666667 400.0 500.0 400.0 500.0C400.0 500.0 333.333333333 366.666666667 333.333333333 366.666666667C333.333333333 366.666666667 266.666666667 266.666666667 266.666666667 266.666666667C266.666666667 266.666666667 200.0 200.0 200.0 200.0C200.0 200.0 100.0 133.333333333 100.0 133.333333333M466.666666667 833.333333333C466.666666667 833.333333333 466.666666667 700.0 466.666666667 700.0M433.333333333 866.666666667C433.333333333 866.666666667 500.0 833.333333333 500.0 833.333333333C500.0 833.333333333 466.666666667 600.0 466.666666667 600.0C466.666666667 600.0 433.333333333 466.666666667 433.333333333 466.666666667C433.333333333 466.666666667 366.666666667 333.333333333 366.666666667 333.333333333C366.666666667 333.333333333 266.666666667 233.333333333 266.666666667 233.333333333C266.666666667 233.333333333 166.666666667 166.666666667 166.666666667 166.666666667C166.666666667 166.666666667 100.0 133.333333333 100.0 133.333333333M100.0 633.333333333C100.0 633.333333333 833.333333333 633.333333333 833.333333333 633.333333333C833.333333333 633.333333333 766.666666667 700.0 766.666666667 700.0C766.666666667 700.0 700.0 633.333333333 700.0 633.333333333M700.0 633.333333333C700.0 633.333333333 800.0 666.666666667 800.0 666.666666667M500.0 633.333333333C500.0 633.333333333 533.333333333 500.0 533.333333333 500.0C533.333333333 500.0 566.666666667 400.0 566.666666667 400.0C566.666666667 400.0 600.0 333.333333333 600.0 333.333333333C600.0 333.333333333 666.666666667 233.333333333 666.666666667 233.333333333C666.666666667 233.333333333 766.666666667 133.333333333 766.666666667 133.333333333C766.666666667 133.333333333 833.333333333 166.666666667 833.333333333 166.666666667M700.0 233.333333333C700.0 233.333333333 766.666666667 166.666666667 766.666666667 166.666666667M500.0 633.333333333C500.0 633.333333333 533.333333333 533.333333333 533.333333333 533.333333333C533.333333333 533.333333333 600.0 400.0 600.0 400.0C600.0 400.0 666.666666667 300.0 666.666666667 300.0C666.666666667 300.0 733.333333333 233.333333333 733.333333333 233.333333333C733.333333333 233.333333333 833.333333333 166.666666667 833.333333333 166.666666667" glyph-name="&amp;" horiz-adv-x="900.0" unicode="&amp;"/><glyph d="M633.333333333 800.0C633.333333333 800.0 700.0 733.333333333 700.0 733.333333333C700.0 733.333333333 600.0 533.333333333 600.0 533.333333333C600.0 533.333333333 500.0 400.0 500.0 400.0C500.0 400.0 400.0 300.0 400.0 300.0C400.0 300.0 300.0 233.333333333 300.0 233.333333333C300.0 233.333333333 233.333333333 200.0 233.333333333 200.0M666.666666667 766.666666667C666.666666667 766.666666667 633.333333333 666.666666667 633.333333333 666.666666667C633.333333333 666.666666667 533.333333333 500.0 533.333333333 500.0C533.333333333 500.0 433.333333333 366.666666667 433.333333333 366.666666667C433.333333333 366.666666667 333.333333333 266.666666667 333.333333333 266.666666667C333.333333333 266.666666667 233.333333333 200.0 233.333333333 200.0" glyph-name="©" horiz-adv-x="900.0" unicode="©"/><glyph d="M466.666666667 800.0C466.666666667 800.0 500.0 833.333333333 500.0 833.333333333C500.0 833.333333333 433.333333333 866.666666667 433.333333333 866.666666667C433.333333333 866.666666667 433.333333333 100.0 433.333333333 100.0M466.666666667 833.333333333C466.666666667 833.333333333 466.666666667 100.0 466.666666667 100.0M200.0 666.666666667C200.0 666.666666667 133.333333333 700.0 133.333333333 700.0C133.333333333 700.0 133.333333333 333.333333333 133.333333333 333.333333333M166.666666667 666.666666667C166.666666667 666.666666667 166.666666667 333.333333333 166.666666667 333.333333333M166.666666667 666.666666667C166.666666667 666.666666667 733.333333333 666.666666667 733.333333333 666.666666667M700.0 666.666666667C700.0 666.666666667 733.333333333 700.0 733.333333333 700.0C733.333333333 700.0 800.0 666.666666667 800.0 666.666666667C800.0 666.666666667 766.666666667 600.0 766.666666667 600.0M733.333333333 666.666666667C733.333333333 666.666666667 733.333333333 333.333333333 733.333333333 333.333333333M766.666666667 666.666666667C766.666666667 666.666666667 766.666666667 333.333333333 766.666666667 333.333333333M166.666666667 366.666666667C166.666666667 366.666666667 733.333333333 366.666666667 733.333333333 366.666666667" glyph-name="*" horiz-adv-x="900.0" unicode="*"/><glyph d="M100.0 500.0C100.0 500.0 166.666666667 433.333333333 166.666666667 433.333333333C166.666666667 433.333333333 400.0 666.666666667 400.0 666.666666667C400.0 666.666666667 433.333333333 666.666666667 433.333333333 666.666666667C433.333333333 666.666666667 766.666666667 333.333333333 766.666666667 333.333333333M133.333333333 466.666666667C133.333333333 466.666666667 200.0 500.0 200.0 500.0C200.0 500.0 333.333333333 600.0 333.333333333 600.0M566.666666667 533.333333333C566.666666667 533.333333333 733.333333333 400.0 733.333333333 400.0C733.333333333 400.0 800.0 366.666666667 800.0 366.666666667C800.0 366.666666667 766.666666667 333.333333333 766.666666667 333.333333333" glyph-name="­" horiz-adv-x="900.0" unicode="­"/></font>
</defs>
</svg>
